<?xml version="1.0" standalone="no"?>
<!DOCTYPE svg PUBLIC "-//W3C//DTD SVG 1.1//EN" "http://www.w3.org/Graphics/SVG/1.1/DTD/svg11.dtd" >
<svg xmlns="http://www.w3.org/2000/svg" xmlns:xlink="http://www.w3.org/1999/xlink" version="1.1">
<metadata>
Created by FontForge 20181014 at Wed Jan 18 14:37:58 2006
 By convertio
Copyright (c) Village Type &#38; Design LLC. All rights reserved.
</metadata>
<defs>
<font id="ApexNew-Book" horiz-adv-x="570" >
  <font-face 
    font-family="Apex New Book"
    font-weight="500"
    font-stretch="normal"
    units-per-em="1000"
    panose-1="2 1 6 0 4 5 1 1 1 3"
    ascent="750"
    descent="-250"
    x-height="500"
    cap-height="750"
    bbox="-80 -270 1455 995"
    underline-thickness="25"
    underline-position="-100"
    unicode-range="U+0020-FF3F"
  />
<missing-glyph horiz-adv-x="649" 
d="M403 293h-156v242h156v-242zM325 47c-107 0 -201 -25 -275 -57v166c74 31 167 52 275 52s201 -21 275 -52v-166c-74 32 -168 57 -275 57zM515 760c54 0 95 -41 95 -95c0 -53 -41 -95 -95 -95c-53 0 -95 42 -95 95c0 54 42 95 95 95zM135 760c53 0 95 -41 95 -95
c0 -53 -42 -95 -95 -95c-54 0 -95 42 -95 95c0 54 41 95 95 95z" />
    <glyph glyph-name="f_b" unicode="fb" horiz-adv-x="915" 
d="M655 510c161 0 205 -116 205 -260s-44 -260 -205 -260c-54 0 -104 18 -156 51l-15 -41h-39v694c-20 2 -42 4 -65 4c-105 0 -193 -28 -193 -113v-85h158v-55h-158v-445h-67v445h-100v31l100 29v80c0 116 95 175 260 175c41 0 96 -4 135 -10v-281c43 28 94 41 140 41z
M655 448c-65 0 -101 -11 -140 -32v-332c39 -21 75 -32 140 -32c120 0 135 99 135 198s-15 198 -135 198z" />
    <glyph glyph-name="f_f_b" unicode="ffb" horiz-adv-x="1240" 
d="M370 753v-63c-20 5 -39 8 -70 8c-65 0 -113 -23 -113 -88v-110h258v85c0 116 95 175 260 175c41 0 96 -4 135 -10v-281c43 28 94 41 140 41c161 0 205 -116 205 -260s-44 -260 -205 -260c-54 0 -104 18 -156 51l-15 -41h-39v694c-20 2 -42 4 -65 4
c-105 0 -193 -28 -193 -113v-85h158v-55h-158v-445h-67v445h-258v-445h-67v445h-100v31l100 29v105c0 96 55 150 180 150c21 0 50 -2 70 -7zM980 448c-65 0 -101 -11 -140 -32v-332c39 -21 75 -32 140 -32c120 0 135 99 135 198s-15 198 -135 198z" />
    <glyph glyph-name="ff" unicode="ff" horiz-adv-x="700" 
d="M695 753v-63c-20 5 -39 8 -70 8c-65 0 -113 -23 -113 -88v-110h158v-55h-158v-445h-67v445h-258v-445h-67v445h-100v31l100 29v105c0 96 55 150 180 150c21 0 50 -2 70 -7v-63c-20 5 -39 8 -70 8c-65 0 -113 -23 -113 -88v-110h258v110c0 96 55 150 180 150
c21 0 50 -2 70 -7z" />
    <glyph glyph-name="f_h" unicode="fh" horiz-adv-x="880" 
d="M750 363c0 65 -38 85 -100 85c-65 0 -100 -11 -137 -32v-416h-68v694c-20 2 -42 4 -65 4c-105 0 -193 -28 -193 -113v-85h158v-55h-158v-445h-67v445h-100v31l100 29v80c0 116 95 175 260 175c41 0 94 -4 133 -10v-281c43 28 91 41 137 41c119 0 170 -54 170 -150v-360
h-70v363z" />
    <glyph glyph-name="f_f_h" unicode="ffh" horiz-adv-x="1205" 
d="M370 753v-63c-20 5 -39 8 -70 8c-65 0 -113 -23 -113 -88v-110h258v85c0 116 95 175 260 175c41 0 94 -4 133 -10v-281c43 28 91 41 137 41c119 0 170 -54 170 -150v-360h-70v363c0 65 -38 85 -100 85c-65 0 -100 -11 -137 -32v-416h-68v694c-20 2 -42 4 -65 4
c-105 0 -193 -28 -193 -113v-85h158v-55h-158v-445h-67v445h-258v-445h-67v445h-100v31l100 29v105c0 96 55 150 180 150c21 0 50 -2 70 -7z" />
    <glyph glyph-name="fi" unicode="fi" horiz-adv-x="605" 
d="M555 -10c-72 0 -110 30 -110 110v345h-258v-445h-67v445h-100v31l100 29v80c0 116 95 175 260 175c41 0 96 -4 133 -9v-66c-43 7 -82 13 -133 13c-105 0 -193 -28 -193 -113v-85h326v-408c0 -35 11 -45 42 -45v-57z" />
    <glyph glyph-name="ffi" unicode="ffi" horiz-adv-x="930" 
d="M880 -10c-72 0 -110 30 -110 110v345h-258v-445h-67v445h-258v-445h-67v445h-100v31l100 29v105c0 96 55 150 180 150c21 0 50 -2 70 -7v-63c-20 5 -39 8 -70 8c-65 0 -113 -23 -113 -88v-110h258v85c0 116 95 175 260 175c41 0 96 -4 133 -9v-66c-43 7 -82 13 -133 13
c-105 0 -193 -28 -193 -113v-85h326v-408c0 -35 11 -45 42 -45v-57z" />
    <glyph glyph-name="f_j" unicode="fj" horiz-adv-x="594" 
d="M317 -260v59c59 8 128 37 128 114v532h-258v-445h-67v445h-100v31l100 29v80c0 116 95 175 260 175c41 0 96 -4 133 -9v-66c-43 7 -82 13 -133 13c-105 0 -193 -28 -193 -113v-85h326v-596c0 -104 -105 -159 -196 -164z" />
    <glyph glyph-name="f_f_j" unicode="ffj" horiz-adv-x="919" 
d="M370 753v-63c-20 5 -39 8 -70 8c-65 0 -113 -23 -113 -88v-110h258v85c0 116 95 175 260 175c41 0 96 -4 133 -9v-66c-43 7 -82 13 -133 13c-105 0 -193 -28 -193 -113v-85h326v-596c0 -104 -105 -159 -196 -164v59c59 8 128 37 128 114v532h-258v-445h-67v445h-258v-445
h-67v445h-100v31l100 29v105c0 96 55 150 180 150c21 0 50 -2 70 -7z" />
    <glyph glyph-name="f_k" unicode="fk" horiz-adv-x="880" 
d="M833 500l-215 -206l242 -294h-87l-197 254l-63 -60v-194h-68v694c-20 2 -42 4 -65 4c-105 0 -193 -28 -193 -113v-85h158v-55h-158v-445h-67v445h-100v31l100 29v80c0 116 95 175 260 175c41 0 94 -4 133 -10v-474l226 224h94z" />
    <glyph glyph-name="f_f_k" unicode="ffk" horiz-adv-x="1205" 
d="M370 753v-63c-20 5 -39 8 -70 8c-65 0 -113 -23 -113 -88v-110h258v85c0 116 95 175 260 175c41 0 94 -4 133 -10v-474l226 224h94l-215 -206l242 -294h-87l-197 254l-63 -60v-194h-68v694c-20 2 -42 4 -65 4c-105 0 -193 -28 -193 -113v-85h158v-55h-158v-445h-67v445
h-258v-445h-67v445h-100v31l100 29v105c0 96 55 150 180 150c21 0 50 -2 70 -7z" />
    <glyph glyph-name="fl" unicode="fl" horiz-adv-x="605" 
d="M555 -10c-72 0 -110 30 -110 110v594c-20 2 -42 4 -65 4c-105 0 -193 -28 -193 -113v-85h158v-55h-158v-445h-67v445h-100v31l100 29v80c0 116 95 175 260 175c41 0 96 -4 133 -9v-659c0 -35 11 -45 42 -45v-57z" />
    <glyph glyph-name="ffl" unicode="ffl" horiz-adv-x="930" 
d="M370 753v-63c-20 5 -39 8 -70 8c-65 0 -113 -23 -113 -88v-110h258v85c0 116 95 175 260 175c41 0 96 -4 133 -9v-659c0 -35 11 -45 42 -45v-57c-72 0 -110 30 -110 110v594c-20 2 -42 4 -65 4c-105 0 -193 -28 -193 -113v-85h158v-55h-158v-445h-67v445h-258v-445h-67
v445h-100v31l100 29v105c0 96 55 150 180 150c21 0 50 -2 70 -7z" />
    <glyph glyph-name="f_t" unicode="ft" horiz-adv-x="700" 
d="M650 50v-56c-12 -3 -32 -4 -45 -4c-83 0 -160 38 -160 136v319h-258v-445h-67v445h-100v31l100 29v105c0 96 55 150 180 150c21 0 50 -2 70 -7v-63c-20 5 -39 8 -70 8c-65 0 -113 -23 -113 -88v-110h258v140l70 20v-160h155v-55h-155v-311c0 -61 33 -86 96 -86
c13 0 26 1 39 2z" />
    <glyph glyph-name="f_f_t" unicode="fft" horiz-adv-x="1025" 
d="M370 753v-63c-20 5 -39 8 -70 8c-65 0 -113 -23 -113 -88v-110h258v110c0 96 55 150 180 150c21 0 50 -2 70 -7v-63c-20 5 -39 8 -70 8c-65 0 -113 -23 -113 -88v-110h258v140l70 20v-160h155v-55h-155v-311c0 -61 33 -86 96 -86c13 0 26 1 39 2v-56
c-12 -3 -32 -4 -45 -4c-83 0 -160 38 -160 136v319h-258v-445h-67v445h-258v-445h-67v445h-100v31l100 29v105c0 96 55 150 180 150c21 0 50 -2 70 -7z" />
    <glyph glyph-name="f_dotlessi" unicode="f&#x131;" horiz-adv-x="605" 
d="M120 505v105c0 96 55 150 180 150c21 0 50 -2 70 -7v-63c-20 5 -39 8 -70 8c-65 0 -113 -23 -113 -88v-110h326v-408c0 -35 11 -45 42 -45v-57c-72 0 -110 30 -110 110v345h-258v-445h-67v445h-100v31z" />
    <glyph glyph-name="f_f_dotlessi" unicode="ff&#x131;" horiz-adv-x="930" 
d="M512 500h326v-408c0 -35 11 -45 42 -45v-57c-72 0 -110 30 -110 110v345h-258v-445h-67v445h-258v-445h-67v445h-100v31l100 29v105c0 96 55 150 180 150c21 0 50 -2 70 -7v-63c-20 5 -39 8 -70 8c-65 0 -113 -23 -113 -88v-110h258v110c0 96 55 150 180 150
c21 0 50 -2 70 -7v-63c-20 5 -39 8 -70 8c-65 0 -113 -23 -113 -88v-110z" />
    <glyph glyph-name="f_t_t" unicode="ftt" horiz-adv-x="1025" 
d="M650 50v-56c-12 -3 -32 -4 -45 -4c-83 0 -160 38 -160 136v319h-258v-445h-67v445h-100v31l100 29v105c0 96 55 150 180 150c21 0 50 -2 70 -7v-63c-20 5 -39 8 -70 8c-65 0 -113 -23 -113 -88v-110h258v140l70 20v-160h255v140l70 20v-160h155v-55h-155v-311
c0 -61 33 -86 96 -86c13 0 26 1 39 2v-56c-12 -3 -32 -4 -45 -4c-83 0 -160 38 -160 136v319h-255v-311c0 -61 33 -86 96 -86c13 0 26 1 39 2z" />
    <glyph glyph-name="t_t" unicode="tt" horiz-adv-x="700" 
d="M650 50v-56c-12 -3 -32 -4 -45 -4c-83 0 -160 38 -160 136v319h-255v-311c0 -61 33 -86 96 -86c13 0 26 1 39 2v-56c-12 -3 -32 -4 -45 -4c-83 0 -160 38 -160 136v319h-100v31l100 29v135l70 20v-160h255v140l70 20v-160h155v-55h-155v-311c0 -61 33 -86 96 -86
c13 0 26 1 39 2z" />
    <glyph glyph-name="interrobang" unicode="&#x21;&#x3f;" horiz-adv-x="470" 
d="M199 210h-40l-27 486c-47 -4 -84 -13 -107 -21v60c32 13 106 25 154 25c210 0 246 -96 246 -198c0 -126 -73 -163 -184 -208c-14 -6 -26 -12 -35 -19zM358 561c0 73 -24 124 -132 135l-17 -296c6 2 12 4 18 7c66 25 131 50 131 154zM129 40c0 28 22 50 50 50
s50 -22 50 -50s-22 -50 -50 -50s-50 22 -50 50z" />
    <glyph glyph-name="interrobangdown" unicode="&#xa1;&#xbf;" horiz-adv-x="470" 
d="M271 290h40l27 -486c47 4 83 13 107 21v-60c-32 -13 -106 -25 -154 -25c-210 0 -246 96 -246 198c0 126 73 163 184 208c14 5 25 11 35 18zM112 -61c0 -73 23 -124 132 -135l16 296c-5 -3 -11 -5 -17 -7c-66 -25 -131 -50 -131 -154zM241 460c0 28 22 50 50 50
s50 -22 50 -50s-22 -50 -50 -50s-50 22 -50 50z" />
    <glyph glyph-name=".notdef" horiz-adv-x="649" 
d="M403 293h-156v242h156v-242zM325 47c-107 0 -201 -25 -275 -57v166c74 31 167 52 275 52s201 -21 275 -52v-166c-74 32 -168 57 -275 57zM515 760c54 0 95 -41 95 -95c0 -53 -41 -95 -95 -95c-53 0 -95 42 -95 95c0 54 42 95 95 95zM135 760c53 0 95 -41 95 -95
c0 -53 -42 -95 -95 -95c-54 0 -95 42 -95 95c0 54 41 95 95 95z" />
    <glyph glyph-name="space" unicode=" " horiz-adv-x="170" 
 />
    <glyph glyph-name="A" unicode="A" horiz-adv-x="630" 
d="M102 0h-77l265 760h50l265 -760h-77l-69 210h-288zM315 646l-125 -377h249z" />
    <glyph glyph-name="B" unicode="B" horiz-adv-x="615" 
d="M75 0v750h237c175 0 233 -89 233 -198c0 -65 -33 -128 -98 -156c86 -23 123 -105 123 -185c0 -117 -64 -211 -251 -211h-244zM143 359v-296h185c141 0 168 76 168 148c0 101 -43 148 -166 148h-187zM471 552c0 66 -22 135 -149 135h-179v-265h187c113 0 141 66 141 130z
" />
    <glyph glyph-name="C" unicode="C" horiz-adv-x="610" 
d="M60 375c0 213 71 385 295 385c92 0 154 -17 195 -35v-67c-69 28 -120 39 -195 39c-164 0 -223 -141 -223 -322s59 -322 223 -322c75 0 126 11 195 39v-67c-41 -18 -103 -35 -195 -35c-224 0 -295 172 -295 385z" />
    <glyph glyph-name="D" unicode="D" horiz-adv-x="655" 
d="M279 0h-204v750h204c245 0 316 -162 316 -375s-71 -375 -316 -375zM143 687v-624h140c180 0 240 132 240 312s-60 312 -240 312h-140z" />
    <glyph glyph-name="E" unicode="E" 
d="M475 422v-63h-332v-296h367v-63h-435v750h435v-63h-367v-265h332z" />
    <glyph glyph-name="F" unicode="F" horiz-adv-x="550" 
d="M465 422v-63h-322v-359h-68v750h425v-63h-357v-265h322z" />
    <glyph glyph-name="G" unicode="G" horiz-adv-x="660" 
d="M355 -10c-224 0 -295 172 -295 385s71 385 295 385c104 0 169 -21 210 -42v-68c-78 32 -129 47 -210 47c-164 0 -223 -141 -223 -322s59 -322 223 -322c57 0 127 5 162 22v256h-157v63h225v-363c-51 -24 -125 -41 -230 -41z" />
    <glyph glyph-name="H" unicode="H" horiz-adv-x="660" 
d="M585 0h-68v359h-374v-359h-68v750h68v-328h374v328h68v-750z" />
    <glyph glyph-name="I" unicode="I" horiz-adv-x="260" 
d="M165 0h-70v750h70v-750z" />
    <glyph glyph-name="J" unicode="J" horiz-adv-x="379" 
d="M35 -3v64c24 -6 39 -8 70 -8c65 0 109 20 109 85v612h70v-610c0 -96 -54 -150 -179 -150c-21 0 -50 2 -70 7z" />
    <glyph glyph-name="K" unicode="K" horiz-adv-x="595" 
d="M485 0l-277 363l-65 -75v-288h-68v750h68v-374l313 374h88l-292 -336l322 -414h-89z" />
    <glyph glyph-name="L" unicode="L" horiz-adv-x="530" 
d="M143 750v-687h347v-63h-415v750h68z" />
    <glyph glyph-name="M" unicode="M" horiz-adv-x="840" 
d="M701 661l-253 -546h-56l-253 546l4 -661h-68v750h92l253 -552l253 552h92v-750h-68z" />
    <glyph glyph-name="N" unicode="N" horiz-adv-x="670" 
d="M595 0h-51l-403 611l2 -611h-68v750h51l403 -611l-2 611h68v-750z" />
    <glyph glyph-name="O" unicode="O" horiz-adv-x="680" 
d="M340 53c181 0 208 142 208 322s-27 322 -208 322s-208 -142 -208 -322s27 -322 208 -322zM340 -10c-245 0 -280 189 -280 385s35 385 280 385s280 -189 280 -385s-35 -385 -280 -385z" />
    <glyph glyph-name="P" unicode="P" horiz-adv-x="590" 
d="M143 300v-300h-68v750h229c187 0 251 -108 251 -225s-64 -225 -251 -225h-161zM143 687v-324h170c141 0 168 90 168 162s-27 162 -168 162h-170z" />
    <glyph glyph-name="Q" unicode="Q" horiz-adv-x="680" 
d="M423 7v-1l287 -58v-72l-462 124c-164 44 -188 202 -188 375c0 214 40 385 280 385c243 0 280 -171 280 -385c0 -186 -22 -334 -197 -368zM340 53c181 0 208 142 208 322s-27 322 -208 322s-208 -142 -208 -322s27 -322 208 -322z" />
    <glyph glyph-name="R" unicode="R" horiz-adv-x="621" 
d="M143 328v-328h-68v750h235c187 0 245 -82 245 -211c0 -100 -35 -172 -138 -199l179 -340h-79l-168 329c-11 -1 -22 -1 -33 -1h-173zM143 687v-296h185c133 0 153 68 153 148s-20 148 -153 148h-185z" />
    <glyph glyph-name="S" unicode="S" horiz-adv-x="595" 
d="M305 697c-148 0 -182 -68 -182 -147c0 -107 62 -117 180 -132c147 -19 238 -55 238 -202c0 -102 -54 -226 -277 -226c-69 0 -163 19 -210 40v65c48 -16 107 -42 211 -42c156 0 203 73 203 163c0 107 -44 128 -169 144c-177 22 -245 63 -245 191c0 87 42 209 252 209
c92 0 154 -16 195 -35v-67c-68 29 -122 39 -196 39z" />
    <glyph glyph-name="T" unicode="T" horiz-adv-x="560" 
d="M521 687h-207v-687h-68v687h-207v63h482v-63z" />
    <glyph glyph-name="U" unicode="U" horiz-adv-x="670" 
d="M335 53c67 0 197 13 197 193v504h68v-515c0 -213 -175 -245 -265 -245s-265 32 -265 245v515h68v-504c0 -180 130 -193 197 -193z" />
    <glyph glyph-name="V" unicode="V" horiz-adv-x="640" 
d="M533 750h77l-265 -760h-50l-265 760h77l213 -646z" />
    <glyph glyph-name="W" unicode="W" horiz-adv-x="880" 
d="M402 750h76l169 -654l131 654h72l-164 -760h-73l-173 670l-173 -670h-73l-164 760h72l131 -654z" />
    <glyph glyph-name="X" unicode="X" horiz-adv-x="630" 
d="M300 424l200 326h85l-240 -370l245 -380h-88l-202 334l-202 -334h-88l245 380l-240 370h85z" />
    <glyph glyph-name="Y" unicode="Y" horiz-adv-x="670" 
d="M640 750l-271 -440v-310h-68v310l-271 440h75l230 -385l230 385h75z" />
    <glyph glyph-name="Z" unicode="Z" horiz-adv-x="610" 
d="M570 0h-530v46l427 643l-407 -2v63h495v-46l-427 -643l442 2v-63z" />
    <glyph glyph-name="Aacute" unicode="&#xc1;" horiz-adv-x="630" 
d="M102 0h-77l265 760h50l265 -760h-77l-69 210h-288zM315 646l-125 -377h249zM340 800h-50l50 100h90z" />
    <glyph glyph-name="Agrave" unicode="&#xc0;" horiz-adv-x="630" 
d="M102 0h-77l265 760h50l265 -760h-77l-69 210h-288zM315 646l-125 -377h249zM340 800h-50l-90 100h90z" />
    <glyph glyph-name="Acircumflex" unicode="&#xc2;" horiz-adv-x="630" 
d="M102 0h-77l265 760h50l265 -760h-77l-69 210h-288zM315 646l-125 -377h249zM470 800h-56l-99 56l-99 -56h-56l115 100h80z" />
    <glyph glyph-name="Adieresis" unicode="&#xc4;" horiz-adv-x="630" 
d="M102 0h-77l265 760h50l265 -760h-77l-69 210h-288zM315 646l-125 -377h249zM170 850c0 28 22 50 50 50s50 -22 50 -50s-22 -50 -50 -50s-50 22 -50 50zM360 850c0 28 22 50 50 50s50 -22 50 -50s-22 -50 -50 -50s-50 22 -50 50z" />
    <glyph glyph-name="Atilde" unicode="&#xc3;" horiz-adv-x="630" 
d="M102 0h-77l265 760h50l265 -760h-77l-69 210h-288zM315 646l-125 -377h249zM391 849c45 0 49 31 49 51h56c5 -70 -37 -110 -109 -110s-98 61 -148 61c-45 0 -49 -31 -49 -51h-56c-5 70 37 110 109 110s98 -61 148 -61z" />
    <glyph glyph-name="Aring" unicode="&#xc5;" horiz-adv-x="630" 
d="M102 0h-77l265 760h50l265 -760h-77l-69 210h-288zM315 646l-125 -377h249zM315 921c50 0 94 -16 94 -71s-44 -71 -94 -71s-94 16 -94 71s44 71 94 71zM315 828c30 0 44 7 44 22s-14 22 -44 22s-44 -7 -44 -22s14 -22 44 -22z" />
    <glyph glyph-name="Acaron" unicode="&#x1cd;" horiz-adv-x="630" 
d="M102 0h-77l265 760h50l265 -760h-77l-69 210h-288zM315 646l-125 -377h249zM160 900h56l99 -56l99 56h56l-115 -100h-80z" />
    <glyph glyph-name="Amacron" unicode="&#x100;" horiz-adv-x="630" 
d="M102 0h-77l265 760h50l265 -760h-77l-69 210h-288zM315 646l-125 -377h249zM178 820v60h274v-60h-274z" />
    <glyph glyph-name="Abreve" unicode="&#x102;" horiz-adv-x="630" 
d="M102 0h-77l265 760h50l265 -760h-77l-69 210h-288zM315 646l-125 -377h249zM315 790c-95 0 -142 36 -145 110h51c2 -41 37 -55 94 -55s92 14 94 55h51c-3 -74 -50 -110 -145 -110z" />
    <glyph glyph-name="Ainvertedbreve" unicode="&#x202;" horiz-adv-x="630" 
d="M102 0h-77l265 760h50l265 -760h-77l-69 210h-288zM315 646l-125 -377h249zM315 910c95 0 142 -36 145 -110h-51c-2 41 -37 55 -94 55s-92 -14 -94 -55h-51c3 74 50 110 145 110z" />
    <glyph glyph-name="Adoublegrave" unicode="&#xe000;" horiz-adv-x="630" 
d="M102 0h-77l265 760h50l265 -760h-77l-69 210h-288zM315 646l-125 -377h249zM400 800h-50l-90 100h90zM280 800h-50l-90 100h90z" />
    <glyph glyph-name="Adotabove" unicode="&#xe001;" horiz-adv-x="630" 
d="M102 0h-77l265 760h50l265 -760h-77l-69 210h-288zM315 646l-125 -377h249zM265 850c0 28 22 50 50 50s50 -22 50 -50s-22 -50 -50 -50s-50 22 -50 50z" />
    <glyph glyph-name="Aringacute" unicode="&#x1fa;" horiz-adv-x="630" 
d="M102 0h-77l265 760h50l265 -760h-77l-69 210h-288zM315 646l-125 -377h249zM221 850c0 20 5 34 14 47l54 78h59l-45 -54h12c51 0 94 -17 94 -71c0 -55 -44 -71 -94 -71s-94 16 -94 71zM315 828c30 0 44 7 44 22s-14 22 -44 22s-44 -7 -44 -22s14 -22 44 -22z" />
    <glyph glyph-name="Adieresismacron" unicode="&#x1de;" horiz-adv-x="630" 
d="M102 0h-77l265 760h50l265 -760h-77l-69 210h-288zM315 646l-125 -377h249zM178 935v60h274v-60h-274zM170 850c0 28 22 50 50 50s50 -22 50 -50s-22 -50 -50 -50s-50 22 -50 50zM360 850c0 28 22 50 50 50s50 -22 50 -50s-22 -50 -50 -50s-50 22 -50 50z" />
    <glyph glyph-name="Aogonek" unicode="&#x104;" horiz-adv-x="630" 
d="M102 0h-77l265 760h50l265 -760c-65 -36 -106 -90 -106 -142c0 -31 15 -57 54 -57c22 0 43 4 57 8v-48c-17 -6 -42 -11 -71 -11c-60 0 -101 36 -101 95s31 115 89 156l-68 209h-288zM315 646l-125 -377h249z" />
    <glyph glyph-name="Anocross" unicode="&#xe002;" horiz-adv-x="630" 
d="M102 0h-77l265 760h50l265 -760h-77l-213 646z" />
    <glyph glyph-name="AE" unicode="&#xc6;" horiz-adv-x="975" 
d="M475 687l43 -265h362v-63h-351l48 -296h338v-63h-396l-35 210h-287l-101 -210h-76l376 750h519v-63h-440zM412 655l-186 -386h249z" />
    <glyph glyph-name="AEacute" unicode="&#x1fc;" horiz-adv-x="975" 
d="M475 687l43 -265h362v-63h-351l48 -296h338v-63h-396l-35 210h-287l-101 -210h-76l376 750h519v-63h-440zM412 655l-186 -386h249zM490 800h-50l50 100h90z" />
    <glyph glyph-name="AEmacron" unicode="&#x1e2;" horiz-adv-x="975" 
d="M475 687l43 -265h362v-63h-351l48 -296h338v-63h-396l-35 210h-287l-101 -210h-76l376 750h519v-63h-440zM412 655l-186 -386h249zM350 820v60h274v-60h-274z" />
    <glyph glyph-name="Cacute" unicode="&#x106;" horiz-adv-x="610" 
d="M60 375c0 213 71 385 295 385c92 0 154 -17 195 -35v-67c-69 28 -120 39 -195 39c-164 0 -223 -141 -223 -322s59 -322 223 -322c75 0 126 11 195 39v-67c-41 -18 -103 -35 -195 -35c-224 0 -295 172 -295 385zM380 800h-50l50 100h90z" />
    <glyph glyph-name="Ccircumflex" unicode="&#x108;" horiz-adv-x="610" 
d="M60 375c0 213 71 385 295 385c92 0 154 -17 195 -35v-67c-69 28 -120 39 -195 39c-164 0 -223 -141 -223 -322s59 -322 223 -322c75 0 126 11 195 39v-67c-41 -18 -103 -35 -195 -35c-224 0 -295 172 -295 385zM510 800h-56l-99 56l-99 -56h-56l115 100h80z" />
    <glyph glyph-name="Ccaron" unicode="&#x10c;" horiz-adv-x="610" 
d="M60 375c0 213 71 385 295 385c92 0 154 -17 195 -35v-67c-69 28 -120 39 -195 39c-164 0 -223 -141 -223 -322s59 -322 223 -322c75 0 126 11 195 39v-67c-41 -18 -103 -35 -195 -35c-224 0 -295 172 -295 385zM200 900h56l99 -56l99 56h56l-115 -100h-80z" />
    <glyph glyph-name="Cdotaccent" unicode="&#x10a;" horiz-adv-x="610" 
d="M60 375c0 213 71 385 295 385c92 0 154 -17 195 -35v-67c-69 28 -120 39 -195 39c-164 0 -223 -141 -223 -322s59 -322 223 -322c75 0 126 11 195 39v-67c-41 -18 -103 -35 -195 -35c-224 0 -295 172 -295 385zM305 850c0 28 22 50 50 50s50 -22 50 -50s-22 -50 -50 -50
s-50 22 -50 50z" />
    <glyph glyph-name="Ccedilla" unicode="&#xc7;" horiz-adv-x="610" 
d="M60 375c0 213 71 385 295 385c92 0 154 -17 195 -35v-67c-69 28 -120 39 -195 39c-164 0 -223 -141 -223 -322s59 -322 223 -322c75 0 126 11 195 39v-67c-38 -17 -94 -32 -174 -34l4 -55c40 -10 95 -35 95 -97c0 -54 -41 -89 -111 -89c-54 0 -83 12 -94 18v46
s36 -13 77 -13s67 11 67 36c0 43 -42 57 -89 63l9 91c-208 10 -274 178 -274 384z" />
    <glyph glyph-name="Dcaron" unicode="&#x10e;" horiz-adv-x="655" 
d="M279 0h-204v750h204c245 0 316 -162 316 -375s-71 -375 -316 -375zM143 687v-624h140c180 0 240 132 240 312s-60 312 -240 312h-140zM145 900h56l99 -56l99 56h56l-115 -100h-80z" />
    <glyph glyph-name="Dcedilla" unicode="&#x1e10;" horiz-adv-x="655" 
d="M279 0h-204v750h204c245 0 316 -162 316 -375s-71 -375 -316 -375zM143 687v-624h140c180 0 240 132 240 312s-60 312 -240 312h-140zM250 -95l5 45c94 -10 145 -51 145 -111c0 -54 -41 -89 -111 -89c-54 0 -83 12 -94 18v46s36 -13 77 -13s67 11 67 36
c0 43 -42 62 -89 68z" />
    <glyph glyph-name="Ddotbelow" unicode="&#x1e0c;" horiz-adv-x="655" 
d="M279 0h-204v750h204c245 0 316 -162 316 -375s-71 -375 -316 -375zM143 687v-624h140c180 0 240 132 240 312s-60 312 -240 312h-140zM250 -150c0 28 22 50 50 50s50 -22 50 -50s-22 -50 -50 -50s-50 22 -50 50z" />
    <glyph glyph-name="Dcroat" unicode="&#x110;" horiz-adv-x="685" 
d="M15 362v53h90v335h204c245 0 316 -162 316 -375s-71 -375 -316 -375h-204v362h-90zM173 687v-272h183v-53h-183v-299h140c180 0 240 132 240 312s-60 312 -240 312h-140z" />
    <glyph glyph-name="Eacute" unicode="&#xc9;" 
d="M475 422v-63h-332v-296h367v-63h-435v750h435v-63h-367v-265h332zM325 800h-50l50 100h90z" />
    <glyph glyph-name="Egrave" unicode="&#xc8;" 
d="M475 422v-63h-332v-296h367v-63h-435v750h435v-63h-367v-265h332zM325 800h-50l-90 100h90z" />
    <glyph glyph-name="Ecircumflex" unicode="&#xca;" 
d="M475 422v-63h-332v-296h367v-63h-435v750h435v-63h-367v-265h332zM455 800h-56l-99 56l-99 -56h-56l115 100h80z" />
    <glyph glyph-name="Edieresis" unicode="&#xcb;" 
d="M475 422v-63h-332v-296h367v-63h-435v750h435v-63h-367v-265h332zM155 850c0 28 22 50 50 50s50 -22 50 -50s-22 -50 -50 -50s-50 22 -50 50zM345 850c0 28 22 50 50 50s50 -22 50 -50s-22 -50 -50 -50s-50 22 -50 50z" />
    <glyph glyph-name="Ecaron" unicode="&#x11a;" 
d="M475 422v-63h-332v-296h367v-63h-435v750h435v-63h-367v-265h332zM145 900h56l99 -56l99 56h56l-115 -100h-80z" />
    <glyph glyph-name="Emacron" unicode="&#x112;" 
d="M475 422v-63h-332v-296h367v-63h-435v750h435v-63h-367v-265h332zM163 820v60h274v-60h-274z" />
    <glyph glyph-name="Ebreve" unicode="&#x114;" 
d="M475 422v-63h-332v-296h367v-63h-435v750h435v-63h-367v-265h332zM300 790c-95 0 -142 36 -145 110h51c2 -41 37 -55 94 -55s92 14 94 55h51c-3 -74 -50 -110 -145 -110z" />
    <glyph glyph-name="Einvertedbreve" unicode="&#x206;" 
d="M475 422v-63h-332v-296h367v-63h-435v750h435v-63h-367v-265h332zM300 910c95 0 142 -36 145 -110h-51c-2 41 -37 55 -94 55s-92 -14 -94 -55h-51c3 74 50 110 145 110z" />
    <glyph glyph-name="Edoublegrave" unicode="&#xe003;" 
d="M475 422v-63h-332v-296h367v-63h-435v750h435v-63h-367v-265h332zM385 800h-50l-90 100h90zM265 800h-50l-90 100h90z" />
    <glyph glyph-name="Edotaccent" unicode="&#x116;" 
d="M475 422v-63h-332v-296h367v-63h-435v750h435v-63h-367v-265h332zM250 850c0 28 22 50 50 50s50 -22 50 -50s-22 -50 -50 -50s-50 22 -50 50z" />
    <glyph glyph-name="Eacutedotbelow" unicode="&#xe004;" 
d="M475 422v-63h-332v-296h367v-63h-435v750h435v-63h-367v-265h332zM325 800h-50l50 100h90zM250 -150c0 28 22 50 50 50s50 -22 50 -50s-22 -50 -50 -50s-50 22 -50 50z" />
    <glyph glyph-name="Egravedotbelow" unicode="&#xe005;" 
d="M475 422v-63h-332v-296h367v-63h-435v750h435v-63h-367v-265h332zM325 800h-50l-90 100h90zM250 -150c0 28 22 50 50 50s50 -22 50 -50s-22 -50 -50 -50s-50 22 -50 50z" />
    <glyph glyph-name="Eogonek" unicode="&#x118;" 
d="M475 422v-63h-332v-296h367v-63c-65 -36 -106 -90 -106 -142c0 -31 15 -57 54 -57c22 0 43 4 57 8v-48c-17 -6 -42 -11 -71 -11c-60 0 -101 36 -101 95c0 58 30 113 87 155h-355v750h435v-63h-367v-265h332z" />
    <glyph glyph-name="Gacute" unicode="&#x1f4;" horiz-adv-x="660" 
d="M355 -10c-224 0 -295 172 -295 385s71 385 295 385c104 0 169 -21 210 -42v-68c-78 32 -129 47 -210 47c-164 0 -223 -141 -223 -322s59 -322 223 -322c57 0 127 5 162 22v256h-157v63h225v-363c-51 -24 -125 -41 -230 -41zM380 800h-50l50 100h90z" />
    <glyph glyph-name="Gcircumflex" unicode="&#x11c;" horiz-adv-x="660" 
d="M355 -10c-224 0 -295 172 -295 385s71 385 295 385c104 0 169 -21 210 -42v-68c-78 32 -129 47 -210 47c-164 0 -223 -141 -223 -322s59 -322 223 -322c57 0 127 5 162 22v256h-157v63h225v-363c-51 -24 -125 -41 -230 -41zM510 800h-56l-99 56l-99 -56h-56l115 100h80z
" />
    <glyph glyph-name="Gtilde" unicode="&#xe006;" horiz-adv-x="660" 
d="M355 -10c-224 0 -295 172 -295 385s71 385 295 385c104 0 169 -21 210 -42v-68c-78 32 -129 47 -210 47c-164 0 -223 -141 -223 -322s59 -322 223 -322c57 0 127 5 162 22v256h-157v63h225v-363c-51 -24 -125 -41 -230 -41zM406 849c45 0 49 31 49 51h56
c5 -70 -37 -110 -109 -110s-98 61 -148 61c-45 0 -49 -31 -49 -51h-56c-5 70 37 110 109 110s98 -61 148 -61z" />
    <glyph glyph-name="Gcaron" unicode="&#x1e6;" horiz-adv-x="660" 
d="M355 -10c-224 0 -295 172 -295 385s71 385 295 385c104 0 169 -21 210 -42v-68c-78 32 -129 47 -210 47c-164 0 -223 -141 -223 -322s59 -322 223 -322c57 0 127 5 162 22v256h-157v63h225v-363c-51 -24 -125 -41 -230 -41zM200 900h56l99 -56l99 56h56l-115 -100h-80z
" />
    <glyph glyph-name="Gbreve" unicode="&#x11e;" horiz-adv-x="660" 
d="M355 -10c-224 0 -295 172 -295 385s71 385 295 385c104 0 169 -21 210 -42v-68c-78 32 -129 47 -210 47c-164 0 -223 -141 -223 -322s59 -322 223 -322c57 0 127 5 162 22v256h-157v63h225v-363c-51 -24 -125 -41 -230 -41zM355 790c-95 0 -142 36 -145 110h51
c2 -41 37 -55 94 -55s92 14 94 55h51c-3 -74 -50 -110 -145 -110z" />
    <glyph glyph-name="Gdotaccent" unicode="&#x120;" horiz-adv-x="660" 
d="M355 -10c-224 0 -295 172 -295 385s71 385 295 385c104 0 169 -21 210 -42v-68c-78 32 -129 47 -210 47c-164 0 -223 -141 -223 -322s59 -322 223 -322c57 0 127 5 162 22v256h-157v63h225v-363c-51 -24 -125 -41 -230 -41zM305 850c0 28 22 50 50 50s50 -22 50 -50
s-22 -50 -50 -50s-50 22 -50 50z" />
    <glyph glyph-name="Gcommaturnedabove" unicode="&#xe007;" horiz-adv-x="660" 
d="M355 -10c-224 0 -295 172 -295 385s71 385 295 385c104 0 169 -21 210 -42v-68c-78 32 -129 47 -210 47c-164 0 -223 -141 -223 -322s59 -322 223 -322c57 0 127 5 162 22v256h-157v63h225v-363c-51 -24 -125 -41 -230 -41zM375 900h50l-25 -100h-90z" />
    <glyph glyph-name="Gcommaaccent" unicode="&#x122;" horiz-adv-x="660" 
d="M355 -10c-224 0 -295 172 -295 385s71 385 295 385c104 0 169 -21 210 -42v-68c-78 32 -129 47 -210 47c-164 0 -223 -141 -223 -322s59 -322 223 -322c57 0 127 5 162 22v256h-157v63h225v-363c-51 -24 -125 -41 -230 -41zM316 -50h92l-68 -200h-50z" />
    <glyph glyph-name="Gstroke" unicode="&#x1e4;" horiz-adv-x="680" 
d="M355 -10c-224 0 -295 172 -295 385s71 385 295 385c104 0 169 -21 210 -42v-68c-78 32 -129 47 -210 47c-164 0 -223 -141 -223 -322s59 -322 223 -322c57 0 127 5 162 22v105h-127v60h127v91h-157v63h225v-154h80v-60h-80v-149c-51 -24 -125 -41 -230 -41z" />
    <glyph glyph-name="Hcircumflex" unicode="&#x124;" horiz-adv-x="660" 
d="M585 0h-68v359h-374v-359h-68v750h68v-328h374v328h68v-750zM485 800h-56l-99 56l-99 -56h-56l115 100h80z" />
    <glyph glyph-name="Hcaron" unicode="&#xe008;" horiz-adv-x="660" 
d="M585 0h-68v359h-374v-359h-68v750h68v-328h374v328h68v-750zM175 900h56l99 -56l99 56h56l-115 -100h-80z" />
    <glyph glyph-name="Hdotbelow" unicode="&#x1e24;" horiz-adv-x="660" 
d="M585 0h-68v359h-374v-359h-68v750h68v-328h374v328h68v-750zM280 -150c0 28 22 50 50 50s50 -22 50 -50s-22 -50 -50 -50s-50 22 -50 50z" />
    <glyph glyph-name="Hmacronbelow" unicode="&#xe009;" horiz-adv-x="660" 
d="M585 0h-68v359h-374v-359h-68v750h68v-328h374v328h68v-750zM467 -120v-60h-274v60h274z" />
    <glyph glyph-name="Hbar" unicode="&#x126;" horiz-adv-x="660" 
d="M585 0h-68v359h-374v-359h-68v750h68v-144h374v144h68v-750zM143 422h374v121h-374v-121z" />
    <glyph glyph-name="Iacute" unicode="&#xcd;" horiz-adv-x="260" 
d="M165 0h-70v750h70v-750zM155 800h-50l50 100h90z" />
    <glyph glyph-name="Igrave" unicode="&#xcc;" horiz-adv-x="260" 
d="M165 0h-70v750h70v-750zM155 800h-50l-90 100h90z" />
    <glyph glyph-name="Icircumflex" unicode="&#xce;" horiz-adv-x="260" 
d="M165 0h-70v750h70v-750zM285 800h-56l-99 56l-99 -56h-56l115 100h80z" />
    <glyph glyph-name="Idieresis" unicode="&#xcf;" horiz-adv-x="260" 
d="M165 0h-70v750h70v-750zM5 850c0 28 22 50 50 50s50 -22 50 -50s-22 -50 -50 -50s-50 22 -50 50zM155 850c0 28 22 50 50 50s50 -22 50 -50s-22 -50 -50 -50s-50 22 -50 50z" />
    <glyph glyph-name="Itilde" unicode="&#x128;" horiz-adv-x="260" 
d="M165 0h-70v750h70v-750zM206 849c45 0 49 31 49 51h56c5 -70 -37 -110 -109 -110s-98 61 -148 61c-45 0 -49 -31 -49 -51h-56c-5 70 37 110 109 110s98 -61 148 -61z" />
    <glyph glyph-name="Icaron" unicode="&#x1cf;" horiz-adv-x="260" 
d="M165 0h-70v750h70v-750zM-25 900h56l99 -56l99 56h56l-115 -100h-80z" />
    <glyph glyph-name="Imacron" unicode="&#x12a;" horiz-adv-x="260" 
d="M165 0h-70v750h70v-750zM-7 820v60h274v-60h-274z" />
    <glyph glyph-name="Ibreve" unicode="&#x12c;" horiz-adv-x="260" 
d="M165 0h-70v750h70v-750zM130 790c-95 0 -142 36 -145 110h51c2 -41 37 -55 94 -55s92 14 94 55h51c-3 -74 -50 -110 -145 -110z" />
    <glyph glyph-name="Iinvertedbreve" unicode="&#x20a;" horiz-adv-x="260" 
d="M165 0h-70v750h70v-750zM130 910c95 0 142 -36 145 -110h-51c-2 41 -37 55 -94 55s-92 -14 -94 -55h-51c3 74 50 110 145 110z" />
    <glyph glyph-name="Idoublegrave" unicode="&#xe00b;" horiz-adv-x="260" 
d="M165 0h-70v750h70v-750zM215 800h-50l-90 100h90zM95 800h-50l-90 100h90z" />
    <glyph glyph-name="Idotaccent" unicode="&#x130;" horiz-adv-x="260" 
d="M165 0h-70v750h70v-750zM80 850c0 28 22 50 50 50s50 -22 50 -50s-22 -50 -50 -50s-50 22 -50 50z" />
    <glyph glyph-name="Idotbelow" unicode="&#x1eca;" horiz-adv-x="260" 
d="M165 0h-70v750h70v-750zM80 -150c0 28 22 50 50 50s50 -22 50 -50s-22 -50 -50 -50s-50 22 -50 50z" />
    <glyph glyph-name="Iogonek" unicode="&#x12e;" horiz-adv-x="260" 
d="M165 0c-65 -46 -86 -90 -86 -142c0 -31 15 -57 54 -57c22 0 43 4 57 8v-48c-17 -6 -42 -11 -71 -11c-60 0 -101 36 -101 95c0 60 20 112 77 156v749h70v-750z" />
    <glyph glyph-name="Jcircumflex" unicode="&#x134;" horiz-adv-x="379" 
d="M35 -3v64c24 -6 39 -8 70 -8c65 0 109 20 109 85v612h70v-610c0 -96 -54 -150 -179 -150c-21 0 -50 2 -70 7zM404 800h-56l-99 56l-99 -56h-56l115 100h80z" />
    <glyph glyph-name="Jcaron" unicode="&#xe00c;" horiz-adv-x="379" 
d="M35 -3v64c24 -6 39 -8 70 -8c65 0 109 20 109 85v612h70v-610c0 -96 -54 -150 -179 -150c-21 0 -50 2 -70 7zM94 900h56l99 -56l99 56h56l-115 -100h-80z" />
    <glyph glyph-name="Kcaron" unicode="&#x1e8;" horiz-adv-x="595" 
d="M208 363l-65 -75v-288h-68v750h68v-374l313 374h88l-292 -336l322 -414h-89zM135 900h56l99 -56l99 56h56l-115 -100h-80z" />
    <glyph glyph-name="Kcommaaccent" unicode="&#x136;" horiz-adv-x="595" 
d="M208 363l-65 -75v-288h-68v750h68v-374l313 374h88l-292 -336l322 -414h-89zM261 -50h92l-68 -200h-50z" />
    <glyph glyph-name="Kcedilla" unicode="&#xe00d;" horiz-adv-x="595" 
d="M208 363l-65 -75v-288h-68v750h68v-374l313 374h88l-292 -336l322 -414h-89zM260 -95l5 45c94 -10 145 -51 145 -111c0 -54 -41 -89 -111 -89c-54 0 -83 12 -94 18v46s36 -13 77 -13s67 11 67 36c0 43 -42 62 -89 68z" />
    <glyph glyph-name="Khook" unicode="&#x198;" horiz-adv-x="593" 
d="M75 0v750h68v-361c33 19 72 51 102 107c60 113 137 259 279 254v-69c-113 2 -157 -113 -219 -223c-12 -21 -27 -40 -43 -57l312 -401h-89l-274 359c-26 -20 -46 -32 -68 -43v-316h-68z" />
    <glyph glyph-name="Lacute" unicode="&#x139;" horiz-adv-x="530" 
d="M143 750v-687h347v-63h-415v750h68zM134 800h-50l50 100h90z" />
    <glyph glyph-name="Lcaron" unicode="&#x13d;" horiz-adv-x="530" 
d="M143 750v-687h347v-63h-415v750h68zM239 750h78l-48 -200h-46z" />
    <glyph glyph-name="Lcommaaccent" unicode="&#x13b;" horiz-adv-x="530" 
d="M143 750v-687h347v-63h-415v750h68zM246 -50h92l-68 -200h-50z" />
    <glyph glyph-name="Lcedilla" unicode="&#xe00e;" horiz-adv-x="530" 
d="M143 750v-687h347v-63h-415v750h68zM240 -95l5 45c94 -10 145 -51 145 -111c0 -54 -41 -89 -111 -89c-54 0 -83 12 -94 18v46s36 -13 77 -13s67 11 67 36c0 43 -42 62 -89 68z" />
    <glyph glyph-name="Ldotbelow" unicode="&#x1e36;" horiz-adv-x="530" 
d="M143 750v-687h347v-63h-415v750h68zM235 -150c0 28 22 50 50 50s50 -22 50 -50s-22 -50 -50 -50s-50 22 -50 50z" />
    <glyph glyph-name="Ldotbelowmacron" unicode="&#x1e38;" horiz-adv-x="530" 
d="M143 750v-687h347v-63h-415v750h68zM-28 820v60h274v-60h-274zM235 -150c0 28 22 50 50 50s50 -22 50 -50s-22 -50 -50 -50s-50 22 -50 50z" />
    <glyph glyph-name="Ldot" unicode="&#x13f;" horiz-adv-x="530" 
d="M143 750v-687h347v-63h-415v750h68zM324 375c0 28 22 50 50 50s50 -22 50 -50s-22 -50 -50 -50s-50 22 -50 50z" />
    <glyph glyph-name="Lslash" unicode="&#x141;" horiz-adv-x="560" 
d="M171 750v-367l209 127v-61l-209 -127v-259h347v-63h-415v280l-98 -59v61l98 59v409h68z" />
    <glyph glyph-name="Mmacron" unicode="&#xe00f;" horiz-adv-x="840" 
d="M701 661l-253 -546h-56l-253 546l4 -661h-68v750h92l253 -552l253 552h92v-750h-68zM283 820v60h274v-60h-274z" />
    <glyph glyph-name="Mcedilla" unicode="&#xe010;" horiz-adv-x="840" 
d="M701 661l-253 -546h-56l-253 546l4 -661h-68v750h92l253 -552l253 552h92v-750h-68zM380 -95l5 45c94 -10 145 -51 145 -111c0 -54 -41 -89 -111 -89c-54 0 -83 12 -94 18v46s36 -13 77 -13s67 11 67 36c0 43 -42 62 -89 68z" />
    <glyph glyph-name="Mdotbelow" unicode="&#x1e42;" horiz-adv-x="840" 
d="M701 661l-253 -546h-56l-253 546l4 -661h-68v750h92l253 -552l253 552h92v-750h-68zM370 -150c0 28 22 50 50 50s50 -22 50 -50s-22 -50 -50 -50s-50 22 -50 50z" />
    <glyph glyph-name="Nacute" unicode="&#x143;" horiz-adv-x="670" 
d="M595 0h-51l-403 611l2 -611h-68v750h51l403 -611l-2 611h68v-750zM360 800h-50l50 100h90z" />
    <glyph glyph-name="Ngrave" unicode="&#xe011;" horiz-adv-x="670" 
d="M595 0h-51l-403 611l2 -611h-68v750h51l403 -611l-2 611h68v-750zM360 800h-50l-90 100h90z" />
    <glyph glyph-name="Ndieresis" unicode="&#xe012;" horiz-adv-x="670" 
d="M595 0h-51l-403 611l2 -611h-68v750h51l403 -611l-2 611h68v-750zM190 850c0 28 22 50 50 50s50 -22 50 -50s-22 -50 -50 -50s-50 22 -50 50zM380 850c0 28 22 50 50 50s50 -22 50 -50s-22 -50 -50 -50s-50 22 -50 50z" />
    <glyph glyph-name="Ntilde" unicode="&#xd1;" horiz-adv-x="670" 
d="M595 0h-51l-403 611l2 -611h-68v750h51l403 -611l-2 611h68v-750zM411 849c45 0 49 31 49 51h56c5 -70 -37 -110 -109 -110s-98 61 -148 61c-45 0 -49 -31 -49 -51h-56c-5 70 37 110 109 110s98 -61 148 -61z" />
    <glyph glyph-name="Ncaron" unicode="&#x147;" horiz-adv-x="670" 
d="M595 0h-51l-403 611l2 -611h-68v750h51l403 -611l-2 611h68v-750zM180 900h56l99 -56l99 56h56l-115 -100h-80z" />
    <glyph glyph-name="Nmacron" unicode="&#xe013;" horiz-adv-x="670" 
d="M595 0h-51l-403 611l2 -611h-68v750h51l403 -611l-2 611h68v-750zM198 820v60h274v-60h-274z" />
    <glyph glyph-name="Ndotaccent" unicode="&#x1e44;" horiz-adv-x="670" 
d="M595 0h-51l-403 611l2 -611h-68v750h51l403 -611l-2 611h68v-750zM285 850c0 28 22 50 50 50s50 -22 50 -50s-22 -50 -50 -50s-50 22 -50 50z" />
    <glyph glyph-name="Ncommaaccent" unicode="&#x145;" horiz-adv-x="670" 
d="M595 0h-51l-403 611l2 -611h-68v750h51l403 -611l-2 611h68v-750zM296 -50h92l-68 -200h-50z" />
    <glyph glyph-name="Ncedilla" unicode="&#xe014;" horiz-adv-x="670" 
d="M595 0h-51l-403 611l2 -611h-68v750h51l403 -611l-2 611h68v-750zM295 -95l5 45c94 -10 145 -51 145 -111c0 -54 -41 -89 -111 -89c-54 0 -83 12 -94 18v46s36 -13 77 -13s67 11 67 36c0 43 -42 62 -89 68z" />
    <glyph glyph-name="Ndotbelow" unicode="&#x1e46;" horiz-adv-x="670" 
d="M595 0h-51l-403 611l2 -611h-68v750h51l403 -611l-2 611h68v-750zM285 -150c0 28 22 50 50 50s50 -22 50 -50s-22 -50 -50 -50s-50 22 -50 50z" />
    <glyph glyph-name="Ndescender" unicode="&#xe015;" horiz-adv-x="670" 
d="M595 -125v125h-51l-403 611l2 -611h-68v750h51l403 -611l-2 611h68v-687h68v-188h-68z" />
    <glyph glyph-name="Oacute" unicode="&#xd3;" horiz-adv-x="680" 
d="M340 53c181 0 208 142 208 322s-27 322 -208 322s-208 -142 -208 -322s27 -322 208 -322zM340 -10c-245 0 -280 189 -280 385s35 385 280 385s280 -189 280 -385s-35 -385 -280 -385zM365 800h-50l50 100h90z" />
    <glyph glyph-name="Ograve" unicode="&#xd2;" horiz-adv-x="680" 
d="M340 53c181 0 208 142 208 322s-27 322 -208 322s-208 -142 -208 -322s27 -322 208 -322zM340 -10c-245 0 -280 189 -280 385s35 385 280 385s280 -189 280 -385s-35 -385 -280 -385zM365 800h-50l-90 100h90z" />
    <glyph glyph-name="Ocircumflex" unicode="&#xd4;" horiz-adv-x="680" 
d="M340 53c181 0 208 142 208 322s-27 322 -208 322s-208 -142 -208 -322s27 -322 208 -322zM340 -10c-245 0 -280 189 -280 385s35 385 280 385s280 -189 280 -385s-35 -385 -280 -385zM495 800h-56l-99 56l-99 -56h-56l115 100h80z" />
    <glyph glyph-name="Odieresis" unicode="&#xd6;" horiz-adv-x="680" 
d="M340 53c181 0 208 142 208 322s-27 322 -208 322s-208 -142 -208 -322s27 -322 208 -322zM340 -10c-245 0 -280 189 -280 385s35 385 280 385s280 -189 280 -385s-35 -385 -280 -385zM195 850c0 28 22 50 50 50s50 -22 50 -50s-22 -50 -50 -50s-50 22 -50 50zM385 850
c0 28 22 50 50 50s50 -22 50 -50s-22 -50 -50 -50s-50 22 -50 50z" />
    <glyph glyph-name="Otilde" unicode="&#xd5;" horiz-adv-x="680" 
d="M340 53c181 0 208 142 208 322s-27 322 -208 322s-208 -142 -208 -322s27 -322 208 -322zM340 -10c-245 0 -280 189 -280 385s35 385 280 385s280 -189 280 -385s-35 -385 -280 -385zM416 849c45 0 49 31 49 51h56c5 -70 -37 -110 -109 -110s-98 61 -148 61
c-45 0 -49 -31 -49 -51h-56c-5 70 37 110 109 110s98 -61 148 -61z" />
    <glyph glyph-name="Ocaron" unicode="&#x1d1;" horiz-adv-x="680" 
d="M340 53c181 0 208 142 208 322s-27 322 -208 322s-208 -142 -208 -322s27 -322 208 -322zM340 -10c-245 0 -280 189 -280 385s35 385 280 385s280 -189 280 -385s-35 -385 -280 -385zM185 900h56l99 -56l99 56h56l-115 -100h-80z" />
    <glyph glyph-name="Omacron" unicode="&#x14c;" horiz-adv-x="680" 
d="M340 53c181 0 208 142 208 322s-27 322 -208 322s-208 -142 -208 -322s27 -322 208 -322zM340 -10c-245 0 -280 189 -280 385s35 385 280 385s280 -189 280 -385s-35 -385 -280 -385zM203 820v60h274v-60h-274z" />
    <glyph glyph-name="Obreve" unicode="&#x14e;" horiz-adv-x="680" 
d="M340 53c181 0 208 142 208 322s-27 322 -208 322s-208 -142 -208 -322s27 -322 208 -322zM340 -10c-245 0 -280 189 -280 385s35 385 280 385s280 -189 280 -385s-35 -385 -280 -385zM340 790c-95 0 -142 36 -145 110h51c2 -41 37 -55 94 -55s92 14 94 55h51
c-3 -74 -50 -110 -145 -110z" />
    <glyph glyph-name="Oinvertedbreve" unicode="&#x20e;" horiz-adv-x="680" 
d="M340 53c181 0 208 142 208 322s-27 322 -208 322s-208 -142 -208 -322s27 -322 208 -322zM340 -10c-245 0 -280 189 -280 385s35 385 280 385s280 -189 280 -385s-35 -385 -280 -385zM340 910c95 0 142 -36 145 -110h-51c-2 41 -37 55 -94 55s-92 -14 -94 -55h-51
c3 74 50 110 145 110z" />
    <glyph glyph-name="Ohungarumlaut" unicode="&#x150;" horiz-adv-x="680" 
d="M340 53c181 0 208 142 208 322s-27 322 -208 322s-208 -142 -208 -322s27 -322 208 -322zM340 -10c-245 0 -280 189 -280 385s35 385 280 385s280 -189 280 -385s-35 -385 -280 -385zM305 800h-50l50 100h90zM425 800h-50l50 100h90z" />
    <glyph glyph-name="Odoublegrave" unicode="&#xe016;" horiz-adv-x="680" 
d="M340 53c181 0 208 142 208 322s-27 322 -208 322s-208 -142 -208 -322s27 -322 208 -322zM340 -10c-245 0 -280 189 -280 385s35 385 280 385s280 -189 280 -385s-35 -385 -280 -385zM425 800h-50l-90 100h90zM305 800h-50l-90 100h90z" />
    <glyph glyph-name="Ocommaturnedabove" unicode="&#xe017;" horiz-adv-x="680" 
d="M340 53c181 0 208 142 208 322s-27 322 -208 322s-208 -142 -208 -322s27 -322 208 -322zM340 -10c-245 0 -280 189 -280 385s35 385 280 385s280 -189 280 -385s-35 -385 -280 -385zM360 900h50l-25 -100h-90z" />
    <glyph glyph-name="Otildemacron" unicode="&#xe018;" horiz-adv-x="680" 
d="M340 53c181 0 208 142 208 322s-27 322 -208 322s-208 -142 -208 -322s27 -322 208 -322zM340 -10c-245 0 -280 189 -280 385s35 385 280 385s280 -189 280 -385s-35 -385 -280 -385zM416 849c45 0 49 31 49 51h56c5 -70 -37 -110 -109 -110s-98 61 -148 61
c-45 0 -49 -31 -49 -51h-56c-5 70 37 110 109 110s98 -61 148 -61zM203 935v60h274v-60h-274z" />
    <glyph glyph-name="Odotabove" unicode="&#xe019;" horiz-adv-x="680" 
d="M340 53c181 0 208 142 208 322s-27 322 -208 322s-208 -142 -208 -322s27 -322 208 -322zM340 -10c-245 0 -280 189 -280 385s35 385 280 385s280 -189 280 -385s-35 -385 -280 -385zM290 850c0 28 22 50 50 50s50 -22 50 -50s-22 -50 -50 -50s-50 22 -50 50z" />
    <glyph glyph-name="Odotabovemacron" unicode="&#xe01a;" horiz-adv-x="680" 
d="M340 53c181 0 208 142 208 322s-27 322 -208 322s-208 -142 -208 -322s27 -322 208 -322zM340 -10c-245 0 -280 189 -280 385s35 385 280 385s280 -189 280 -385s-35 -385 -280 -385zM203 935v60h274v-60h-274zM290 850c0 28 22 50 50 50s50 -22 50 -50s-22 -50 -50 -50
s-50 22 -50 50z" />
    <glyph glyph-name="Ocedilla" unicode="&#xe01b;" horiz-adv-x="680" 
d="M340 53c181 0 208 142 208 322s-27 322 -208 322s-208 -142 -208 -322s27 -322 208 -322zM340 -10c-245 0 -280 189 -280 385s35 385 280 385s280 -189 280 -385s-35 -385 -280 -385zM292 -95l5 45c94 -10 145 -51 145 -111c0 -54 -41 -89 -111 -89c-54 0 -83 12 -94 18
v46s36 -13 77 -13s67 11 67 36c0 43 -42 62 -89 68z" />
    <glyph glyph-name="Odotbelow" unicode="&#x1ecc;" horiz-adv-x="680" 
d="M340 53c181 0 208 142 208 322s-27 322 -208 322s-208 -142 -208 -322s27 -322 208 -322zM340 -10c-245 0 -280 189 -280 385s35 385 280 385s280 -189 280 -385s-35 -385 -280 -385zM290 -150c0 28 22 50 50 50s50 -22 50 -50s-22 -50 -50 -50s-50 22 -50 50z" />
    <glyph glyph-name="Oogonek" unicode="&#x1ea;" horiz-adv-x="680" 
d="M620 375c0 -170 -27 -334 -192 -375c-65 -36 -106 -90 -106 -142c0 -31 15 -57 54 -57c22 0 43 4 57 8v-48c-17 -6 -42 -11 -71 -11c-60 0 -101 36 -101 95c0 53 26 105 75 145c-242 2 -276 190 -276 385c0 196 35 385 280 385s280 -189 280 -385zM340 53
c181 0 208 142 208 322s-27 322 -208 322s-208 -142 -208 -322s27 -322 208 -322z" />
    <glyph glyph-name="Oogonekmacron" unicode="&#x1ec;" horiz-adv-x="680" 
d="M620 375c0 -170 -27 -334 -192 -375c-65 -36 -106 -90 -106 -142c0 -31 15 -57 54 -57c22 0 43 4 57 8v-48c-17 -6 -42 -11 -71 -11c-60 0 -101 36 -101 95c0 53 26 105 75 145c-242 2 -276 190 -276 385c0 196 35 385 280 385s280 -189 280 -385zM340 53
c181 0 208 142 208 322s-27 322 -208 322s-208 -142 -208 -322s27 -322 208 -322zM203 820v60h274v-60h-274z" />
    <glyph glyph-name="Ounderlineaccent" unicode="&#xe01c;" horiz-adv-x="680" 
d="M340 53c181 0 208 142 208 322s-27 322 -208 322s-208 -142 -208 -322s27 -322 208 -322zM340 -10c-245 0 -280 189 -280 385s35 385 280 385s280 -189 280 -385s-35 -385 -280 -385zM310 -50h60v-200h-60v200z" />
    <glyph glyph-name="Oslash" unicode="&#xd8;" horiz-adv-x="660" 
d="M340 -10c-77 0 -132 18 -173 49l-24 -39h-63l48 78c-57 74 -68 184 -68 297c0 196 35 385 280 385c76 0 132 -19 173 -50l24 40h63l-48 -79c56 -73 68 -184 68 -296c0 -196 -35 -385 -280 -385zM340 53c181 0 208 142 208 322c0 90 -7 171 -37 229l-308 -506
c31 -29 75 -45 137 -45zM132 375c0 -91 6 -172 36 -230l309 506c-31 29 -75 46 -137 46c-181 0 -208 -142 -208 -322z" />
    <glyph glyph-name="Oslashacute" unicode="&#x1fe;" horiz-adv-x="660" 
d="M340 -10c-77 0 -132 18 -173 49l-24 -39h-63l48 78c-57 74 -68 184 -68 297c0 196 35 385 280 385c76 0 132 -19 173 -50l24 40h63l-48 -79c56 -73 68 -184 68 -296c0 -196 -35 -385 -280 -385zM340 53c181 0 208 142 208 322c0 90 -7 171 -37 229l-308 -506
c31 -29 75 -45 137 -45zM132 375c0 -91 6 -172 36 -230l309 506c-31 29 -75 46 -137 46c-181 0 -208 -142 -208 -322zM365 800h-50l50 100h100z" />
    <glyph glyph-name="barredO" unicode="&#xe01d;" horiz-adv-x="680" 
d="M340 -10c-245 0 -280 189 -280 385s35 385 280 385s280 -189 280 -385s-35 -385 -280 -385zM340 53c175 0 206 134 208 306h-416c1 -172 32 -306 208 -306zM340 697c-165 0 -202 -118 -207 -275h414c-6 157 -42 275 -207 275z" />
    <glyph glyph-name="OE" unicode="&#x152;" horiz-adv-x="890" 
d="M795 422v-63h-290v-296h325v-63h-454c-245 0 -316 162 -316 375s71 375 316 375h454v-63h-325v-265h290zM437 63v624h-65c-180 0 -240 -132 -240 -312s60 -312 240 -312h65z" />
    <glyph glyph-name="Pmacron" unicode="&#xe01e;" horiz-adv-x="590" 
d="M143 300v-300h-68v750h229c187 0 251 -108 251 -225s-64 -225 -251 -225h-161zM143 687v-324h170c141 0 168 90 168 162s-27 162 -168 162h-170zM158 820v60h274v-60h-274z" />
    <glyph glyph-name="Racute" unicode="&#x154;" horiz-adv-x="621" 
d="M143 328v-328h-68v750h235c187 0 245 -82 245 -211c0 -100 -35 -172 -138 -199l179 -340h-79l-168 329c-11 -1 -22 -1 -33 -1h-173zM143 687v-296h185c133 0 153 68 153 148s-20 148 -153 148h-185zM315 800h-50l50 100h90z" />
    <glyph glyph-name="Rcaron" unicode="&#x158;" horiz-adv-x="621" 
d="M143 328v-328h-68v750h235c187 0 245 -82 245 -211c0 -100 -35 -172 -138 -199l179 -340h-79l-168 329c-11 -1 -22 -1 -33 -1h-173zM143 687v-296h185c133 0 153 68 153 148s-20 148 -153 148h-185zM135 900h56l99 -56l99 56h56l-115 -100h-80z" />
    <glyph glyph-name="Rinvertedbreve" unicode="&#x212;" horiz-adv-x="621" 
d="M143 328v-328h-68v750h235c187 0 245 -82 245 -211c0 -100 -35 -172 -138 -199l179 -340h-79l-168 329c-11 -1 -22 -1 -33 -1h-173zM143 687v-296h185c133 0 153 68 153 148s-20 148 -153 148h-185zM290 910c95 0 142 -36 145 -110h-51c-2 41 -37 55 -94 55
s-92 -14 -94 -55h-51c3 74 50 110 145 110z" />
    <glyph glyph-name="Rdoublegrave" unicode="&#xe01f;" horiz-adv-x="621" 
d="M143 328v-328h-68v750h235c187 0 245 -82 245 -211c0 -100 -35 -172 -138 -199l179 -340h-79l-168 329c-11 -1 -22 -1 -33 -1h-173zM143 687v-296h185c133 0 153 68 153 148s-20 148 -153 148h-185zM375 800h-50l-90 100h90zM255 800h-50l-90 100h90z" />
    <glyph glyph-name="Rcommaaccent" unicode="&#x156;" horiz-adv-x="621" 
d="M143 328v-328h-68v750h235c187 0 245 -82 245 -211c0 -100 -35 -172 -138 -199l179 -340h-79l-168 329c-11 -1 -22 -1 -33 -1h-173zM143 687v-296h185c133 0 153 68 153 148s-20 148 -153 148h-185zM271 -50h92l-68 -200h-50z" />
    <glyph glyph-name="Rcedilla" unicode="&#xe020;" horiz-adv-x="621" 
d="M143 328v-328h-68v750h235c187 0 245 -82 245 -211c0 -100 -35 -172 -138 -199l179 -340h-79l-168 329c-11 -1 -22 -1 -33 -1h-173zM143 687v-296h185c133 0 153 68 153 148s-20 148 -153 148h-185zM270 -95l5 45c94 -10 145 -51 145 -111c0 -54 -41 -89 -111 -89
c-54 0 -83 12 -94 18v46s36 -13 77 -13s67 11 67 36c0 43 -42 62 -89 68z" />
    <glyph glyph-name="Rdotbelow" unicode="&#x1e5a;" horiz-adv-x="621" 
d="M143 328v-328h-68v750h235c187 0 245 -82 245 -211c0 -100 -35 -172 -138 -199l179 -340h-79l-168 329c-11 -1 -22 -1 -33 -1h-173zM143 687v-296h185c133 0 153 68 153 148s-20 148 -153 148h-185zM259 -150c0 28 22 50 50 50s50 -22 50 -50s-22 -50 -50 -50
s-50 22 -50 50z" />
    <glyph glyph-name="Rdotbelowmacron" unicode="&#x1e5c;" horiz-adv-x="621" 
d="M143 328v-328h-68v750h235c187 0 245 -82 245 -211c0 -100 -35 -172 -138 -199l179 -340h-79l-168 329c-11 -1 -22 -1 -33 -1h-173zM143 687v-296h185c133 0 153 68 153 148s-20 148 -153 148h-185zM153 820v60h274v-60h-274zM259 -150c0 28 22 50 50 50s50 -22 50 -50
s-22 -50 -50 -50s-50 22 -50 50z" />
    <glyph glyph-name="Sacute" unicode="&#x15a;" horiz-adv-x="595" 
d="M305 697c-148 0 -182 -68 -182 -147c0 -107 62 -117 180 -132c147 -19 238 -55 238 -202c0 -102 -54 -226 -277 -226c-69 0 -163 19 -210 40v65c48 -16 107 -42 211 -42c156 0 203 73 203 163c0 107 -44 128 -169 144c-177 22 -245 63 -245 191c0 87 42 209 252 209
c92 0 154 -16 195 -35v-67c-68 29 -122 39 -196 39zM331 800h-50l50 100h90z" />
    <glyph glyph-name="Scircumflex" unicode="&#x15c;" horiz-adv-x="595" 
d="M305 697c-148 0 -182 -68 -182 -147c0 -107 62 -117 180 -132c147 -19 238 -55 238 -202c0 -102 -54 -226 -277 -226c-69 0 -163 19 -210 40v65c48 -16 107 -42 211 -42c156 0 203 73 203 163c0 107 -44 128 -169 144c-177 22 -245 63 -245 191c0 87 42 209 252 209
c92 0 154 -16 195 -35v-67c-68 29 -122 39 -196 39zM461 800h-56l-99 56l-99 -56h-56l115 100h80z" />
    <glyph glyph-name="Scaron" unicode="&#x160;" horiz-adv-x="595" 
d="M305 697c-148 0 -182 -68 -182 -147c0 -107 62 -117 180 -132c147 -19 238 -55 238 -202c0 -102 -54 -226 -277 -226c-69 0 -163 19 -210 40v65c48 -16 107 -42 211 -42c156 0 203 73 203 163c0 107 -44 128 -169 144c-177 22 -245 63 -245 191c0 87 42 209 252 209
c92 0 154 -16 195 -35v-67c-68 29 -122 39 -196 39zM151 900h56l99 -56l99 56h56l-115 -100h-80z" />
    <glyph glyph-name="Scommaaccent" unicode="&#x218;" horiz-adv-x="595" 
d="M305 697c-148 0 -182 -68 -182 -147c0 -107 62 -117 180 -132c147 -19 238 -55 238 -202c0 -102 -54 -226 -277 -226c-69 0 -163 19 -210 40v65c48 -16 107 -42 211 -42c156 0 203 73 203 163c0 107 -44 128 -169 144c-177 22 -245 63 -245 191c0 87 42 209 252 209
c92 0 154 -16 195 -35v-67c-68 29 -122 39 -196 39zM231 -50h92l-68 -200h-50z" />
    <glyph glyph-name="Scedilla" unicode="&#x15e;" horiz-adv-x="595" 
d="M305 697c-148 0 -182 -68 -182 -147c0 -107 62 -117 180 -132c147 -19 238 -55 238 -202c0 -96 -48 -212 -241 -224l5 -56c40 -10 95 -35 95 -97c0 -54 -41 -89 -111 -89c-54 0 -83 12 -94 18v46s36 -13 77 -13s67 11 67 36c0 43 -42 57 -89 63l9 90
c-69 1 -159 19 -205 40v65c48 -16 107 -42 211 -42c156 0 203 73 203 163c0 107 -44 128 -169 144c-177 22 -245 63 -245 191c0 87 42 209 252 209c92 0 154 -16 195 -35v-67c-68 29 -122 39 -196 39z" />
    <glyph glyph-name="Sdotbelow" unicode="&#x1e62;" horiz-adv-x="595" 
d="M305 697c-148 0 -182 -68 -182 -147c0 -107 62 -117 180 -132c147 -19 238 -55 238 -202c0 -102 -54 -226 -277 -226c-69 0 -163 19 -210 40v65c48 -16 107 -42 211 -42c156 0 203 73 203 163c0 107 -44 128 -169 144c-177 22 -245 63 -245 191c0 87 42 209 252 209
c92 0 154 -16 195 -35v-67c-68 29 -122 39 -196 39zM224 -150c0 28 22 50 50 50s50 -22 50 -50s-22 -50 -50 -50s-50 22 -50 50z" />
    <glyph glyph-name="Tcaron" unicode="&#x164;" horiz-adv-x="560" 
d="M521 687h-207v-687h-68v687h-207v63h482v-63zM125 900h56l99 -56l99 56h56l-115 -100h-80z" />
    <glyph glyph-name="Tcommaaccent" unicode="&#x162;" horiz-adv-x="560" 
d="M521 687h-207v-687h-68v687h-207v63h482v-63zM236 -50h92l-68 -200h-50z" />
    <glyph glyph-name="Tcommaaccent" unicode="&#x21a;" horiz-adv-x="560" 
d="M521 687h-207v-687h-68v687h-207v63h482v-63zM236 -50h92l-68 -200h-50z" />
    <glyph glyph-name="Tcedilla" unicode="&#xe021;" horiz-adv-x="560" 
d="M521 687h-207v-687h-68v687h-207v63h482v-63zM240 -95l5 45c94 -10 145 -51 145 -111c0 -54 -41 -89 -111 -89c-54 0 -83 12 -94 18v46s36 -13 77 -13s67 11 67 36c0 43 -42 62 -89 68z" />
    <glyph glyph-name="Tdotbelow" unicode="&#x1e6c;" horiz-adv-x="560" 
d="M521 687h-207v-687h-68v687h-207v63h482v-63zM230 -150c0 28 22 50 50 50s50 -22 50 -50s-22 -50 -50 -50s-50 22 -50 50z" />
    <glyph glyph-name="Tbar" unicode="&#x166;" horiz-adv-x="560" 
d="M314 360v-360h-68v360h-125v61h125v266h-207v63h482v-63h-207v-266h125v-61h-125z" />
    <glyph glyph-name="Uacute" unicode="&#xda;" horiz-adv-x="670" 
d="M335 53c67 0 197 13 197 193v504h68v-515c0 -213 -175 -245 -265 -245s-265 32 -265 245v515h68v-504c0 -180 130 -193 197 -193zM360 800h-50l50 100h90z" />
    <glyph glyph-name="Ugrave" unicode="&#xd9;" horiz-adv-x="670" 
d="M335 53c67 0 197 13 197 193v504h68v-515c0 -213 -175 -245 -265 -245s-265 32 -265 245v515h68v-504c0 -180 130 -193 197 -193zM360 800h-50l-90 100h90z" />
    <glyph glyph-name="Ucircumflex" unicode="&#xdb;" horiz-adv-x="670" 
d="M335 53c67 0 197 13 197 193v504h68v-515c0 -213 -175 -245 -265 -245s-265 32 -265 245v515h68v-504c0 -180 130 -193 197 -193zM490 800h-56l-99 56l-99 -56h-56l115 100h80z" />
    <glyph glyph-name="Udieresis" unicode="&#xdc;" horiz-adv-x="670" 
d="M335 53c67 0 197 13 197 193v504h68v-515c0 -213 -175 -245 -265 -245s-265 32 -265 245v515h68v-504c0 -180 130 -193 197 -193zM190 850c0 28 22 50 50 50s50 -22 50 -50s-22 -50 -50 -50s-50 22 -50 50zM380 850c0 28 22 50 50 50s50 -22 50 -50s-22 -50 -50 -50
s-50 22 -50 50z" />
    <glyph glyph-name="Utilde" unicode="&#x168;" horiz-adv-x="670" 
d="M335 53c67 0 197 13 197 193v504h68v-515c0 -213 -175 -245 -265 -245s-265 32 -265 245v515h68v-504c0 -180 130 -193 197 -193zM411 849c45 0 49 31 49 51h56c5 -70 -37 -110 -109 -110s-98 61 -148 61c-45 0 -49 -31 -49 -51h-56c-5 70 37 110 109 110s98 -61 148 -61
z" />
    <glyph glyph-name="Uring" unicode="&#x16e;" horiz-adv-x="670" 
d="M335 53c67 0 197 13 197 193v504h68v-515c0 -213 -175 -245 -265 -245s-265 32 -265 245v515h68v-504c0 -180 130 -193 197 -193zM335 921c50 0 94 -16 94 -71s-44 -71 -94 -71s-94 16 -94 71s44 71 94 71zM335 828c30 0 44 7 44 22s-14 22 -44 22s-44 -7 -44 -22
s14 -22 44 -22z" />
    <glyph glyph-name="Ucaron" unicode="&#x1d3;" horiz-adv-x="670" 
d="M335 53c67 0 197 13 197 193v504h68v-515c0 -213 -175 -245 -265 -245s-265 32 -265 245v515h68v-504c0 -180 130 -193 197 -193zM180 900h56l99 -56l99 56h56l-115 -100h-80z" />
    <glyph glyph-name="Umacron" unicode="&#x16a;" horiz-adv-x="670" 
d="M335 53c67 0 197 13 197 193v504h68v-515c0 -213 -175 -245 -265 -245s-265 32 -265 245v515h68v-504c0 -180 130 -193 197 -193zM198 820v60h274v-60h-274z" />
    <glyph glyph-name="Ubreve" unicode="&#x16c;" horiz-adv-x="670" 
d="M335 53c67 0 197 13 197 193v504h68v-515c0 -213 -175 -245 -265 -245s-265 32 -265 245v515h68v-504c0 -180 130 -193 197 -193zM335 790c-95 0 -142 36 -145 110h51c2 -41 37 -55 94 -55s92 14 94 55h51c-3 -74 -50 -110 -145 -110z" />
    <glyph glyph-name="Uinvertedbreve" unicode="&#x216;" horiz-adv-x="670" 
d="M335 53c67 0 197 13 197 193v504h68v-515c0 -213 -175 -245 -265 -245s-265 32 -265 245v515h68v-504c0 -180 130 -193 197 -193zM335 910c95 0 142 -36 145 -110h-51c-2 41 -37 55 -94 55s-92 -14 -94 -55h-51c3 74 50 110 145 110z" />
    <glyph glyph-name="Uhungarumlaut" unicode="&#x170;" horiz-adv-x="670" 
d="M335 53c67 0 197 13 197 193v504h68v-515c0 -213 -175 -245 -265 -245s-265 32 -265 245v515h68v-504c0 -180 130 -193 197 -193zM300 800h-50l50 100h90zM420 800h-50l50 100h90z" />
    <glyph glyph-name="Udoublegrave" unicode="&#xe022;" horiz-adv-x="670" 
d="M335 53c67 0 197 13 197 193v504h68v-515c0 -213 -175 -245 -265 -245s-265 32 -265 245v515h68v-504c0 -180 130 -193 197 -193zM420 800h-50l-90 100h90zM300 800h-50l-90 100h90z" />
    <glyph glyph-name="Udotbelow" unicode="&#x1ee4;" horiz-adv-x="670" 
d="M335 53c67 0 197 13 197 193v504h68v-515c0 -213 -175 -245 -265 -245s-265 32 -265 245v515h68v-504c0 -180 130 -193 197 -193zM285 -150c0 28 22 50 50 50s50 -22 50 -50s-22 -50 -50 -50s-50 22 -50 50z" />
    <glyph glyph-name="Umacronbelow" unicode="&#xe023;" horiz-adv-x="670" 
d="M335 53c67 0 197 13 197 193v504h68v-515c0 -213 -175 -245 -265 -245s-265 32 -265 245v515h68v-504c0 -180 130 -193 197 -193zM472 -120v-60h-274v60h274z" />
    <glyph glyph-name="Uogonek" unicode="&#x172;" horiz-adv-x="670" 
d="M335 53c67 0 197 13 197 193v504h68v-515c0 -156 -94 -215 -179 -235c-65 -36 -106 -90 -106 -142c0 -31 15 -57 54 -57c22 0 43 4 57 8v-48c-17 -6 -42 -11 -71 -11c-60 0 -101 36 -101 95c0 53 26 105 75 145c-92 2 -259 36 -259 245v515h68v-504
c0 -180 130 -193 197 -193z" />
    <glyph glyph-name="Wacute" unicode="&#x1e82;" horiz-adv-x="880" 
d="M402 750h76l169 -654l131 654h72l-164 -760h-73l-173 670l-173 -670h-73l-164 760h72l131 -654zM465 800h-50l50 100h90z" />
    <glyph glyph-name="Wgrave" unicode="&#x1e80;" horiz-adv-x="880" 
d="M402 750h76l169 -654l131 654h72l-164 -760h-73l-173 670l-173 -670h-73l-164 760h72l131 -654zM465 800h-50l-90 100h90z" />
    <glyph glyph-name="Wcircumflex" unicode="&#x174;" horiz-adv-x="880" 
d="M402 750h76l169 -654l131 654h72l-164 -760h-73l-173 670l-173 -670h-73l-164 760h72l131 -654zM595 800h-56l-99 56l-99 -56h-56l115 100h80z" />
    <glyph glyph-name="Wdieresis" unicode="&#x1e84;" horiz-adv-x="880" 
d="M402 750h76l169 -654l131 654h72l-164 -760h-73l-173 670l-173 -670h-73l-164 760h72l131 -654zM295 850c0 28 22 50 50 50s50 -22 50 -50s-22 -50 -50 -50s-50 22 -50 50zM485 850c0 28 22 50 50 50s50 -22 50 -50s-22 -50 -50 -50s-50 22 -50 50z" />
    <glyph glyph-name="Yacute" unicode="&#xdd;" horiz-adv-x="670" 
d="M640 750l-271 -440v-310h-68v310l-271 440h75l230 -385l230 385h75zM360 800h-50l50 100h90z" />
    <glyph glyph-name="Ygrave" unicode="&#x1ef2;" horiz-adv-x="670" 
d="M640 750l-271 -440v-310h-68v310l-271 440h75l230 -385l230 385h75zM360 800h-50l-90 100h90z" />
    <glyph glyph-name="Ycircumflex" unicode="&#x176;" horiz-adv-x="670" 
d="M640 750l-271 -440v-310h-68v310l-271 440h75l230 -385l230 385h75zM490 800h-56l-99 56l-99 -56h-56l115 100h80z" />
    <glyph glyph-name="Ydieresis" unicode="&#x178;" horiz-adv-x="670" 
d="M640 750l-271 -440v-310h-68v310l-271 440h75l230 -385l230 385h75zM190 850c0 28 22 50 50 50s50 -22 50 -50s-22 -50 -50 -50s-50 22 -50 50zM380 850c0 28 22 50 50 50s50 -22 50 -50s-22 -50 -50 -50s-50 22 -50 50z" />
    <glyph glyph-name="Ytilde" unicode="&#x1ef8;" horiz-adv-x="670" 
d="M640 750l-271 -440v-310h-68v310l-271 440h75l230 -385l230 385h75zM411 849c45 0 49 31 49 51h56c5 -70 -37 -110 -109 -110s-98 61 -148 61c-45 0 -49 -31 -49 -51h-56c-5 70 37 110 109 110s98 -61 148 -61z" />
    <glyph glyph-name="Ymacron" unicode="&#xe024;" horiz-adv-x="670" 
d="M640 750l-271 -440v-310h-68v310l-271 440h75l230 -385l230 385h75zM198 820v60h274v-60h-274z" />
    <glyph glyph-name="IJ" unicode="&#x132;" horiz-adv-x="639" 
d="M165 0h-70v750h70v-750zM295 -3v64c24 -6 39 -8 70 -8c65 0 109 20 109 85v612h70v-610c0 -96 -54 -150 -179 -150c-21 0 -50 2 -70 7z" />
    <glyph glyph-name="Zacute" unicode="&#x179;" horiz-adv-x="610" 
d="M570 0h-530v46l427 643l-407 -2v63h495v-46l-427 -643l442 2v-63zM330 800h-50l50 100h90z" />
    <glyph glyph-name="Zcaron" unicode="&#x17d;" horiz-adv-x="610" 
d="M570 0h-530v46l427 643l-407 -2v63h495v-46l-427 -643l442 2v-63zM150 900h56l99 -56l99 56h56l-115 -100h-80z" />
    <glyph glyph-name="Zdotaccent" unicode="&#x17b;" horiz-adv-x="610" 
d="M570 0h-530v46l427 643l-407 -2v63h495v-46l-427 -643l442 2v-63zM255 850c0 28 22 50 50 50s50 -22 50 -50s-22 -50 -50 -50s-50 22 -50 50z" />
    <glyph glyph-name="Eng" unicode="&#x14a;" horiz-adv-x="670" 
d="M401 -260v59c59 8 128 37 128 114v109l-388 589l2 -611h-68v750h51l403 -611l-2 611h68v-846c0 -104 -103 -159 -194 -164z" />
    <glyph glyph-name="Eth" unicode="&#xd0;" horiz-adv-x="685" 
d="M15 362v53h90v335h204c245 0 316 -162 316 -375s-71 -375 -316 -375h-204v362h-90zM173 687v-272h183v-53h-183v-299h140c180 0 240 132 240 312s-60 312 -240 312h-140z" />
    <glyph glyph-name="Thorn" unicode="&#xde;" 
d="M143 150v-150h-68v750h68v-150h161c187 0 251 -108 251 -225s-64 -225 -251 -225h-161zM143 537v-324h170c141 0 168 90 168 162s-27 162 -168 162h-170z" />
    <glyph glyph-name="Ezh" unicode="&#x1b7;" horiz-adv-x="640" 
d="M246 -197c96 0 275 23 275 257c0 224 -179 227 -310 227h-54v56l296 346l-408 -2v63h496v-55l-299 -347c155 0 353 -47 353 -288c0 -280 -223 -320 -350 -320c-69 0 -163 19 -210 40v65c48 -16 107 -42 211 -42z" />
    <glyph glyph-name="Ezhcaron" unicode="&#x1ee;" horiz-adv-x="640" 
d="M246 -197c96 0 275 23 275 257c0 224 -179 227 -310 227h-54v56l296 346l-408 -2v63h496v-55l-299 -347c155 0 353 -47 353 -288c0 -280 -223 -320 -350 -320c-69 0 -163 19 -210 40v65c48 -16 107 -42 211 -42zM135 900h56l99 -56l99 56h56l-115 -100h-80z" />
    <glyph glyph-name="Schwa" unicode="&#x18f;" horiz-adv-x="685" 
d="M60 375v47h491c-10 158 -72 275 -221 275c-75 0 -134 -11 -230 -59v68c74 39 138 54 230 54c224 0 295 -172 295 -385s-71 -385 -295 -385c-235 0 -270 189 -270 385zM330 53c159 0 219 132 223 306h-419c1 -172 30 -306 196 -306z" />
    <glyph glyph-name="a" unicode="a" horiz-adv-x="495" 
d="M360 343c0 73 -26 105 -119 105c-67 0 -111 -12 -150 -25v60c44 19 102 27 150 27c150 0 189 -68 189 -168v-342h-39l-15 40c-45 -33 -101 -50 -151 -50c-131 0 -175 77 -175 161c0 85 47 148 178 156l132 8v28zM360 266l-137 -13c-71 -7 -102 -44 -102 -102
c0 -45 11 -99 106 -99c54 0 90 15 133 40v174z" />
    <glyph glyph-name="b" unicode="b" horiz-adv-x="535" 
d="M275 510c161 0 205 -116 205 -260s-44 -260 -205 -260c-54 0 -104 18 -156 51l-15 -41h-39v750h70v-281c43 28 94 41 140 41zM275 448c-65 0 -101 -11 -140 -32v-332c39 -21 75 -32 140 -32c120 0 135 99 135 198s-15 198 -135 198z" />
    <glyph glyph-name="c" unicode="c" horiz-adv-x="460" 
d="M55 250c0 144 42 260 211 260c49 0 105 -6 149 -25v-60c-39 13 -79 23 -150 23c-126 0 -140 -99 -140 -198s14 -198 140 -198c71 0 111 10 150 23v-60c-44 -19 -100 -25 -149 -25c-169 0 -211 116 -211 260z" />
    <glyph glyph-name="d" unicode="d" horiz-adv-x="535" 
d="M260 510c46 0 97 -13 140 -41v281h70v-750h-39l-15 41c-52 -33 -102 -51 -156 -51c-161 0 -205 116 -205 260s44 260 205 260zM260 448c-120 0 -135 -99 -135 -198s15 -198 135 -198c65 0 101 11 140 32v332c-39 21 -75 32 -140 32z" />
    <glyph glyph-name="e" unicode="e" horiz-adv-x="510" 
d="M55 250c0 144 41 260 210 260c170 0 190 -116 190 -260v-32h-330c4 -87 27 -166 140 -166c72 0 116 7 165 28v-60c-56 -25 -116 -30 -165 -30c-169 0 -210 116 -210 260zM265 448c-116 0 -137 -83 -140 -173h260c0 89 -5 173 -120 173z" />
    <glyph glyph-name="f" unicode="f" horiz-adv-x="375" 
d="M370 753v-63c-20 5 -39 8 -70 8c-65 0 -113 -23 -113 -88v-110h158v-55h-158v-445h-67v445h-100v31l100 29v105c0 96 55 150 180 150c21 0 50 -2 70 -7z" />
    <glyph glyph-name="g" unicode="g" horiz-adv-x="510" 
d="M242 134c-25 0 -47 2 -66 6c-11 -11 -19 -25 -19 -37c0 -25 12 -36 38 -39l170 -20c94 -10 137 -47 137 -134c0 -122 -122 -170 -260 -170c-140 0 -224 41 -224 151c0 68 47 113 103 132v1c-19 13 -32 33 -32 66c0 28 17 51 38 68c-60 33 -80 94 -80 164
c0 103 44 188 195 188c31 0 57 -4 80 -10h170v-38l-84 -24c21 -32 29 -72 29 -116c0 -103 -44 -188 -195 -188zM351 -12l-146 17c-66 -15 -122 -46 -122 -110c0 -74 56 -95 159 -95c100 0 194 25 194 110c0 51 -24 71 -85 78zM242 195c117 0 130 61 130 127
s-13 127 -130 127s-130 -61 -130 -127s13 -127 130 -127z" />
    <glyph glyph-name="h" unicode="h" horiz-adv-x="500" 
d="M370 363c0 65 -38 85 -100 85c-65 0 -100 -11 -137 -32v-416h-68v750h68v-281c43 28 91 41 137 41c119 0 170 -54 170 -150v-360h-70v363z" />
    <glyph glyph-name="i" unicode="i" horiz-adv-x="240" 
d="M191 -10c-72 0 -110 30 -110 110v400h68v-408c0 -35 11 -45 42 -45v-57zM65 650c0 28 22 50 50 50s50 -22 50 -50s-22 -50 -50 -50s-50 22 -50 50z" />
    <glyph glyph-name="j" unicode="j" horiz-adv-x="230" 
d="M-47 -260v59c59 8 128 37 128 114v587h68v-596c0 -104 -105 -159 -196 -164zM65 650c0 28 22 50 50 50s50 -22 50 -50s-22 -50 -50 -50s-50 22 -50 50z" />
    <glyph glyph-name="k" unicode="k" horiz-adv-x="500" 
d="M453 500l-215 -206l242 -294h-87l-197 254l-63 -60v-194h-68v750h68v-474l226 224h94z" />
    <glyph glyph-name="l" unicode="l" horiz-adv-x="240" 
d="M191 -10c-72 0 -110 30 -110 110v650h68v-658c0 -35 11 -45 42 -45v-57z" />
    <glyph glyph-name="m" unicode="m" horiz-adv-x="785" 
d="M655 0v363c0 65 -38 85 -95 85c-62 0 -96 -12 -136 -33c4 -16 6 -33 6 -52v-363h-70v363c0 65 -38 85 -95 85c-58 0 -91 -10 -130 -30v-418h-70v500h39l15 -41c48 35 100 51 146 51c67 0 114 -19 140 -57c52 36 105 57 155 57c107 0 165 -50 165 -150v-360h-70z" />
    <glyph glyph-name="n" unicode="n" horiz-adv-x="500" 
d="M370 0v363c0 65 -38 85 -100 85c-65 0 -98 -11 -135 -32v-416h-70v500h39l15 -42c47 35 98 52 151 52c119 0 170 -54 170 -150v-360h-70z" />
    <glyph glyph-name="o" unicode="o" horiz-adv-x="530" 
d="M475 250c0 -153 -38 -260 -210 -260c-171 0 -210 107 -210 260s39 260 210 260c172 0 210 -107 210 -260zM405 250c0 113 -10 198 -140 198c-132 0 -140 -85 -140 -198s8 -198 140 -198c130 0 140 85 140 198z" />
    <glyph glyph-name="p" unicode="p" horiz-adv-x="535" 
d="M275 -10c-46 0 -97 13 -140 41v-281h-70v750h39l15 -41c52 33 102 51 156 51c161 0 205 -116 205 -260s-44 -260 -205 -260zM275 52c120 0 135 99 135 198s-15 198 -135 198c-65 0 -101 -11 -140 -32v-332c39 -21 75 -32 140 -32z" />
    <glyph glyph-name="q" unicode="q" horiz-adv-x="535" 
d="M260 -10c-161 0 -205 116 -205 260s44 260 205 260c54 0 104 -18 156 -51l15 41h39v-750h-70v281c-43 -28 -94 -41 -140 -41zM260 52c65 0 101 11 140 32v332c-39 21 -75 32 -140 32c-120 0 -135 -99 -135 -198s15 -198 135 -198z" />
    <glyph glyph-name="r" unicode="r" horiz-adv-x="363" 
d="M340 505v-65c-15 5 -35 8 -60 8c-68 0 -108 -11 -145 -32v-416h-70v500h39l15 -42c47 35 105 52 161 52c23 0 41 -2 60 -5z" />
    <glyph glyph-name="s" unicode="s" horiz-adv-x="460" 
d="M118 362c0 -44 18 -67 114 -75c142 -13 176 -61 176 -143c0 -77 -49 -154 -201 -154c-48 0 -117 12 -149 25v60c31 -11 79 -23 150 -23c104 0 132 44 132 91c0 46 -14 78 -113 86c-145 13 -175 64 -175 133c0 71 46 148 187 148c47 0 100 -6 144 -25v-60
c-39 13 -78 23 -145 23c-99 0 -120 -37 -120 -86z" />
    <glyph glyph-name="t" unicode="t" horiz-adv-x="375" 
d="M325 50v-56c-12 -3 -32 -4 -45 -4c-83 0 -160 38 -160 136v319h-100v31l100 29v135l70 20v-160h155v-55h-155v-311c0 -61 33 -86 96 -86c13 0 26 1 39 2z" />
    <glyph glyph-name="u" unicode="u" horiz-adv-x="500" 
d="M130 500v-363c0 -65 38 -85 100 -85c65 0 98 11 135 32v416h70v-500h-39l-15 42c-47 -35 -98 -52 -151 -52c-119 0 -170 54 -170 150v360h70z" />
    <glyph glyph-name="v" unicode="v" horiz-adv-x="480" 
d="M20 500h77l143 -410l143 410h77l-195 -510h-50z" />
    <glyph glyph-name="w" unicode="w" horiz-adv-x="700" 
d="M605 500h75l-141 -510h-52l-137 435l-137 -435h-52l-141 510h75l94 -392l124 392h74l124 -392z" />
    <glyph glyph-name="x" unicode="x" horiz-adv-x="490" 
d="M103 0h-83l185 257l-175 243h83l132 -196l132 196h83l-175 -243l185 -257h-83l-142 210z" />
    <glyph glyph-name="y" unicode="y" horiz-adv-x="480" 
d="M20 500h80l140 -410l140 410h80l-288 -750h-75l113 263z" />
    <glyph glyph-name="z" unicode="z" horiz-adv-x="455" 
d="M425 0h-390v45l293 396h-278v59h365v-45l-293 -396h303v-59z" />
    <glyph glyph-name="aacute" unicode="&#xe1;" horiz-adv-x="495" 
d="M360 343c0 73 -26 105 -119 105c-67 0 -111 -12 -150 -25v60c44 19 102 27 150 27c150 0 189 -68 189 -168v-342h-39l-15 40c-45 -33 -101 -50 -151 -50c-131 0 -175 77 -175 161c0 85 47 148 178 156l132 8v28zM360 266l-137 -13c-71 -7 -102 -44 -102 -102
c0 -45 11 -99 106 -99c54 0 90 15 133 40v174zM266 550h-50l50 200h80z" />
    <glyph glyph-name="agrave" unicode="&#xe0;" horiz-adv-x="495" 
d="M360 343c0 73 -26 105 -119 105c-67 0 -111 -12 -150 -25v60c44 19 102 27 150 27c150 0 189 -68 189 -168v-342h-39l-15 40c-45 -33 -101 -50 -151 -50c-131 0 -175 77 -175 161c0 85 47 148 178 156l132 8v28zM360 266l-137 -13c-71 -7 -102 -44 -102 -102
c0 -45 11 -99 106 -99c54 0 90 15 133 40v174zM266 550h-50l-80 200h80z" />
    <glyph glyph-name="acircumflex" unicode="&#xe2;" horiz-adv-x="495" 
d="M360 343c0 73 -26 105 -119 105c-67 0 -111 -12 -150 -25v60c44 19 102 27 150 27c150 0 189 -68 189 -168v-342h-39l-15 40c-45 -33 -101 -50 -151 -50c-131 0 -175 77 -175 161c0 85 47 148 178 156l132 8v28zM360 266l-137 -13c-71 -7 -102 -44 -102 -102
c0 -45 11 -99 106 -99c54 0 90 15 133 40v174zM426 550h-55l-130 141l-130 -141h-55l145 200h80z" />
    <glyph glyph-name="adieresis" unicode="&#xe4;" horiz-adv-x="495" 
d="M360 343c0 73 -26 105 -119 105c-67 0 -111 -12 -150 -25v60c44 19 102 27 150 27c150 0 189 -68 189 -168v-342h-39l-15 40c-45 -33 -101 -50 -151 -50c-131 0 -175 77 -175 161c0 85 47 148 178 156l132 8v28zM360 266l-137 -13c-71 -7 -102 -44 -102 -102
c0 -45 11 -99 106 -99c54 0 90 15 133 40v174zM96 650c0 28 22 50 50 50s50 -22 50 -50s-22 -50 -50 -50s-50 22 -50 50zM286 650c0 28 22 50 50 50s50 -22 50 -50s-22 -50 -50 -50s-50 22 -50 50z" />
    <glyph glyph-name="atilde" unicode="&#xe3;" horiz-adv-x="495" 
d="M360 343c0 73 -26 105 -119 105c-67 0 -111 -12 -150 -25v60c44 19 102 27 150 27c150 0 189 -68 189 -168v-342h-39l-15 40c-45 -33 -101 -50 -151 -50c-131 0 -175 77 -175 161c0 85 47 148 178 156l132 8v28zM360 266l-137 -13c-71 -7 -102 -44 -102 -102
c0 -45 11 -99 106 -99c54 0 90 15 133 40v174zM317 644c45 0 49 31 49 51h56c5 -70 -37 -110 -109 -110c-82 0 -93 71 -148 71c-45 0 -49 -31 -49 -51h-56c-5 70 37 110 109 110c82 0 93 -71 148 -71z" />
    <glyph glyph-name="aring" unicode="&#xe5;" horiz-adv-x="495" 
d="M360 343c0 73 -26 105 -119 105c-67 0 -111 -12 -150 -25v60c44 19 102 27 150 27c150 0 189 -68 189 -168v-342h-39l-15 40c-45 -33 -101 -50 -151 -50c-131 0 -175 77 -175 161c0 85 47 148 178 156l132 8v28zM360 266l-137 -13c-71 -7 -102 -44 -102 -102
c0 -45 11 -99 106 -99c54 0 90 15 133 40v174zM241 702c-31 0 -54 -15 -54 -52s23 -52 54 -52s54 15 54 52s-23 52 -54 52zM241 549c-60 0 -104 32 -104 101s44 101 104 101s104 -32 104 -101s-44 -101 -104 -101z" />
    <glyph glyph-name="acaron" unicode="&#x1ce;" horiz-adv-x="495" 
d="M360 343c0 73 -26 105 -119 105c-67 0 -111 -12 -150 -25v60c44 19 102 27 150 27c150 0 189 -68 189 -168v-342h-39l-15 40c-45 -33 -101 -50 -151 -50c-131 0 -175 77 -175 161c0 85 47 148 178 156l132 8v28zM360 266l-137 -13c-71 -7 -102 -44 -102 -102
c0 -45 11 -99 106 -99c54 0 90 15 133 40v174zM371 750h55l-145 -200h-80l-145 200h55l130 -141z" />
    <glyph glyph-name="amacron" unicode="&#x101;" horiz-adv-x="495" 
d="M360 343c0 73 -26 105 -119 105c-67 0 -111 -12 -150 -25v60c44 19 102 27 150 27c150 0 189 -68 189 -168v-342h-39l-15 40c-45 -33 -101 -50 -151 -50c-131 0 -175 77 -175 161c0 85 47 148 178 156l132 8v28zM360 266l-137 -13c-71 -7 -102 -44 -102 -102
c0 -45 11 -99 106 -99c54 0 90 15 133 40v174zM104 620v60h274v-60h-274z" />
    <glyph glyph-name="abreve" unicode="&#x103;" horiz-adv-x="495" 
d="M360 343c0 73 -26 105 -119 105c-67 0 -111 -12 -150 -25v60c44 19 102 27 150 27c150 0 189 -68 189 -168v-342h-39l-15 40c-45 -33 -101 -50 -151 -50c-131 0 -175 77 -175 161c0 85 47 148 178 156l132 8v28zM360 266l-137 -13c-71 -7 -102 -44 -102 -102
c0 -45 11 -99 106 -99c54 0 90 15 133 40v174zM241 550c-115 0 -172 66 -175 200h51c2 -91 27 -140 124 -140s122 49 124 140h51c-3 -134 -60 -200 -175 -200z" />
    <glyph glyph-name="ainvertedbreve" unicode="&#x203;" horiz-adv-x="495" 
d="M360 343c0 73 -26 105 -119 105c-67 0 -111 -12 -150 -25v60c44 19 102 27 150 27c150 0 189 -68 189 -168v-342h-39l-15 40c-45 -33 -101 -50 -151 -50c-131 0 -175 77 -175 161c0 85 47 148 178 156l132 8v28zM360 266l-137 -13c-71 -7 -102 -44 -102 -102
c0 -45 11 -99 106 -99c54 0 90 15 133 40v174zM241 750c115 0 172 -66 175 -200h-51c-2 91 -27 140 -124 140s-122 -49 -124 -140h-51c3 134 60 200 175 200z" />
    <glyph glyph-name="adoublegrave" unicode="&#xe025;" horiz-adv-x="495" 
d="M360 343c0 73 -26 105 -119 105c-67 0 -111 -12 -150 -25v60c44 19 102 27 150 27c150 0 189 -68 189 -168v-342h-39l-15 40c-45 -33 -101 -50 -151 -50c-131 0 -175 77 -175 161c0 85 47 148 178 156l132 8v28zM360 266l-137 -13c-71 -7 -102 -44 -102 -102
c0 -45 11 -99 106 -99c54 0 90 15 133 40v174zM196 550h-50l-100 200h100zM336 550h-50l-100 200h100z" />
    <glyph glyph-name="adotabove" unicode="&#xe026;" horiz-adv-x="495" 
d="M360 343c0 73 -26 105 -119 105c-67 0 -111 -12 -150 -25v60c44 19 102 27 150 27c150 0 189 -68 189 -168v-342h-39l-15 40c-45 -33 -101 -50 -151 -50c-131 0 -175 77 -175 161c0 85 47 148 178 156l132 8v28zM360 266l-137 -13c-71 -7 -102 -44 -102 -102
c0 -45 11 -99 106 -99c54 0 90 15 133 40v174zM191 650c0 28 22 50 50 50s50 -22 50 -50s-22 -50 -50 -50s-50 22 -50 50z" />
    <glyph glyph-name="aringacute" unicode="&#x1fb;" horiz-adv-x="495" 
d="M360 343c0 73 -26 105 -119 105c-67 0 -111 -12 -150 -25v60c44 19 102 27 150 27c150 0 189 -68 189 -168v-342h-39l-15 40c-45 -33 -101 -50 -151 -50c-131 0 -175 77 -175 161c0 85 47 148 178 156l132 8v28zM241 549c-60 0 -104 32 -104 101c0 15 2 31 7 43l57 145
h70l-45 -87h15c60 0 104 -32 104 -101s-44 -101 -104 -101zM360 266l-137 -13c-71 -7 -102 -44 -102 -102c0 -45 11 -99 106 -99c54 0 90 15 133 40v174zM241 702c-31 0 -54 -15 -54 -52s23 -52 54 -52s54 15 54 52s-23 52 -54 52z" />
    <glyph glyph-name="adieresismacron" unicode="&#x1df;" horiz-adv-x="495" 
d="M360 343c0 73 -26 105 -119 105c-67 0 -111 -12 -150 -25v60c44 19 102 27 150 27c150 0 189 -68 189 -168v-342h-39l-15 40c-45 -33 -101 -50 -151 -50c-131 0 -175 77 -175 161c0 85 47 148 178 156l132 8v28zM360 266l-137 -13c-71 -7 -102 -44 -102 -102
c0 -45 11 -99 106 -99c54 0 90 15 133 40v174zM146 560c-31 0 -55 24 -55 55s24 55 55 55s55 -24 55 -55s-24 -55 -55 -55zM391 615c0 -31 -24 -55 -55 -55s-55 24 -55 55s24 55 55 55s55 -24 55 -55zM104 710v60h274v-60h-274z" />
    <glyph glyph-name="aogonek" unicode="&#x105;" horiz-adv-x="495" 
d="M360 343c0 73 -26 105 -119 105c-67 0 -111 -12 -150 -25v60c44 19 102 27 150 27c150 0 189 -68 189 -168v-342c-65 -36 -106 -90 -106 -142c0 -31 15 -57 54 -57c22 0 43 4 57 8v-48c-17 -6 -42 -11 -71 -11c-60 0 -101 36 -101 95c0 68 42 133 120 176l-7 19
c-45 -33 -101 -50 -151 -50c-131 0 -175 77 -175 161c0 85 47 148 178 156l132 8v28zM360 266l-137 -13c-71 -7 -102 -44 -102 -102c0 -45 11 -99 106 -99c54 0 90 15 133 40v174z" />
    <glyph glyph-name="ae" unicode="&#xe6;" horiz-adv-x="835" 
d="M380 343c0 73 -35 105 -131 105c-69 0 -119 -12 -158 -25v60c44 19 109 27 158 27c95 0 150 -26 177 -69c32 43 83 69 164 69c170 0 190 -116 190 -260v-26h-330v-6c4 -87 27 -166 140 -166c72 0 116 7 165 28v-60c-56 -25 -116 -30 -165 -30c-80 0 -131 26 -163 68
l-31 -24c-45 -33 -106 -44 -157 -44c-135 0 -189 66 -189 151c0 77 36 140 184 140h146v62zM380 224h-151c-85 0 -108 -34 -108 -83c0 -46 22 -89 120 -89c56 0 110 19 141 45l17 15c-11 33 -17 70 -19 111v1zM590 448c-114 0 -136 -80 -140 -167h260c-1 86 -8 167 -120 167
z" />
    <glyph glyph-name="aeacute" unicode="&#x1fd;" horiz-adv-x="835" 
d="M380 343c0 73 -35 105 -131 105c-69 0 -119 -12 -158 -25v60c44 19 109 27 158 27c95 0 150 -26 177 -69c32 43 83 69 164 69c170 0 190 -116 190 -260v-26h-330v-6c4 -87 27 -166 140 -166c72 0 116 7 165 28v-60c-56 -25 -116 -30 -165 -30c-80 0 -131 26 -163 68
l-31 -24c-45 -33 -106 -44 -157 -44c-135 0 -189 66 -189 151c0 77 36 140 184 140h146v62zM380 224h-151c-85 0 -108 -34 -108 -83c0 -46 22 -89 120 -89c56 0 110 19 141 45l17 15c-11 33 -17 70 -19 111v1zM590 448c-114 0 -136 -80 -140 -167h260c-1 86 -8 167 -120 167
zM445 550h-50l50 200h100z" />
    <glyph glyph-name="aemacron" unicode="&#x1e3;" horiz-adv-x="835" 
d="M380 343c0 73 -35 105 -131 105c-69 0 -119 -12 -158 -25v60c44 19 109 27 158 27c95 0 150 -26 177 -69c32 43 83 69 164 69c170 0 190 -116 190 -260v-26h-330v-6c4 -87 27 -166 140 -166c72 0 116 7 165 28v-60c-56 -25 -116 -30 -165 -30c-80 0 -131 26 -163 68
l-31 -24c-45 -33 -106 -44 -157 -44c-135 0 -189 66 -189 151c0 77 36 140 184 140h146v62zM380 224h-151c-85 0 -108 -34 -108 -83c0 -46 22 -89 120 -89c56 0 110 19 141 45l17 15c-11 33 -17 70 -19 111v1zM590 448c-114 0 -136 -80 -140 -167h260c-1 86 -8 167 -120 167
zM283 620v60h274v-60h-274z" />
    <glyph glyph-name="cacute" unicode="&#x107;" horiz-adv-x="460" 
d="M55 250c0 144 42 260 211 260c49 0 105 -6 149 -25v-60c-39 13 -79 23 -150 23c-126 0 -140 -99 -140 -198s14 -198 140 -198c71 0 111 10 150 23v-60c-44 -19 -100 -25 -149 -25c-169 0 -211 116 -211 260zM291 550h-50l50 200h80z" />
    <glyph glyph-name="ccircumflex" unicode="&#x109;" horiz-adv-x="460" 
d="M55 250c0 144 42 260 211 260c49 0 105 -6 149 -25v-60c-39 13 -79 23 -150 23c-126 0 -140 -99 -140 -198s14 -198 140 -198c71 0 111 10 150 23v-60c-44 -19 -100 -25 -149 -25c-169 0 -211 116 -211 260zM451 550h-55l-130 141l-130 -141h-55l145 200h80z" />
    <glyph glyph-name="ccaron" unicode="&#x10d;" horiz-adv-x="460" 
d="M55 250c0 144 42 260 211 260c49 0 105 -6 149 -25v-60c-39 13 -79 23 -150 23c-126 0 -140 -99 -140 -198s14 -198 140 -198c71 0 111 10 150 23v-60c-44 -19 -100 -25 -149 -25c-169 0 -211 116 -211 260zM396 750h55l-145 -200h-80l-145 200h55l130 -141z" />
    <glyph glyph-name="cdotaccent" unicode="&#x10b;" horiz-adv-x="460" 
d="M55 250c0 144 42 260 211 260c49 0 105 -6 149 -25v-60c-39 13 -79 23 -150 23c-126 0 -140 -99 -140 -198s14 -198 140 -198c71 0 111 10 150 23v-60c-44 -19 -100 -25 -149 -25c-169 0 -211 116 -211 260zM216 650c0 28 22 50 50 50s50 -22 50 -50s-22 -50 -50 -50
s-50 22 -50 50z" />
    <glyph glyph-name="ccedilla" unicode="&#xe7;" horiz-adv-x="460" 
d="M55 250c0 144 42 260 211 260c49 0 105 -6 149 -25v-60c-39 13 -79 23 -150 23c-126 0 -140 -99 -140 -198s14 -198 140 -198c71 0 111 10 150 23v-60c-41 -17 -92 -24 -138 -25l4 -54c40 -10 95 -35 95 -97c0 -54 -41 -89 -111 -89c-54 0 -83 12 -94 18v46
s36 -13 77 -13s67 11 67 36c0 43 -42 57 -89 63l9 92c-143 13 -180 123 -180 258z" />
    <glyph glyph-name="dcaron" unicode="&#x10f;" horiz-adv-x="555" 
d="M260 510c46 0 97 -13 140 -41v281h70v-750h-39l-15 41c-52 -33 -102 -51 -156 -51c-161 0 -205 116 -205 260s44 260 205 260zM260 448c-120 0 -135 -99 -135 -198s15 -198 135 -198c65 0 101 11 140 32v332c-39 21 -75 32 -140 32zM536 750h78l-48 -200h-46z" />
    <glyph glyph-name="dcedilla" unicode="&#x1e11;" horiz-adv-x="535" 
d="M260 510c46 0 97 -13 140 -41v281h70v-750h-39l-15 41c-52 -33 -102 -51 -156 -51c-161 0 -205 116 -205 260s44 260 205 260zM260 448c-120 0 -135 -99 -135 -198s15 -198 135 -198c65 0 101 11 140 32v332c-39 21 -75 32 -140 32zM230 -95l5 45
c94 -10 145 -51 145 -111c0 -54 -41 -89 -111 -89c-54 0 -83 12 -94 18v46s36 -13 77 -13s67 11 67 36c0 43 -42 62 -89 68z" />
    <glyph glyph-name="ddotbelow" unicode="&#x1e0d;" horiz-adv-x="535" 
d="M260 510c46 0 97 -13 140 -41v281h70v-750h-39l-15 41c-52 -33 -102 -51 -156 -51c-161 0 -205 116 -205 260s44 260 205 260zM260 448c-120 0 -135 -99 -135 -198s15 -198 135 -198c65 0 101 11 140 32v332c-39 21 -75 32 -140 32zM220 -150c0 28 22 50 50 50
s50 -22 50 -50s-22 -50 -50 -50s-50 22 -50 50z" />
    <glyph glyph-name="dcroat" unicode="&#x111;" horiz-adv-x="535" 
d="M260 510c47 0 93 -14 140 -41v134h-135v51h135v96h70v-96h90v-51h-90v-603h-39l-15 41c-52 -33 -102 -51 -156 -51c-161 0 -205 116 -205 260s44 260 205 260zM260 52c65 0 101 11 140 32v332c-39 21 -75 32 -140 32c-120 0 -135 -99 -135 -198s15 -198 135 -198z" />
    <glyph glyph-name="eacute" unicode="&#xe9;" horiz-adv-x="510" 
d="M55 250c0 144 41 260 210 260c170 0 190 -116 190 -260v-32h-330c4 -87 27 -166 140 -166c72 0 116 7 165 28v-60c-56 -25 -116 -30 -165 -30c-169 0 -210 116 -210 260zM265 448c-116 0 -137 -83 -140 -173h260c0 89 -5 173 -120 173zM290 550h-50l50 200h80z" />
    <glyph glyph-name="egrave" unicode="&#xe8;" horiz-adv-x="510" 
d="M55 250c0 144 41 260 210 260c170 0 190 -116 190 -260v-32h-330c4 -87 27 -166 140 -166c72 0 116 7 165 28v-60c-56 -25 -116 -30 -165 -30c-169 0 -210 116 -210 260zM265 448c-116 0 -137 -83 -140 -173h260c0 89 -5 173 -120 173zM290 550h-50l-80 200h80z" />
    <glyph glyph-name="ecircumflex" unicode="&#xea;" horiz-adv-x="510" 
d="M55 250c0 144 41 260 210 260c170 0 190 -116 190 -260v-32h-330c4 -87 27 -166 140 -166c72 0 116 7 165 28v-60c-56 -25 -116 -30 -165 -30c-169 0 -210 116 -210 260zM265 448c-116 0 -137 -83 -140 -173h260c0 89 -5 173 -120 173zM450 550h-55l-130 141l-130 -141
h-55l145 200h80z" />
    <glyph glyph-name="edieresis" unicode="&#xeb;" horiz-adv-x="510" 
d="M55 250c0 144 41 260 210 260c170 0 190 -116 190 -260v-32h-330c4 -87 27 -166 140 -166c72 0 116 7 165 28v-60c-56 -25 -116 -30 -165 -30c-169 0 -210 116 -210 260zM265 448c-116 0 -137 -83 -140 -173h260c0 89 -5 173 -120 173zM120 650c0 28 22 50 50 50
s50 -22 50 -50s-22 -50 -50 -50s-50 22 -50 50zM310 650c0 28 22 50 50 50s50 -22 50 -50s-22 -50 -50 -50s-50 22 -50 50z" />
    <glyph glyph-name="ecaron" unicode="&#x11b;" horiz-adv-x="510" 
d="M55 250c0 144 41 260 210 260c170 0 190 -116 190 -260v-32h-330c4 -87 27 -166 140 -166c72 0 116 7 165 28v-60c-56 -25 -116 -30 -165 -30c-169 0 -210 116 -210 260zM265 448c-116 0 -137 -83 -140 -173h260c0 89 -5 173 -120 173zM395 750h55l-145 -200h-80
l-145 200h55l130 -141z" />
    <glyph glyph-name="emacron" unicode="&#x113;" horiz-adv-x="510" 
d="M55 250c0 144 41 260 210 260c170 0 190 -116 190 -260v-32h-330c4 -87 27 -166 140 -166c72 0 116 7 165 28v-60c-56 -25 -116 -30 -165 -30c-169 0 -210 116 -210 260zM265 448c-116 0 -137 -83 -140 -173h260c0 89 -5 173 -120 173zM128 620v60h274v-60h-274z" />
    <glyph glyph-name="ebreve" unicode="&#x115;" horiz-adv-x="510" 
d="M55 250c0 144 41 260 210 260c170 0 190 -116 190 -260v-32h-330c4 -87 27 -166 140 -166c72 0 116 7 165 28v-60c-56 -25 -116 -30 -165 -30c-169 0 -210 116 -210 260zM265 448c-116 0 -137 -83 -140 -173h260c0 89 -5 173 -120 173zM265 550c-115 0 -172 66 -175 200
h51c2 -91 27 -140 124 -140s122 49 124 140h51c-3 -134 -60 -200 -175 -200z" />
    <glyph glyph-name="einvertedbreve" unicode="&#x207;" horiz-adv-x="510" 
d="M55 250c0 144 41 260 210 260c170 0 190 -116 190 -260v-32h-330c4 -87 27 -166 140 -166c72 0 116 7 165 28v-60c-56 -25 -116 -30 -165 -30c-169 0 -210 116 -210 260zM265 448c-116 0 -137 -83 -140 -173h260c0 89 -5 173 -120 173zM265 750c115 0 172 -66 175 -200
h-51c-2 91 -27 140 -124 140s-122 -49 -124 -140h-51c3 134 60 200 175 200z" />
    <glyph glyph-name="edoublegrave" unicode="&#xe027;" horiz-adv-x="510" 
d="M55 250c0 144 41 260 210 260c170 0 190 -116 190 -260v-32h-330c4 -87 27 -166 140 -166c72 0 116 7 165 28v-60c-56 -25 -116 -30 -165 -30c-169 0 -210 116 -210 260zM265 448c-116 0 -137 -83 -140 -173h260c0 89 -5 173 -120 173zM230 550h-50l-80 200h80zM350 550
h-50l-80 200h80z" />
    <glyph glyph-name="edotaccent" unicode="&#x117;" horiz-adv-x="510" 
d="M55 250c0 144 41 260 210 260c170 0 190 -116 190 -260v-32h-330c4 -87 27 -166 140 -166c72 0 116 7 165 28v-60c-56 -25 -116 -30 -165 -30c-169 0 -210 116 -210 260zM265 448c-116 0 -137 -83 -140 -173h260c0 89 -5 173 -120 173zM215 650c0 28 22 50 50 50
s50 -22 50 -50s-22 -50 -50 -50s-50 22 -50 50z" />
    <glyph glyph-name="eacutedotbelow" unicode="&#xe028;" horiz-adv-x="510" 
d="M55 250c0 144 41 260 210 260c170 0 190 -116 190 -260v-32h-330c4 -87 27 -166 140 -166c72 0 116 7 165 28v-60c-56 -25 -116 -30 -165 -30c-169 0 -210 116 -210 260zM265 448c-116 0 -137 -83 -140 -173h260c0 89 -5 173 -120 173zM290 550h-50l50 200h80zM215 -150
c0 28 22 50 50 50s50 -22 50 -50s-22 -50 -50 -50s-50 22 -50 50z" />
    <glyph glyph-name="egravedotbelow" unicode="&#xe029;" horiz-adv-x="510" 
d="M55 250c0 144 41 260 210 260c170 0 190 -116 190 -260v-32h-330c4 -87 27 -166 140 -166c72 0 116 7 165 28v-60c-56 -25 -116 -30 -165 -30c-169 0 -210 116 -210 260zM265 448c-116 0 -137 -83 -140 -173h260c0 89 -5 173 -120 173zM290 550h-50l-80 200h80zM215 -150
c0 28 22 50 50 50s50 -22 50 -50s-22 -50 -50 -50s-50 22 -50 50z" />
    <glyph glyph-name="eogonek" unicode="&#x119;" horiz-adv-x="510" 
d="M55 250c0 144 41 260 210 260c170 0 190 -116 190 -260v-32h-330c4 -87 27 -166 140 -166c72 0 116 7 165 28v-60c-21 -9 -41 -16 -62 -20c-65 -36 -106 -90 -106 -142c0 -31 15 -57 54 -57c22 0 43 4 57 8v-48c-17 -6 -42 -11 -71 -11c-60 0 -101 36 -101 95
c0 53 26 105 75 145h-11c-169 0 -210 116 -210 260zM265 448c-116 0 -137 -83 -140 -173h260c0 89 -5 173 -120 173z" />
    <glyph glyph-name="gacute" unicode="&#x1f5;" horiz-adv-x="510" 
d="M267 550h-50l50 200h80zM242 134c-25 0 -47 2 -66 6c-11 -11 -19 -25 -19 -37c0 -25 12 -36 38 -39l170 -20c94 -10 137 -47 137 -134c0 -122 -122 -170 -260 -170c-140 0 -224 41 -224 151c0 68 47 113 103 132v1c-19 13 -32 33 -32 66c0 28 17 51 38 68
c-60 33 -80 94 -80 164c0 103 44 188 195 188c31 0 57 -4 80 -10h170v-38l-84 -24c21 -32 29 -72 29 -116c0 -103 -44 -188 -195 -188zM351 -12l-146 17c-66 -15 -122 -46 -122 -110c0 -74 56 -95 159 -95c100 0 194 25 194 110c0 51 -24 71 -85 78zM242 195
c117 0 130 61 130 127s-13 127 -130 127s-130 -61 -130 -127s13 -127 130 -127z" />
    <glyph glyph-name="gcircumflex" unicode="&#x11d;" horiz-adv-x="510" 
d="M427 550h-55l-130 141l-130 -141h-55l145 200h80zM242 134c-25 0 -47 2 -66 6c-11 -11 -19 -25 -19 -37c0 -25 12 -36 38 -39l170 -20c94 -10 137 -47 137 -134c0 -122 -122 -170 -260 -170c-140 0 -224 41 -224 151c0 68 47 113 103 132v1c-19 13 -32 33 -32 66
c0 28 17 51 38 68c-60 33 -80 94 -80 164c0 103 44 188 195 188c31 0 57 -4 80 -10h170v-38l-84 -24c21 -32 29 -72 29 -116c0 -103 -44 -188 -195 -188zM351 -12l-146 17c-66 -15 -122 -46 -122 -110c0 -74 56 -95 159 -95c100 0 194 25 194 110c0 51 -24 71 -85 78z
M242 195c117 0 130 61 130 127s-13 127 -130 127s-130 -61 -130 -127s13 -127 130 -127z" />
    <glyph glyph-name="gtilde" unicode="&#xe02a;" horiz-adv-x="510" 
d="M318 644c45 0 49 31 49 51h56c5 -70 -37 -110 -109 -110c-82 0 -93 71 -148 71c-45 0 -49 -31 -49 -51h-56c-5 70 37 110 109 110c82 0 93 -71 148 -71zM242 134c-25 0 -47 2 -66 6c-11 -11 -19 -25 -19 -37c0 -25 12 -36 38 -39l170 -20c94 -10 137 -47 137 -134
c0 -122 -122 -170 -260 -170c-140 0 -224 41 -224 151c0 68 47 113 103 132v1c-19 13 -32 33 -32 66c0 28 17 51 38 68c-60 33 -80 94 -80 164c0 103 44 188 195 188c31 0 57 -4 80 -10h170v-38l-84 -24c21 -32 29 -72 29 -116c0 -103 -44 -188 -195 -188zM351 -12l-146 17
c-66 -15 -122 -46 -122 -110c0 -74 56 -95 159 -95c100 0 194 25 194 110c0 51 -24 71 -85 78zM242 195c117 0 130 61 130 127s-13 127 -130 127s-130 -61 -130 -127s13 -127 130 -127z" />
    <glyph glyph-name="gcaron" unicode="&#x1e7;" horiz-adv-x="510" 
d="M372 750h55l-145 -200h-80l-145 200h55l130 -141zM242 134c-25 0 -47 2 -66 6c-11 -11 -19 -25 -19 -37c0 -25 12 -36 38 -39l170 -20c94 -10 137 -47 137 -134c0 -122 -122 -170 -260 -170c-140 0 -224 41 -224 151c0 68 47 113 103 132v1c-19 13 -32 33 -32 66
c0 28 17 51 38 68c-60 33 -80 94 -80 164c0 103 44 188 195 188c31 0 57 -4 80 -10h170v-38l-84 -24c21 -32 29 -72 29 -116c0 -103 -44 -188 -195 -188zM351 -12l-146 17c-66 -15 -122 -46 -122 -110c0 -74 56 -95 159 -95c100 0 194 25 194 110c0 51 -24 71 -85 78z
M242 195c117 0 130 61 130 127s-13 127 -130 127s-130 -61 -130 -127s13 -127 130 -127z" />
    <glyph glyph-name="gbreve" unicode="&#x11f;" horiz-adv-x="510" 
d="M242 550c-115 0 -172 66 -175 200h51c2 -91 27 -140 124 -140s122 49 124 140h51c-3 -134 -60 -200 -175 -200zM242 134c-25 0 -47 2 -66 6c-11 -11 -19 -25 -19 -37c0 -25 12 -36 38 -39l170 -20c94 -10 137 -47 137 -134c0 -122 -122 -170 -260 -170
c-140 0 -224 41 -224 151c0 68 47 113 103 132v1c-19 13 -32 33 -32 66c0 28 17 51 38 68c-60 33 -80 94 -80 164c0 103 44 188 195 188c31 0 57 -4 80 -10h170v-38l-84 -24c21 -32 29 -72 29 -116c0 -103 -44 -188 -195 -188zM351 -12l-146 17c-66 -15 -122 -46 -122 -110
c0 -74 56 -95 159 -95c100 0 194 25 194 110c0 51 -24 71 -85 78zM242 195c117 0 130 61 130 127s-13 127 -130 127s-130 -61 -130 -127s13 -127 130 -127z" />
    <glyph glyph-name="gdotaccent" unicode="&#x121;" horiz-adv-x="510" 
d="M242 134c-25 0 -47 2 -66 6c-11 -11 -19 -25 -19 -37c0 -25 12 -36 38 -39l170 -20c94 -10 137 -47 137 -134c0 -122 -122 -170 -260 -170c-140 0 -224 41 -224 151c0 68 47 113 103 132v1c-19 13 -32 33 -32 66c0 28 17 51 38 68c-60 33 -80 94 -80 164
c0 103 44 188 195 188c31 0 57 -4 80 -10h170v-38l-84 -24c21 -32 29 -72 29 -116c0 -103 -44 -188 -195 -188zM351 -12l-146 17c-66 -15 -122 -46 -122 -110c0 -74 56 -95 159 -95c100 0 194 25 194 110c0 51 -24 71 -85 78zM242 195c117 0 130 61 130 127
s-13 127 -130 127s-130 -61 -130 -127s13 -127 130 -127zM192 650c0 28 22 50 50 50s50 -22 50 -50s-22 -50 -50 -50s-50 22 -50 50z" />
    <glyph glyph-name="gcommaaccent" unicode="&#x123;" horiz-adv-x="510" 
d="M242 134c-25 0 -47 2 -66 6c-11 -11 -19 -25 -19 -37c0 -25 12 -36 38 -39l170 -20c94 -10 137 -47 137 -134c0 -122 -122 -170 -260 -170c-140 0 -224 41 -224 151c0 68 47 113 103 132v1c-19 13 -32 33 -32 66c0 28 17 51 38 68c-60 33 -80 94 -80 164
c0 103 44 188 195 188c31 0 57 -4 80 -10h170v-38l-84 -24c21 -32 29 -72 29 -116c0 -103 -44 -188 -195 -188zM351 -12l-146 17c-66 -15 -122 -46 -122 -110c0 -74 56 -95 159 -95c100 0 194 25 194 110c0 51 -24 71 -85 78zM242 195c117 0 130 61 130 127
s-13 127 -130 127s-130 -61 -130 -127s13 -127 130 -127zM281 550h-80l56 200h50z" />
    <glyph glyph-name="gcommaturnedabove" unicode="&#xe02b;" horiz-adv-x="510" 
d="M242 134c-25 0 -47 2 -66 6c-11 -11 -19 -25 -19 -37c0 -25 12 -36 38 -39l170 -20c94 -10 137 -47 137 -134c0 -122 -122 -170 -260 -170c-140 0 -224 41 -224 151c0 68 47 113 103 132v1c-19 13 -32 33 -32 66c0 28 17 51 38 68c-60 33 -80 94 -80 164
c0 103 44 188 195 188c31 0 57 -4 80 -10h170v-38l-84 -24c21 -32 29 -72 29 -116c0 -103 -44 -188 -195 -188zM351 -12l-146 17c-66 -15 -122 -46 -122 -110c0 -74 56 -95 159 -95c100 0 194 25 194 110c0 51 -24 71 -85 78zM242 195c117 0 130 61 130 127
s-13 127 -130 127s-130 -61 -130 -127s13 -127 130 -127zM281 550h-80l56 200h50z" />
    <glyph glyph-name="gstroke" unicode="&#x1e5;" horiz-adv-x="510" 
d="M242 134c-25 0 -47 2 -66 6c-11 -11 -19 -25 -19 -37c0 -25 12 -36 38 -39l170 -20c84 -9 127 -40 135 -109h57v-51h-57c-17 -102 -131 -144 -258 -144c-137 0 -221 40 -224 144h-50v51h57c15 44 53 73 96 88v1c-19 13 -32 33 -32 66c0 28 17 51 38 68
c-60 33 -80 94 -80 164c0 103 44 188 195 188c31 0 57 -4 80 -10h170v-38l-84 -24c21 -32 29 -72 29 -116c0 -103 -44 -188 -195 -188zM242 195c117 0 130 61 130 127s-13 127 -130 127s-130 -61 -130 -127s13 -127 130 -127zM242 -200c89 0 173 20 191 84h-350
c6 -65 61 -84 159 -84zM351 -12l-146 17c-51 -11 -95 -32 -113 -70h341c-7 33 -32 48 -82 53z" />
    <glyph glyph-name="hcircumflex" unicode="&#x125;" horiz-adv-x="500" 
d="M370 363c0 65 -38 85 -100 85c-65 0 -100 -11 -137 -32v-416h-68v750h68v-281c43 28 91 41 137 41c119 0 170 -54 170 -150v-360h-70v363zM254 800h-56l-99 56l-99 -56h-56l115 100h80z" />
    <glyph glyph-name="hcaron" unicode="&#xe02c;" horiz-adv-x="500" 
d="M370 363c0 65 -38 85 -100 85c-65 0 -100 -11 -137 -32v-416h-68v750h68v-281c43 28 91 41 137 41c119 0 170 -54 170 -150v-360h-70v363zM-56 900h56l99 -56l99 56h56l-115 -100h-80z" />
    <glyph glyph-name="hdotbelow" unicode="&#x1e25;" horiz-adv-x="500" 
d="M370 363c0 65 -38 85 -100 85c-65 0 -100 -11 -137 -32v-416h-68v750h68v-281c43 28 91 41 137 41c119 0 170 -54 170 -150v-360h-70v363zM203 -150c0 28 22 50 50 50s50 -22 50 -50s-22 -50 -50 -50s-50 22 -50 50z" />
    <glyph glyph-name="hmacronbelow" unicode="&#xe02d;" horiz-adv-x="500" 
d="M370 363c0 65 -38 85 -100 85c-65 0 -100 -11 -137 -32v-416h-68v750h68v-281c43 28 91 41 137 41c119 0 170 -54 170 -150v-360h-70v363zM390 -120v-60h-274v60h274z" />
    <glyph glyph-name="hbar" unicode="&#x127;" horiz-adv-x="500" 
d="M-25 654h90v96h68v-96h137v-51h-137v-134c43 28 91 41 137 41c119 0 170 -54 170 -150v-360h-70v363c0 65 -38 85 -100 85c-65 0 -100 -11 -137 -32v-416h-68v603h-90v51z" />
    <glyph glyph-name="dotlessi" unicode="&#x131;" horiz-adv-x="240" 
d="M191 -10c-72 0 -110 30 -110 110v400h68v-408c0 -35 11 -45 42 -45v-57z" />
    <glyph glyph-name="iacute" unicode="&#xed;" horiz-adv-x="240" 
d="M191 -10c-72 0 -110 30 -110 110v400h68v-408c0 -35 11 -45 42 -45v-57zM140 550h-50l50 200h80z" />
    <glyph glyph-name="igrave" unicode="&#xec;" horiz-adv-x="240" 
d="M191 -10c-72 0 -110 30 -110 110v400h68v-408c0 -35 11 -45 42 -45v-57zM140 550h-50l-80 200h80z" />
    <glyph glyph-name="icircumflex" unicode="&#xee;" horiz-adv-x="240" 
d="M191 -10c-72 0 -110 30 -110 110v400h68v-408c0 -35 11 -45 42 -45v-57zM300 550h-55l-130 141l-130 -141h-55l145 200h80z" />
    <glyph glyph-name="idieresis" unicode="&#xef;" horiz-adv-x="240" 
d="M191 -10c-72 0 -110 30 -110 110v400h68v-408c0 -35 11 -45 42 -45v-57zM140 650c0 28 22 50 50 50s50 -22 50 -50s-22 -50 -50 -50s-50 22 -50 50zM-10 650c0 28 22 50 50 50s50 -22 50 -50s-22 -50 -50 -50s-50 22 -50 50z" />
    <glyph glyph-name="itilde" unicode="&#x129;" horiz-adv-x="240" 
d="M191 -10c-72 0 -110 30 -110 110v400h68v-408c0 -35 11 -45 42 -45v-57zM191 644c45 0 49 31 49 51h56c5 -70 -37 -110 -109 -110c-82 0 -93 71 -148 71c-45 0 -49 -31 -49 -51h-56c-5 70 37 110 109 110c82 0 93 -71 148 -71z" />
    <glyph glyph-name="icaron" unicode="&#x1d0;" horiz-adv-x="240" 
d="M191 -10c-72 0 -110 30 -110 110v400h68v-408c0 -35 11 -45 42 -45v-57zM-70 750h55l130 -141l130 141h55l-145 -200h-80z" />
    <glyph glyph-name="imacron" unicode="&#x12b;" horiz-adv-x="240" 
d="M191 -10c-72 0 -110 30 -110 110v400h68v-408c0 -35 11 -45 42 -45v-57zM-22 620v60h274v-60h-274z" />
    <glyph glyph-name="ibreve" unicode="&#xe02e;" horiz-adv-x="240" 
d="M191 -10c-72 0 -110 30 -110 110v400h68v-408c0 -35 11 -45 42 -45v-57zM115 550c-115 0 -172 66 -175 200h51c2 -91 27 -140 124 -140s122 49 124 140h51c-3 -134 -60 -200 -175 -200z" />
    <glyph glyph-name="iinvertedbreve" unicode="&#x20b;" horiz-adv-x="240" 
d="M191 -10c-72 0 -110 30 -110 110v400h68v-408c0 -35 11 -45 42 -45v-57zM115 750c115 0 172 -66 175 -200h-51c-2 91 -27 140 -124 140s-122 -49 -124 -140h-51c3 134 60 200 175 200z" />
    <glyph glyph-name="idoublegrave" unicode="&#xe02f;" horiz-adv-x="240" 
d="M191 -10c-72 0 -110 30 -110 110v400h68v-408c0 -35 11 -45 42 -45v-57zM80 550h-50l-80 200h80zM200 550h-50l-80 200h80z" />
    <glyph glyph-name="idotaccent" unicode="&#xe030;" horiz-adv-x="240" 
d="M191 -10c-72 0 -110 30 -110 110v400h68v-408c0 -35 11 -45 42 -45v-57zM65 650c0 28 22 50 50 50s50 -22 50 -50s-22 -50 -50 -50s-50 22 -50 50z" />
    <glyph glyph-name="idotbelow" unicode="&#x1ecb;" horiz-adv-x="240" 
d="M191 -10c-72 0 -110 30 -110 110v400h68v-408c0 -35 11 -45 42 -45v-57zM65 650c0 28 22 50 50 50s50 -22 50 -50s-22 -50 -50 -50s-50 22 -50 50zM70 -150c0 28 22 50 50 50s50 -22 50 -50s-22 -50 -50 -50s-50 22 -50 50z" />
    <glyph glyph-name="iogonek" unicode="&#x12f;" horiz-adv-x="240" 
d="M191 -10c-49 -26 -95 -80 -95 -132c0 -31 15 -57 54 -57c22 0 43 4 57 8v-48c-17 -6 -42 -11 -71 -11c-60 0 -101 36 -101 95s34 115 94 156c-32 15 -48 46 -48 99v400h68v-408c0 -35 11 -45 42 -45v-57zM65 650c0 28 22 50 50 50s50 -22 50 -50s-22 -50 -50 -50
s-50 22 -50 50z" />
    <glyph glyph-name="dotlessj" unicode="&#x237;" horiz-adv-x="230" 
d="M-47 -260v59c59 8 128 37 128 114v587h68v-596c0 -104 -105 -159 -196 -164z" />
    <glyph glyph-name="jcircumflex" unicode="&#x135;" horiz-adv-x="230" 
d="M-47 -260v59c59 8 128 37 128 114v587h68v-596c0 -104 -105 -159 -196 -164zM300 550h-55l-130 141l-130 -141h-55l145 200h80z" />
    <glyph glyph-name="jcaron" unicode="&#x1f0;" horiz-adv-x="230" 
d="M-47 -260v59c59 8 128 37 128 114v587h68v-596c0 -104 -105 -159 -196 -164zM-70 750h55l130 -141l130 141h55l-145 -200h-80z" />
    <glyph glyph-name="kcaron" unicode="&#x1e9;" horiz-adv-x="500" 
d="M453 500l-215 -206l242 -294h-87l-197 254l-63 -60v-194h-68v750h68v-474l226 224h94zM-56 900h56l99 -56l99 56h56l-115 -100h-80z" />
    <glyph glyph-name="kcommaaccent" unicode="&#x137;" horiz-adv-x="500" 
d="M453 500l-215 -206l242 -294h-87l-197 254l-63 -60v-194h-68v750h68v-474l226 224h94zM223 -50h80l-56 -200h-50z" />
    <glyph glyph-name="kcedilla" unicode="&#xe031;" horiz-adv-x="500" 
d="M453 500l-215 -206l242 -294h-87l-197 254l-63 -60v-194h-68v750h68v-474l226 224h94zM203 -95l5 45c94 -10 145 -51 145 -111c0 -54 -41 -89 -111 -89c-54 0 -83 12 -94 18v46s36 -13 77 -13s67 11 67 36c0 43 -42 62 -89 68z" />
    <glyph glyph-name="khook" unicode="&#x199;" horiz-adv-x="500" 
d="M261 760v-59c-59 -8 -128 -37 -128 -114v-311l226 224h94l-215 -206l242 -294h-87l-197 254l-63 -60v-194h-68v596c0 104 105 159 196 164z" />
    <glyph glyph-name="kgreenlandic" unicode="&#x138;" horiz-adv-x="500" 
d="M453 500l-215 -206l242 -294h-87l-197 254l-63 -60v-194h-68v500h68v-224l226 224h94z" />
    <glyph glyph-name="lacute" unicode="&#x13a;" horiz-adv-x="240" 
d="M191 -10c-72 0 -110 30 -110 110v650h68v-658c0 -35 11 -45 42 -45v-57zM140 800h-50l50 100h90z" />
    <glyph glyph-name="lcaron" unicode="&#x13e;" horiz-adv-x="260" 
d="M191 -10c-72 0 -110 30 -110 110v650h68v-658c0 -35 11 -45 42 -45v-57zM215 750h78l-48 -200h-46z" />
    <glyph glyph-name="lcommaaccent" unicode="&#x13c;" horiz-adv-x="240" 
d="M191 -10c-72 0 -110 30 -110 110v650h68v-658c0 -35 11 -45 42 -45v-57zM103 -50h80l-56 -200h-50z" />
    <glyph glyph-name="lcedilla" unicode="&#xe032;" horiz-adv-x="240" 
d="M191 -10c-72 0 -110 30 -110 110v650h68v-658c0 -35 11 -45 42 -45v-57zM93 -95l5 45c94 -10 145 -51 145 -111c0 -54 -41 -89 -111 -89c-54 0 -83 12 -94 18v46s36 -13 77 -13s67 11 67 36c0 43 -42 62 -89 68z" />
    <glyph glyph-name="ldotbelow" unicode="&#x1e37;" horiz-adv-x="240" 
d="M191 -10c-72 0 -110 30 -110 110v650h68v-658c0 -35 11 -45 42 -45v-57zM85 -150c0 28 22 50 50 50s50 -22 50 -50s-22 -50 -50 -50s-50 22 -50 50z" />
    <glyph glyph-name="ldotbelowmacron" unicode="&#x1e39;" horiz-adv-x="240" 
d="M191 -10c-72 0 -110 30 -110 110v650h68v-658c0 -35 11 -45 42 -45v-57zM-22 820v60h274v-60h-274zM85 -150c0 28 22 50 50 50s50 -22 50 -50s-22 -50 -50 -50s-50 22 -50 50z" />
    <glyph glyph-name="ldot" unicode="&#x140;" horiz-adv-x="360" 
d="M191 -10c-72 0 -110 30 -110 110v650h68v-658c0 -35 11 -45 42 -45v-57zM250 300c0 28 22 50 50 50s50 -22 50 -50s-22 -50 -50 -50s-50 22 -50 50z" />
    <glyph glyph-name="lslash" unicode="&#x142;" horiz-adv-x="290" 
d="M25 288v64l76 48v350h68v-306l105 66v-64l-105 -66v-288c0 -35 11 -45 42 -45v-57c-72 0 -110 30 -110 110v236z" />
    <glyph glyph-name="mmacron" unicode="&#xe033;" horiz-adv-x="785" 
d="M655 0v363c0 65 -38 85 -95 85c-62 0 -96 -12 -136 -33c4 -16 6 -33 6 -52v-363h-70v363c0 65 -38 85 -95 85c-58 0 -91 -10 -130 -30v-418h-70v500h39l15 -41c48 35 100 51 146 51c67 0 114 -19 140 -57c52 36 105 57 155 57c107 0 165 -50 165 -150v-360h-70zM255 620
v60h274v-60h-274z" />
    <glyph glyph-name="mcedilla" unicode="&#xe034;" horiz-adv-x="785" 
d="M655 0v363c0 65 -38 85 -95 85c-62 0 -96 -12 -136 -33c4 -16 6 -33 6 -52v-363h-70v363c0 65 -38 85 -95 85c-58 0 -91 -10 -130 -30v-418h-70v500h39l15 -41c48 35 100 51 146 51c67 0 114 -19 140 -57c52 36 105 57 155 57c107 0 165 -50 165 -150v-360h-70zM355 -95
l5 45c94 -10 145 -51 145 -111c0 -54 -41 -89 -111 -89c-54 0 -83 12 -94 18v46s36 -13 77 -13s67 11 67 36c0 43 -42 62 -89 68z" />
    <glyph glyph-name="mdotbelow" unicode="&#x1e43;" horiz-adv-x="785" 
d="M655 0v363c0 65 -38 85 -95 85c-62 0 -96 -12 -136 -33c4 -16 6 -33 6 -52v-363h-70v363c0 65 -38 85 -95 85c-58 0 -91 -10 -130 -30v-418h-70v500h39l15 -41c48 35 100 51 146 51c67 0 114 -19 140 -57c52 36 105 57 155 57c107 0 165 -50 165 -150v-360h-70zM345 -150
c0 28 22 50 50 50s50 -22 50 -50s-22 -50 -50 -50s-50 22 -50 50z" />
    <glyph glyph-name="nacute" unicode="&#x144;" horiz-adv-x="500" 
d="M370 0v363c0 65 -38 85 -100 85c-65 0 -98 -11 -135 -32v-416h-70v500h39l15 -42c47 35 98 52 151 52c119 0 170 -54 170 -150v-360h-70zM270 550h-50l50 200h80z" />
    <glyph glyph-name="ngrave" unicode="&#xe035;" horiz-adv-x="500" 
d="M370 0v363c0 65 -38 85 -100 85c-65 0 -98 -11 -135 -32v-416h-70v500h39l15 -42c47 35 98 52 151 52c119 0 170 -54 170 -150v-360h-70zM280 550h-50l-80 200h80z" />
    <glyph glyph-name="ndieresis" unicode="&#xe036;" horiz-adv-x="500" 
d="M370 0v363c0 65 -38 85 -100 85c-65 0 -98 -11 -135 -32v-416h-70v500h39l15 -42c47 35 98 52 151 52c119 0 170 -54 170 -150v-360h-70zM110 650c0 28 22 50 50 50s50 -22 50 -50s-22 -50 -50 -50s-50 22 -50 50zM300 650c0 28 22 50 50 50s50 -22 50 -50
s-22 -50 -50 -50s-50 22 -50 50z" />
    <glyph glyph-name="ntilde" unicode="&#xf1;" horiz-adv-x="500" 
d="M370 0v363c0 65 -38 85 -100 85c-65 0 -98 -11 -135 -32v-416h-70v500h39l15 -42c47 35 98 52 151 52c119 0 170 -54 170 -150v-360h-70zM331 644c45 0 49 31 49 51h56c5 -70 -37 -110 -109 -110c-82 0 -93 71 -148 71c-45 0 -49 -31 -49 -51h-56c-5 70 37 110 109 110
c82 0 93 -71 148 -71z" />
    <glyph glyph-name="ncaron" unicode="&#x148;" horiz-adv-x="500" 
d="M370 0v363c0 65 -38 85 -100 85c-65 0 -98 -11 -135 -32v-416h-70v500h39l15 -42c47 35 98 52 151 52c119 0 170 -54 170 -150v-360h-70zM375 750h55l-145 -200h-80l-145 200h55l130 -141z" />
    <glyph glyph-name="nmacron" unicode="&#xe037;" horiz-adv-x="500" 
d="M370 0v363c0 65 -38 85 -100 85c-65 0 -98 -11 -135 -32v-416h-70v500h39l15 -42c47 35 98 52 151 52c119 0 170 -54 170 -150v-360h-70zM118 620v60h274v-60h-274z" />
    <glyph glyph-name="ndotaccent" unicode="&#x1e45;" horiz-adv-x="500" 
d="M370 0v363c0 65 -38 85 -100 85c-65 0 -98 -11 -135 -32v-416h-70v500h39l15 -42c47 35 98 52 151 52c119 0 170 -54 170 -150v-360h-70zM205 650c0 28 22 50 50 50s50 -22 50 -50s-22 -50 -50 -50s-50 22 -50 50z" />
    <glyph glyph-name="ncommaaccent" unicode="&#x146;" horiz-adv-x="500" 
d="M370 0v363c0 65 -38 85 -100 85c-65 0 -98 -11 -135 -32v-416h-70v500h39l15 -42c47 35 98 52 151 52c119 0 170 -54 170 -150v-360h-70zM212 -50h80l-56 -200h-50z" />
    <glyph glyph-name="ncedilla" unicode="&#xe038;" horiz-adv-x="500" 
d="M370 0v363c0 65 -38 85 -100 85c-65 0 -98 -11 -135 -32v-416h-70v500h39l15 -42c47 35 98 52 151 52c119 0 170 -54 170 -150v-360h-70zM193 -95l5 45c94 -10 145 -51 145 -111c0 -54 -41 -89 -111 -89c-54 0 -83 12 -94 18v46s36 -13 77 -13s67 11 67 36
c0 43 -42 62 -89 68z" />
    <glyph glyph-name="ndotbelow" unicode="&#x1e47;" horiz-adv-x="500" 
d="M370 0v363c0 65 -38 85 -100 85c-65 0 -98 -11 -135 -32v-416h-70v500h39l15 -42c47 35 98 52 151 52c119 0 170 -54 170 -150v-360h-70zM200 -150c0 28 22 50 50 50s50 -22 50 -50s-22 -50 -50 -50s-50 22 -50 50z" />
    <glyph glyph-name="ndescender" unicode="&#xe039;" horiz-adv-x="500" 
d="M440 -125v125h-70v363c0 65 -38 85 -100 85c-65 0 -98 -11 -135 -32v-416h-70v500h39l15 -42c47 35 98 52 151 52c119 0 170 -54 170 -150v-299h66v-186h-66z" />
    <glyph glyph-name="oacute" unicode="&#xf3;" horiz-adv-x="530" 
d="M475 250c0 -153 -38 -260 -210 -260c-171 0 -210 107 -210 260s39 260 210 260c172 0 210 -107 210 -260zM405 250c0 113 -10 198 -140 198c-132 0 -140 -85 -140 -198s8 -198 140 -198c130 0 140 85 140 198zM290 550h-50l50 200h80z" />
    <glyph glyph-name="ograve" unicode="&#xf2;" horiz-adv-x="530" 
d="M475 250c0 -153 -38 -260 -210 -260c-171 0 -210 107 -210 260s39 260 210 260c172 0 210 -107 210 -260zM405 250c0 113 -10 198 -140 198c-132 0 -140 -85 -140 -198s8 -198 140 -198c130 0 140 85 140 198zM290 550h-50l-80 200h80z" />
    <glyph glyph-name="ocircumflex" unicode="&#xf4;" horiz-adv-x="530" 
d="M475 250c0 -153 -38 -260 -210 -260c-171 0 -210 107 -210 260s39 260 210 260c172 0 210 -107 210 -260zM405 250c0 113 -10 198 -140 198c-132 0 -140 -85 -140 -198s8 -198 140 -198c130 0 140 85 140 198zM450 550h-55l-130 141l-130 -141h-55l145 200h80z" />
    <glyph glyph-name="odieresis" unicode="&#xf6;" horiz-adv-x="530" 
d="M475 250c0 -153 -38 -260 -210 -260c-171 0 -210 107 -210 260s39 260 210 260c172 0 210 -107 210 -260zM405 250c0 113 -10 198 -140 198c-132 0 -140 -85 -140 -198s8 -198 140 -198c130 0 140 85 140 198zM120 650c0 28 22 50 50 50s50 -22 50 -50s-22 -50 -50 -50
s-50 22 -50 50zM310 650c0 28 22 50 50 50s50 -22 50 -50s-22 -50 -50 -50s-50 22 -50 50z" />
    <glyph glyph-name="otilde" unicode="&#xf5;" horiz-adv-x="530" 
d="M475 250c0 -153 -38 -260 -210 -260c-171 0 -210 107 -210 260s39 260 210 260c172 0 210 -107 210 -260zM405 250c0 113 -10 198 -140 198c-132 0 -140 -85 -140 -198s8 -198 140 -198c130 0 140 85 140 198zM341 644c45 0 49 31 49 51h56c5 -70 -37 -110 -109 -110
c-82 0 -93 71 -148 71c-45 0 -49 -31 -49 -51h-56c-5 70 37 110 109 110c82 0 93 -71 148 -71z" />
    <glyph glyph-name="ocaron" unicode="&#x1d2;" horiz-adv-x="530" 
d="M475 250c0 -153 -38 -260 -210 -260c-171 0 -210 107 -210 260s39 260 210 260c172 0 210 -107 210 -260zM405 250c0 113 -10 198 -140 198c-132 0 -140 -85 -140 -198s8 -198 140 -198c130 0 140 85 140 198zM395 750h55l-145 -200h-80l-145 200h55l130 -141z" />
    <glyph glyph-name="omacron" unicode="&#x14d;" horiz-adv-x="530" 
d="M475 250c0 -153 -38 -260 -210 -260c-171 0 -210 107 -210 260s39 260 210 260c172 0 210 -107 210 -260zM405 250c0 113 -10 198 -140 198c-132 0 -140 -85 -140 -198s8 -198 140 -198c130 0 140 85 140 198zM128 620v60h274v-60h-274z" />
    <glyph glyph-name="obreve" unicode="&#x14f;" horiz-adv-x="530" 
d="M475 250c0 -153 -38 -260 -210 -260c-171 0 -210 107 -210 260s39 260 210 260c172 0 210 -107 210 -260zM405 250c0 113 -10 198 -140 198c-132 0 -140 -85 -140 -198s8 -198 140 -198c130 0 140 85 140 198zM265 550c-115 0 -172 66 -175 200h51
c2 -91 27 -140 124 -140s122 49 124 140h51c-3 -134 -60 -200 -175 -200z" />
    <glyph glyph-name="oinvertedbreve" unicode="&#x20f;" horiz-adv-x="530" 
d="M475 250c0 -153 -38 -260 -210 -260c-171 0 -210 107 -210 260s39 260 210 260c172 0 210 -107 210 -260zM405 250c0 113 -10 198 -140 198c-132 0 -140 -85 -140 -198s8 -198 140 -198c130 0 140 85 140 198zM265 750c115 0 172 -66 175 -200h-51
c-2 91 -27 140 -124 140s-122 -49 -124 -140h-51c3 134 60 200 175 200z" />
    <glyph glyph-name="ohungarumlaut" unicode="&#x151;" horiz-adv-x="530" 
d="M475 250c0 -153 -38 -260 -210 -260c-171 0 -210 107 -210 260s39 260 210 260c172 0 210 -107 210 -260zM405 250c0 113 -10 198 -140 198c-132 0 -140 -85 -140 -198s8 -198 140 -198c130 0 140 85 140 198zM350 550h-50l50 200h80zM230 550h-50l50 200h80z" />
    <glyph glyph-name="odoublegrave" unicode="&#xe03a;" horiz-adv-x="530" 
d="M475 250c0 -153 -38 -260 -210 -260c-171 0 -210 107 -210 260s39 260 210 260c172 0 210 -107 210 -260zM405 250c0 113 -10 198 -140 198c-132 0 -140 -85 -140 -198s8 -198 140 -198c130 0 140 85 140 198zM230 550h-50l-80 200h80zM350 550h-50l-80 200h80z" />
    <glyph glyph-name="ocommaturnedabove" unicode="&#xe03b;" horiz-adv-x="530" 
d="M475 250c0 -153 -38 -260 -210 -260c-171 0 -210 107 -210 260s39 260 210 260c172 0 210 -107 210 -260zM405 250c0 113 -10 198 -140 198c-132 0 -140 -85 -140 -198s8 -198 140 -198c130 0 140 85 140 198zM304 550h-80l56 200h50z" />
    <glyph glyph-name="otildemacron" unicode="&#xe03c;" horiz-adv-x="530" 
d="M475 250c0 -153 -38 -260 -210 -260c-171 0 -210 107 -210 260s39 260 210 260c172 0 210 -107 210 -260zM405 250c0 113 -10 198 -140 198c-132 0 -140 -85 -140 -198s8 -198 140 -198c130 0 140 85 140 198zM341 609c45 0 49 31 49 51h56c5 -70 -37 -110 -109 -110
c-82 0 -93 71 -148 71c-45 0 -49 -31 -49 -51h-56c-5 70 37 110 109 110c82 0 93 -71 148 -71zM128 710v60h274v-60h-274z" />
    <glyph glyph-name="odotabove" unicode="&#xe03d;" horiz-adv-x="530" 
d="M475 250c0 -153 -38 -260 -210 -260c-171 0 -210 107 -210 260s39 260 210 260c172 0 210 -107 210 -260zM405 250c0 113 -10 198 -140 198c-132 0 -140 -85 -140 -198s8 -198 140 -198c130 0 140 85 140 198zM215 650c0 28 22 50 50 50s50 -22 50 -50s-22 -50 -50 -50
s-50 22 -50 50z" />
    <glyph glyph-name="odotabovemacron" unicode="&#xe03e;" horiz-adv-x="530" 
d="M475 250c0 -153 -38 -260 -210 -260c-171 0 -210 107 -210 260s39 260 210 260c172 0 210 -107 210 -260zM405 250c0 113 -10 198 -140 198c-132 0 -140 -85 -140 -198s8 -198 140 -198c130 0 140 85 140 198zM128 710v60h274v-60h-274zM215 615c0 28 22 50 50 50
s50 -22 50 -50s-22 -50 -50 -50s-50 22 -50 50z" />
    <glyph glyph-name="ocedilla" unicode="&#xe03f;" horiz-adv-x="530" 
d="M475 250c0 -153 -38 -260 -210 -260c-171 0 -210 107 -210 260s39 260 210 260c172 0 210 -107 210 -260zM405 250c0 113 -10 198 -140 198c-132 0 -140 -85 -140 -198s8 -198 140 -198c130 0 140 85 140 198zM225 -95l5 45c94 -10 145 -51 145 -111
c0 -54 -41 -89 -111 -89c-54 0 -83 12 -94 18v46s36 -13 77 -13s67 11 67 36c0 43 -42 62 -89 68z" />
    <glyph glyph-name="odotbelow" unicode="&#x1ecd;" horiz-adv-x="530" 
d="M475 250c0 -153 -38 -260 -210 -260c-171 0 -210 107 -210 260s39 260 210 260c172 0 210 -107 210 -260zM405 250c0 113 -10 198 -140 198c-132 0 -140 -85 -140 -198s8 -198 140 -198c130 0 140 85 140 198zM215 -150c0 28 22 50 50 50s50 -22 50 -50s-22 -50 -50 -50
s-50 22 -50 50z" />
    <glyph glyph-name="oogonek" unicode="&#x1eb;" horiz-adv-x="530" 
d="M475 250c0 -126 -26 -220 -130 -250c-65 -36 -106 -90 -106 -142c0 -31 15 -57 54 -57c22 0 43 4 57 8v-48c-17 -6 -42 -11 -71 -11c-60 0 -101 36 -101 95c0 53 26 105 75 145c-161 5 -198 110 -198 260c0 153 39 260 210 260c172 0 210 -107 210 -260zM405 250
c0 113 -10 198 -140 198c-132 0 -140 -85 -140 -198s8 -198 140 -198c130 0 140 85 140 198z" />
    <glyph glyph-name="oogonekmacron" unicode="&#x1ed;" horiz-adv-x="530" 
d="M475 250c0 -126 -26 -220 -130 -250c-65 -36 -106 -90 -106 -142c0 -31 15 -57 54 -57c22 0 43 4 57 8v-48c-17 -6 -42 -11 -71 -11c-60 0 -101 36 -101 95c0 53 26 105 75 145c-161 5 -198 110 -198 260c0 153 39 260 210 260c172 0 210 -107 210 -260zM405 250
c0 113 -10 198 -140 198c-132 0 -140 -85 -140 -198s8 -198 140 -198c130 0 140 85 140 198zM128 620v60h274v-60h-274z" />
    <glyph glyph-name="ounderlineaccent" unicode="&#xe040;" horiz-adv-x="530" 
d="M475 250c0 -153 -38 -260 -210 -260c-171 0 -210 107 -210 260s39 260 210 260c172 0 210 -107 210 -260zM405 250c0 113 -10 198 -140 198c-132 0 -140 -85 -140 -198s8 -198 140 -198c130 0 140 85 140 198zM235 -50h60v-200h-60v200z" />
    <glyph glyph-name="oslash" unicode="&#xf8;" horiz-adv-x="530" 
d="M65 0l37 54c-36 46 -47 114 -47 196c0 153 39 260 210 260c54 0 94 -11 125 -30l13 20h62l-37 -55c36 -46 47 -114 47 -195c0 -153 -38 -260 -210 -260c-54 0 -95 10 -125 29l-13 -19h-62zM125 250c0 -54 1 -101 17 -136l211 312c-21 14 -49 22 -88 22
c-132 0 -140 -85 -140 -198zM405 250c0 53 -2 100 -18 135l-211 -312c21 -14 49 -21 89 -21c130 0 140 85 140 198z" />
    <glyph glyph-name="oslashacute" unicode="&#x1ff;" horiz-adv-x="530" 
d="M65 0l37 54c-36 46 -47 114 -47 196c0 153 39 260 210 260c54 0 94 -11 125 -30l13 20h62l-37 -55c36 -46 47 -114 47 -195c0 -153 -38 -260 -210 -260c-54 0 -95 10 -125 29l-13 -19h-62zM125 250c0 -54 1 -101 17 -136l211 312c-21 14 -49 22 -88 22
c-132 0 -140 -85 -140 -198zM405 250c0 53 -2 100 -18 135l-211 -312c21 -14 49 -21 89 -21c130 0 140 85 140 198zM290 550h-50l50 200h80z" />
    <glyph glyph-name="barredo" unicode="&#xe041;" horiz-adv-x="530" 
d="M475 250c0 -153 -38 -260 -210 -260c-171 0 -210 107 -210 260s39 260 210 260c172 0 210 -107 210 -260zM265 52c120 0 138 72 140 173h-280c1 -101 18 -173 140 -173zM265 448c-119 0 -138 -70 -140 -166h280c-3 96 -23 166 -140 166z" />
    <glyph glyph-name="oe" unicode="&#x153;" horiz-adv-x="860" 
d="M265 510c93 0 146 -31 176 -84c31 52 84 84 174 84c170 0 190 -116 190 -260v-32h-330c4 -87 27 -166 140 -166c72 0 116 7 165 28v-60c-56 -25 -116 -30 -165 -30c-90 0 -143 32 -174 84c-30 -53 -83 -84 -176 -84c-171 0 -210 107 -210 260s39 260 210 260zM405 250
c0 113 -10 198 -140 198c-132 0 -140 -85 -140 -198s8 -198 140 -198c130 0 140 85 140 198zM615 448c-116 0 -137 -83 -140 -173h260c0 89 -5 173 -120 173z" />
    <glyph glyph-name="pmacron" unicode="&#xe042;" horiz-adv-x="535" 
d="M275 -10c-46 0 -97 13 -140 41v-281h-70v750h39l15 -41c52 33 102 51 156 51c161 0 205 -116 205 -260s-44 -260 -205 -260zM275 52c120 0 135 99 135 198s-15 198 -135 198c-65 0 -101 -11 -140 -32v-332c39 -21 75 -32 140 -32zM131 620v60h274v-60h-274z" />
    <glyph glyph-name="racute" unicode="&#x155;" horiz-adv-x="363" 
d="M340 505v-65c-15 5 -35 8 -60 8c-68 0 -108 -11 -145 -32v-416h-70v500h39l15 -42c47 35 105 52 161 52c23 0 41 -2 60 -5zM235 550h-50l50 200h80z" />
    <glyph glyph-name="rcaron" unicode="&#x159;" horiz-adv-x="363" 
d="M340 505v-65c-15 5 -35 8 -60 8c-68 0 -108 -11 -145 -32v-416h-70v500h39l15 -42c47 35 105 52 161 52c23 0 41 -2 60 -5zM340 750h55l-145 -200h-80l-145 200h55l130 -141z" />
    <glyph glyph-name="rinvertedbreve" unicode="&#x213;" horiz-adv-x="363" 
d="M340 505v-65c-15 5 -35 8 -60 8c-68 0 -108 -11 -145 -32v-416h-70v500h39l15 -42c47 35 105 52 161 52c23 0 41 -2 60 -5zM210 750c115 0 172 -66 175 -200h-51c-2 91 -27 140 -124 140s-122 -49 -124 -140h-51c3 134 60 200 175 200z" />
    <glyph glyph-name="rdoublegrave" unicode="&#xe043;" horiz-adv-x="363" 
d="M340 505v-65c-15 5 -35 8 -60 8c-68 0 -108 -11 -145 -32v-416h-70v500h39l15 -42c47 35 105 52 161 52c23 0 41 -2 60 -5zM175 550h-50l-80 200h80zM295 550h-50l-80 200h80z" />
    <glyph glyph-name="rcommaaccent" unicode="&#x157;" horiz-adv-x="363" 
d="M340 505v-65c-15 5 -35 8 -60 8c-68 0 -108 -11 -145 -32v-416h-70v500h39l15 -42c47 35 105 52 161 52c23 0 41 -2 60 -5zM62 -50h80l-56 -200h-50z" />
    <glyph glyph-name="rcedilla" unicode="&#xe044;" horiz-adv-x="363" 
d="M340 505v-65c-15 5 -35 8 -60 8c-68 0 -108 -11 -145 -32v-416h-70v500h39l15 -42c47 35 105 52 161 52c23 0 41 -2 60 -5zM60 -95l5 45c94 -10 145 -51 145 -111c0 -54 -41 -89 -111 -89c-54 0 -83 12 -94 18v46s36 -13 77 -13s67 11 67 36c0 43 -42 62 -89 68z" />
    <glyph glyph-name="rdotbelow" unicode="&#x1e5b;" horiz-adv-x="363" 
d="M340 505v-65c-15 5 -35 8 -60 8c-68 0 -108 -11 -145 -32v-416h-70v500h39l15 -42c47 35 105 52 161 52c23 0 41 -2 60 -5zM50 -150c0 28 22 50 50 50s50 -22 50 -50s-22 -50 -50 -50s-50 22 -50 50z" />
    <glyph glyph-name="rdotbelowmacron" unicode="&#x1e5d;" horiz-adv-x="363" 
d="M340 505v-65c-15 5 -35 8 -60 8c-68 0 -108 -11 -145 -32v-416h-70v500h39l15 -42c47 35 105 52 161 52c23 0 41 -2 60 -5zM73 620v60h274v-60h-274zM50 -150c0 28 22 50 50 50s50 -22 50 -50s-22 -50 -50 -50s-50 22 -50 50z" />
    <glyph glyph-name="sacute" unicode="&#x15b;" horiz-adv-x="460" 
d="M118 362c0 -44 18 -67 114 -75c142 -13 176 -61 176 -143c0 -77 -49 -154 -201 -154c-48 0 -117 12 -149 25v60c31 -11 79 -23 150 -23c104 0 132 44 132 91c0 46 -14 78 -113 86c-145 13 -175 64 -175 133c0 71 46 148 187 148c47 0 100 -6 144 -25v-60
c-39 13 -78 23 -145 23c-99 0 -120 -37 -120 -86zM264 550h-50l50 200h80z" />
    <glyph glyph-name="scircumflex" unicode="&#x15d;" horiz-adv-x="460" 
d="M118 362c0 -44 18 -67 114 -75c142 -13 176 -61 176 -143c0 -77 -49 -154 -201 -154c-48 0 -117 12 -149 25v60c31 -11 79 -23 150 -23c104 0 132 44 132 91c0 46 -14 78 -113 86c-145 13 -175 64 -175 133c0 71 46 148 187 148c47 0 100 -6 144 -25v-60
c-39 13 -78 23 -145 23c-99 0 -120 -37 -120 -86zM414 550h-55l-130 141l-130 -141h-55l145 200h80z" />
    <glyph glyph-name="scaron" unicode="&#x161;" horiz-adv-x="460" 
d="M118 362c0 -44 18 -67 114 -75c142 -13 176 -61 176 -143c0 -77 -49 -154 -201 -154c-48 0 -117 12 -149 25v60c31 -11 79 -23 150 -23c104 0 132 44 132 91c0 46 -14 78 -113 86c-145 13 -175 64 -175 133c0 71 46 148 187 148c47 0 100 -6 144 -25v-60
c-39 13 -78 23 -145 23c-99 0 -120 -37 -120 -86zM359 750h55l-145 -200h-80l-145 200h55l130 -141z" />
    <glyph glyph-name="scommaaccent" unicode="&#x219;" horiz-adv-x="460" 
d="M118 362c0 -44 18 -67 114 -75c142 -13 176 -61 176 -143c0 -77 -49 -154 -201 -154c-48 0 -117 12 -149 25v60c31 -11 79 -23 150 -23c104 0 132 44 132 91c0 46 -14 78 -113 86c-145 13 -175 64 -175 133c0 71 46 148 187 148c47 0 100 -6 144 -25v-60
c-39 13 -78 23 -145 23c-99 0 -120 -37 -120 -86zM186 -50h80l-56 -200h-50z" />
    <glyph glyph-name="scedilla" unicode="&#x15f;" horiz-adv-x="460" 
d="M118 362c0 -44 18 -67 114 -75c142 -13 176 -61 176 -143c0 -73 -44 -144 -175 -153l5 -55c40 -10 95 -35 95 -97c0 -54 -41 -89 -111 -89c-54 0 -83 12 -94 18v46s36 -13 77 -13s67 11 67 36c0 43 -42 57 -89 63l9 90c-47 2 -105 13 -134 25v60c31 -11 79 -23 150 -23
c104 0 132 44 132 91c0 46 -14 78 -113 86c-145 13 -175 64 -175 133c0 71 46 148 187 148c47 0 100 -6 144 -25v-60c-39 13 -78 23 -145 23c-99 0 -120 -37 -120 -86z" />
    <glyph glyph-name="sdotbelow" unicode="&#x1e63;" horiz-adv-x="460" 
d="M118 362c0 -44 18 -67 114 -75c142 -13 176 -61 176 -143c0 -77 -49 -154 -201 -154c-48 0 -117 12 -149 25v60c31 -11 79 -23 150 -23c104 0 132 44 132 91c0 46 -14 78 -113 86c-145 13 -175 64 -175 133c0 71 46 148 187 148c47 0 100 -6 144 -25v-60
c-39 13 -78 23 -145 23c-99 0 -120 -37 -120 -86zM165 -150c0 28 22 50 50 50s50 -22 50 -50s-22 -50 -50 -50s-50 22 -50 50z" />
    <glyph glyph-name="germandbls" unicode="&#xdf;" horiz-adv-x="538" 
d="M346 -10c-43 0 -89 8 -122 27v60c31 -11 69 -25 122 -25c82 0 100 43 100 90c0 48 -17 68 -93 91c-103 31 -132 68 -132 139c0 140 156 115 156 238c0 65 -51 88 -113 88s-113 -23 -113 -88v-610h-67v610c0 96 61 150 180 150s177 -54 177 -150
c0 -155 -155 -136 -155 -238c0 -42 17 -59 83 -80c102 -33 144 -65 144 -149c0 -77 -44 -153 -167 -153z" />
    <glyph glyph-name="tcaron" unicode="&#x165;" horiz-adv-x="375" 
d="M325 50v-56c-12 -3 -32 -4 -45 -4c-83 0 -160 38 -160 136v319h-100v31l100 29v135l70 20v-160h155v-55h-155v-311c0 -61 33 -86 96 -86c13 0 26 1 39 2zM256 750h78l-48 -200h-46z" />
    <glyph glyph-name="tcommaaccent" unicode="&#x163;" horiz-adv-x="375" 
d="M325 50v-56c-12 -3 -32 -4 -45 -4c-83 0 -160 38 -160 136v319h-100v31l100 29v135l70 20v-160h155v-55h-155v-311c0 -61 33 -86 96 -86c13 0 26 1 39 2zM171 -50h80l-56 -200h-50z" />
    <glyph glyph-name="tcommaaccent" unicode="&#x21b;" horiz-adv-x="375" 
d="M325 50v-56c-12 -3 -32 -4 -45 -4c-83 0 -160 38 -160 136v319h-100v31l100 29v135l70 20v-160h155v-55h-155v-311c0 -61 33 -86 96 -86c13 0 26 1 39 2zM171 -50h80l-56 -200h-50z" />
    <glyph glyph-name="tcedilla" unicode="&#xe045;" horiz-adv-x="375" 
d="M325 50v-56c-12 -3 -32 -4 -45 -4c-83 0 -160 38 -160 136v319h-100v31l100 29v135l70 20v-160h155v-55h-155v-311c0 -61 33 -86 96 -86c13 0 26 1 39 2zM160 -95l5 45c94 -10 145 -51 145 -111c0 -54 -41 -89 -111 -89c-54 0 -83 12 -94 18v46s36 -13 77 -13
s67 11 67 36c0 43 -42 62 -89 68z" />
    <glyph glyph-name="tdotbelow" unicode="&#x1e6d;" horiz-adv-x="375" 
d="M325 50v-56c-12 -3 -32 -4 -45 -4c-83 0 -160 38 -160 136v319h-100v31l100 29v135l70 20v-160h155v-55h-155v-311c0 -61 33 -86 96 -86c13 0 26 1 39 2zM163 -150c0 28 22 50 50 50s50 -22 50 -50s-22 -50 -50 -50s-50 22 -50 50z" />
    <glyph glyph-name="tbar" unicode="&#x167;" horiz-adv-x="377" 
d="M325 50v-56c-12 -3 -32 -4 -45 -4c-83 0 -160 38 -160 136v124h-100v55h100v140h-100v31l100 29v135l70 20v-160h155v-55h-155v-140h125v-55h-125v-116c0 -61 33 -86 96 -86c13 0 26 1 39 2z" />
    <glyph glyph-name="uacute" unicode="&#xfa;" horiz-adv-x="500" 
d="M130 500v-363c0 -65 38 -85 100 -85c65 0 98 11 135 32v416h70v-500h-39l-15 42c-47 -35 -98 -52 -151 -52c-119 0 -170 54 -170 150v360h70zM272 550h-50l50 200h80z" />
    <glyph glyph-name="ugrave" unicode="&#xf9;" horiz-adv-x="500" 
d="M130 500v-363c0 -65 38 -85 100 -85c65 0 98 11 135 32v416h70v-500h-39l-15 42c-47 -35 -98 -52 -151 -52c-119 0 -170 54 -170 150v360h70zM272 550h-50l-80 200h80z" />
    <glyph glyph-name="ucircumflex" unicode="&#xfb;" horiz-adv-x="500" 
d="M130 500v-363c0 -65 38 -85 100 -85c65 0 98 11 135 32v416h70v-500h-39l-15 42c-47 -35 -98 -52 -151 -52c-119 0 -170 54 -170 150v360h70zM432 550h-55l-130 141l-130 -141h-55l145 200h80z" />
    <glyph glyph-name="udieresis" unicode="&#xfc;" horiz-adv-x="500" 
d="M130 500v-363c0 -65 38 -85 100 -85c65 0 98 11 135 32v416h70v-500h-39l-15 42c-47 -35 -98 -52 -151 -52c-119 0 -170 54 -170 150v360h70zM102 650c0 28 22 50 50 50s50 -22 50 -50s-22 -50 -50 -50s-50 22 -50 50zM292 650c0 28 22 50 50 50s50 -22 50 -50
s-22 -50 -50 -50s-50 22 -50 50z" />
    <glyph glyph-name="utilde" unicode="&#x169;" horiz-adv-x="500" 
d="M130 500v-363c0 -65 38 -85 100 -85c65 0 98 11 135 32v416h70v-500h-39l-15 42c-47 -35 -98 -52 -151 -52c-119 0 -170 54 -170 150v360h70zM323 644c45 0 49 31 49 51h56c5 -70 -37 -110 -109 -110c-82 0 -93 71 -148 71c-45 0 -49 -31 -49 -51h-56
c-5 70 37 110 109 110c82 0 93 -71 148 -71z" />
    <glyph glyph-name="uring" unicode="&#x16f;" horiz-adv-x="500" 
d="M130 500v-363c0 -65 38 -85 100 -85c65 0 98 11 135 32v416h70v-500h-39l-15 42c-47 -35 -98 -52 -151 -52c-119 0 -170 54 -170 150v360h70zM247 702c-31 0 -54 -15 -54 -52s23 -52 54 -52s54 15 54 52s-23 52 -54 52zM247 549c-60 0 -104 32 -104 101s44 101 104 101
s104 -32 104 -101s-44 -101 -104 -101z" />
    <glyph glyph-name="ucaron" unicode="&#x1d4;" horiz-adv-x="500" 
d="M130 500v-363c0 -65 38 -85 100 -85c65 0 98 11 135 32v416h70v-500h-39l-15 42c-47 -35 -98 -52 -151 -52c-119 0 -170 54 -170 150v360h70zM377 750h55l-145 -200h-80l-145 200h55l130 -141z" />
    <glyph glyph-name="umacron" unicode="&#x16b;" horiz-adv-x="500" 
d="M130 500v-363c0 -65 38 -85 100 -85c65 0 98 11 135 32v416h70v-500h-39l-15 42c-47 -35 -98 -52 -151 -52c-119 0 -170 54 -170 150v360h70zM110 620v60h274v-60h-274z" />
    <glyph glyph-name="ubreve" unicode="&#x16d;" horiz-adv-x="500" 
d="M130 500v-363c0 -65 38 -85 100 -85c65 0 98 11 135 32v416h70v-500h-39l-15 42c-47 -35 -98 -52 -151 -52c-119 0 -170 54 -170 150v360h70zM247 550c-115 0 -172 66 -175 200h51c2 -91 27 -140 124 -140s122 49 124 140h51c-3 -134 -60 -200 -175 -200z" />
    <glyph glyph-name="uinvertedbreve" unicode="&#x217;" horiz-adv-x="500" 
d="M130 500v-363c0 -65 38 -85 100 -85c65 0 98 11 135 32v416h70v-500h-39l-15 42c-47 -35 -98 -52 -151 -52c-119 0 -170 54 -170 150v360h70zM247 750c115 0 172 -66 175 -200h-51c-2 91 -27 140 -124 140s-122 -49 -124 -140h-51c3 134 60 200 175 200z" />
    <glyph glyph-name="uhungarumlaut" unicode="&#x171;" horiz-adv-x="500" 
d="M130 500v-363c0 -65 38 -85 100 -85c65 0 98 11 135 32v416h70v-500h-39l-15 42c-47 -35 -98 -52 -151 -52c-119 0 -170 54 -170 150v360h70zM332 550h-50l50 200h80zM212 550h-50l50 200h80z" />
    <glyph glyph-name="udoublegrave" unicode="&#xe046;" horiz-adv-x="500" 
d="M130 500v-363c0 -65 38 -85 100 -85c65 0 98 11 135 32v416h70v-500h-39l-15 42c-47 -35 -98 -52 -151 -52c-119 0 -170 54 -170 150v360h70zM212 550h-50l-80 200h80zM332 550h-50l-80 200h80z" />
    <glyph glyph-name="uogonek" unicode="&#x173;" horiz-adv-x="500" 
d="M130 500v-363c0 -65 38 -85 100 -85c65 0 98 11 135 32v416h70v-500c-65 -36 -106 -90 -106 -142c0 -31 15 -57 54 -57c22 0 43 4 57 8v-48c-17 -6 -42 -11 -71 -11c-60 0 -101 36 -101 95c0 68 42 133 120 176l-7 21c-47 -35 -98 -52 -151 -52c-119 0 -170 54 -170 150
v360h70z" />
    <glyph glyph-name="udotbelow" unicode="&#x1ee5;" horiz-adv-x="500" 
d="M130 500v-363c0 -65 38 -85 100 -85c65 0 98 11 135 32v416h70v-500h-39l-15 42c-47 -35 -98 -52 -151 -52c-119 0 -170 54 -170 150v360h70zM197 -150c0 28 22 50 50 50s50 -22 50 -50s-22 -50 -50 -50s-50 22 -50 50z" />
    <glyph glyph-name="umacronbelow" unicode="&#xe047;" horiz-adv-x="500" 
d="M130 500v-363c0 -65 38 -85 100 -85c65 0 98 11 135 32v416h70v-500h-39l-15 42c-47 -35 -98 -52 -151 -52c-119 0 -170 54 -170 150v360h70zM110 -180v60h274v-60h-274z" />
    <glyph glyph-name="wacute" unicode="&#x1e83;" horiz-adv-x="700" 
d="M605 500h75l-141 -510h-52l-137 435l-137 -435h-52l-141 510h75l94 -392l124 392h74l124 -392zM375 550h-50l50 200h80z" />
    <glyph glyph-name="wgrave" unicode="&#x1e81;" horiz-adv-x="700" 
d="M605 500h75l-141 -510h-52l-137 435l-137 -435h-52l-141 510h75l94 -392l124 392h74l124 -392zM375 550h-50l-80 200h80z" />
    <glyph glyph-name="wcircumflex" unicode="&#x175;" horiz-adv-x="700" 
d="M605 500h75l-141 -510h-52l-137 435l-137 -435h-52l-141 510h75l94 -392l124 392h74l124 -392zM535 550h-55l-130 141l-130 -141h-55l145 200h80z" />
    <glyph glyph-name="wdieresis" unicode="&#x1e85;" horiz-adv-x="700" 
d="M605 500h75l-141 -510h-52l-137 435l-137 -435h-52l-141 510h75l94 -392l124 392h74l124 -392zM205 650c0 28 22 50 50 50s50 -22 50 -50s-22 -50 -50 -50s-50 22 -50 50zM395 650c0 28 22 50 50 50s50 -22 50 -50s-22 -50 -50 -50s-50 22 -50 50z" />
    <glyph glyph-name="yacute" unicode="&#xfd;" horiz-adv-x="480" 
d="M20 500h80l140 -410l140 410h80l-288 -750h-75l113 263zM265 550h-50l50 200h80z" />
    <glyph glyph-name="ygrave" unicode="&#x1ef3;" horiz-adv-x="480" 
d="M20 500h80l140 -410l140 410h80l-288 -750h-75l113 263zM265 550h-50l-80 200h80z" />
    <glyph glyph-name="ycircumflex" unicode="&#x177;" horiz-adv-x="480" 
d="M20 500h80l140 -410l140 410h80l-288 -750h-75l113 263zM425 550h-55l-130 141l-130 -141h-55l145 200h80z" />
    <glyph glyph-name="ydieresis" unicode="&#xff;" horiz-adv-x="480" 
d="M20 500h80l140 -410l140 410h80l-288 -750h-75l113 263zM95 650c0 28 22 50 50 50s50 -22 50 -50s-22 -50 -50 -50s-50 22 -50 50zM285 650c0 28 22 50 50 50s50 -22 50 -50s-22 -50 -50 -50s-50 22 -50 50z" />
    <glyph glyph-name="ytilde" unicode="&#x1ef9;" horiz-adv-x="480" 
d="M20 500h80l140 -410l140 410h80l-288 -750h-75l113 263zM316 644c45 0 49 31 49 51h56c5 -70 -37 -110 -109 -110c-82 0 -93 71 -148 71c-45 0 -49 -31 -49 -51h-56c-5 70 37 110 109 110c82 0 93 -71 148 -71z" />
    <glyph glyph-name="ymacron" unicode="&#xe048;" horiz-adv-x="480" 
d="M20 500h80l140 -410l140 410h80l-288 -750h-75l113 263zM103 620v60h274v-60h-274z" />
    <glyph glyph-name="ij" unicode="&#x133;" horiz-adv-x="420" 
d="M191 -10c-72 0 -110 30 -110 110v400h68v-408c0 -35 11 -45 42 -45v-57zM143 -260v59c59 8 128 37 128 114v587h68v-596c0 -104 -105 -159 -196 -164zM65 650c0 28 22 50 50 50s50 -22 50 -50s-22 -50 -50 -50s-50 22 -50 50zM255 650c0 28 22 50 50 50s50 -22 50 -50
s-22 -50 -50 -50s-50 22 -50 50z" />
    <glyph glyph-name="zacute" unicode="&#x17a;" horiz-adv-x="450" 
d="M420 0h-390v45l293 396h-278v59h365v-45l-293 -396h303v-59zM250 550h-50l50 200h80z" />
    <glyph glyph-name="zcaron" unicode="&#x17e;" horiz-adv-x="450" 
d="M420 0h-390v45l293 396h-278v59h365v-45l-293 -396h303v-59zM355 750h55l-145 -200h-80l-145 200h55l130 -141z" />
    <glyph glyph-name="zdotaccent" unicode="&#x17c;" horiz-adv-x="450" 
d="M420 0h-390v45l293 396h-278v59h365v-45l-293 -396h303v-59zM175 650c0 28 22 50 50 50s50 -22 50 -50s-22 -50 -50 -50s-50 22 -50 50z" />
    <glyph glyph-name="eng" unicode="&#x14b;" horiz-adv-x="500" 
d="M270 448c-65 0 -98 -11 -135 -32v-416h-70v500h39l15 -42c47 35 98 52 151 52c119 0 170 -54 170 -150v-456c0 -104 -107 -159 -198 -164v59c59 8 128 37 128 114v450c0 65 -38 85 -100 85z" />
    <glyph glyph-name="eth" unicode="&#xf0;" horiz-adv-x="550" 
d="M425 750v-59l-77 -39c72 -78 142 -201 147 -402c0 -153 -48 -260 -220 -260c-171 0 -220 107 -220 260s49 260 220 260c41 0 76 -10 106 -26c-22 53 -56 99 -93 137l-153 -78v59l112 57c-47 40 -97 70 -135 91h114c21 -13 51 -32 82 -60zM425 250c0 113 -20 198 -150 198
c-132 0 -150 -85 -150 -198s18 -198 150 -198c130 0 150 85 150 198z" />
    <glyph glyph-name="thorn" unicode="&#xfe;" horiz-adv-x="535" 
d="M480 250c0 -144 -44 -260 -205 -260c-46 0 -97 13 -140 41v-281h-70v1000h70v-281c43 28 94 41 140 41c161 0 205 -116 205 -260zM275 448c-65 0 -101 -11 -140 -32v-332c39 -21 75 -32 140 -32c120 0 135 99 135 198s-15 198 -135 198z" />
    <glyph glyph-name="ezh" unicode="&#x292;" horiz-adv-x="500" 
d="M179 133h-68v49l239 259h-315v59h405v-49l-234 -253c140 0 265 -29 265 -215c0 -216 -162 -243 -276 -243c-73 0 -130 15 -165 32v62c37 -14 89 -32 166 -32c84 0 203 24 203 181c0 147 -102 150 -220 150z" />
    <glyph glyph-name="ezhcaron" unicode="&#x1ef;" horiz-adv-x="500" 
d="M179 133h-68v49l239 259h-315v59h405v-49l-234 -253c140 0 265 -29 265 -215c0 -216 -162 -243 -276 -243c-73 0 -130 15 -165 32v62c37 -14 89 -32 166 -32c84 0 203 24 203 181c0 147 -102 150 -220 150zM380 750h55l-145 -200h-80l-145 200h55l130 -141z" />
    <glyph glyph-name="schwa" unicode="&#x259;" horiz-adv-x="510" 
d="M455 250c0 -144 -41 -260 -210 -260c-170 0 -190 116 -190 260v32h330c-4 87 -27 166 -140 166c-72 0 -116 -7 -165 -28v60c56 25 116 30 165 30c169 0 210 -116 210 -260zM245 52c116 0 137 83 140 173h-260c0 -89 5 -173 120 -173z" />
    <glyph glyph-name="ordfeminine" unicode="&#xaa;" horiz-adv-x="370" 
d="M261 613v21c0 47 -19 70 -79 70c-43 0 -81 -9 -116 -21v55c37 15 83 22 116 22c115 0 143 -51 143 -128v-257h-42l-7 24c-38 -22 -77 -34 -109 -34c-99 0 -137 46 -137 124c0 69 44 114 139 119zM261 564l-93 -8c-47 -4 -73 -29 -73 -67c0 -34 17 -68 74 -68
c30 0 66 12 92 26v117z" />
    <glyph glyph-name="ordmasculine" unicode="&#xba;" horiz-adv-x="419" 
d="M35 563c0 128 50 197 171 197s178 -69 178 -197s-57 -198 -178 -198s-171 70 -171 198zM97 563c0 -99 33 -140 109 -140c78 0 117 43 117 140s-39 139 -117 139c-76 0 -109 -40 -109 -139z" />
    <glyph glyph-name="cordinal" unicode="&#xe049;" horiz-adv-x="336" 
d="M211 423c45 0 72 5 100 12v-59c-34 -8 -66 -11 -100 -11c-121 0 -176 70 -176 198s55 197 176 197c34 0 66 -3 100 -11v-59c-28 7 -55 12 -100 12c-76 0 -114 -40 -114 -139s38 -140 114 -140z" />
    <glyph glyph-name="a.school" unicode="&#xe04a;" horiz-adv-x="535" 
d="M470 500v-500h-39l-15 41c-52 -33 -102 -51 -156 -51c-161 0 -205 116 -205 260s44 260 205 260c53 0 109 -17 156 -52l15 42h39zM260 52c65 0 101 11 140 32v332c-39 21 -75 32 -140 32c-120 0 -135 -99 -135 -198s15 -198 135 -198z" />
    <glyph glyph-name="aacute.school" unicode="&#xe04b;" horiz-adv-x="535" 
d="M470 500v-500h-39l-15 41c-52 -33 -102 -51 -156 -51c-161 0 -205 116 -205 260s44 260 205 260c53 0 109 -17 156 -52l15 42h39zM260 52c65 0 101 11 140 32v332c-39 21 -75 32 -140 32c-120 0 -135 -99 -135 -198s15 -198 135 -198zM290 550h-50l50 200h80z" />
    <glyph glyph-name="agrave.school" unicode="&#xe04c;" horiz-adv-x="535" 
d="M470 500v-500h-39l-15 41c-52 -33 -102 -51 -156 -51c-161 0 -205 116 -205 260s44 260 205 260c53 0 109 -17 156 -52l15 42h39zM260 52c65 0 101 11 140 32v332c-39 21 -75 32 -140 32c-120 0 -135 -99 -135 -198s15 -198 135 -198zM290 550h-50l-80 200h80z" />
    <glyph glyph-name="acircumflex.school" unicode="&#xe04d;" horiz-adv-x="535" 
d="M470 500v-500h-39l-15 41c-52 -33 -102 -51 -156 -51c-161 0 -205 116 -205 260s44 260 205 260c53 0 109 -17 156 -52l15 42h39zM260 52c65 0 101 11 140 32v332c-39 21 -75 32 -140 32c-120 0 -135 -99 -135 -198s15 -198 135 -198zM450 550h-55l-130 141l-130 -141
h-55l145 200h80z" />
    <glyph glyph-name="adieresis.school" unicode="&#xe04e;" horiz-adv-x="535" 
d="M470 500v-500h-39l-15 41c-52 -33 -102 -51 -156 -51c-161 0 -205 116 -205 260s44 260 205 260c53 0 109 -17 156 -52l15 42h39zM260 52c65 0 101 11 140 32v332c-39 21 -75 32 -140 32c-120 0 -135 -99 -135 -198s15 -198 135 -198zM120 650c0 28 22 50 50 50
s50 -22 50 -50s-22 -50 -50 -50s-50 22 -50 50zM310 650c0 28 22 50 50 50s50 -22 50 -50s-22 -50 -50 -50s-50 22 -50 50z" />
    <glyph glyph-name="atilde.school" unicode="&#xe04f;" horiz-adv-x="535" 
d="M470 500v-500h-39l-15 41c-52 -33 -102 -51 -156 -51c-161 0 -205 116 -205 260s44 260 205 260c53 0 109 -17 156 -52l15 42h39zM260 52c65 0 101 11 140 32v332c-39 21 -75 32 -140 32c-120 0 -135 -99 -135 -198s15 -198 135 -198zM341 644c45 0 49 31 49 51h56
c5 -70 -37 -110 -109 -110c-82 0 -93 71 -148 71c-45 0 -49 -31 -49 -51h-56c-5 70 37 110 109 110c82 0 93 -71 148 -71z" />
    <glyph glyph-name="aring.school" unicode="&#xe050;" horiz-adv-x="535" 
d="M470 500v-500h-39l-15 41c-52 -33 -102 -51 -156 -51c-161 0 -205 116 -205 260s44 260 205 260c53 0 109 -17 156 -52l15 42h39zM260 52c65 0 101 11 140 32v332c-39 21 -75 32 -140 32c-120 0 -135 -99 -135 -198s15 -198 135 -198zM265 702c-31 0 -54 -15 -54 -52
s23 -52 54 -52s54 15 54 52s-23 52 -54 52zM265 549c-60 0 -104 32 -104 101s44 101 104 101s104 -32 104 -101s-44 -101 -104 -101z" />
    <glyph glyph-name="acaron.school" unicode="&#xe051;" horiz-adv-x="535" 
d="M470 500v-500h-39l-15 41c-52 -33 -102 -51 -156 -51c-161 0 -205 116 -205 260s44 260 205 260c53 0 109 -17 156 -52l15 42h39zM260 52c65 0 101 11 140 32v332c-39 21 -75 32 -140 32c-120 0 -135 -99 -135 -198s15 -198 135 -198zM395 750h55l-145 -200h-80l-145 200
h55l130 -141z" />
    <glyph glyph-name="amacron.school" unicode="&#xe052;" horiz-adv-x="535" 
d="M470 500v-500h-39l-15 41c-52 -33 -102 -51 -156 -51c-161 0 -205 116 -205 260s44 260 205 260c53 0 109 -17 156 -52l15 42h39zM260 52c65 0 101 11 140 32v332c-39 21 -75 32 -140 32c-120 0 -135 -99 -135 -198s15 -198 135 -198zM128 620v60h274v-60h-274z" />
    <glyph glyph-name="abreve.school" unicode="&#xe053;" horiz-adv-x="535" 
d="M470 500v-500h-39l-15 41c-52 -33 -102 -51 -156 -51c-161 0 -205 116 -205 260s44 260 205 260c53 0 109 -17 156 -52l15 42h39zM260 52c65 0 101 11 140 32v332c-39 21 -75 32 -140 32c-120 0 -135 -99 -135 -198s15 -198 135 -198zM265 550c-115 0 -172 66 -175 200
h51c2 -91 27 -140 124 -140s122 49 124 140h51c-3 -134 -60 -200 -175 -200z" />
    <glyph glyph-name="ainvertedbreve.school" unicode="&#xe054;" horiz-adv-x="535" 
d="M470 500v-500h-39l-15 41c-52 -33 -102 -51 -156 -51c-161 0 -205 116 -205 260s44 260 205 260c53 0 109 -17 156 -52l15 42h39zM260 52c65 0 101 11 140 32v332c-39 21 -75 32 -140 32c-120 0 -135 -99 -135 -198s15 -198 135 -198zM265 750c115 0 172 -66 175 -200
h-51c-2 91 -27 140 -124 140s-122 -49 -124 -140h-51c3 134 60 200 175 200z" />
    <glyph glyph-name="adoublegrave.school" unicode="&#xe055;" horiz-adv-x="535" 
d="M470 500v-500h-39l-15 41c-52 -33 -102 -51 -156 -51c-161 0 -205 116 -205 260s44 260 205 260c53 0 109 -17 156 -52l15 42h39zM260 52c65 0 101 11 140 32v332c-39 21 -75 32 -140 32c-120 0 -135 -99 -135 -198s15 -198 135 -198zM230 550h-50l-80 200h80zM350 550
h-50l-80 200h80z" />
    <glyph glyph-name="adotabove.school" unicode="&#xe056;" horiz-adv-x="535" 
d="M470 500v-500h-39l-15 41c-52 -33 -102 -51 -156 -51c-161 0 -205 116 -205 260s44 260 205 260c53 0 109 -17 156 -52l15 42h39zM260 52c65 0 101 11 140 32v332c-39 21 -75 32 -140 32c-120 0 -135 -99 -135 -198s15 -198 135 -198zM215 650c0 28 22 50 50 50
s50 -22 50 -50s-22 -50 -50 -50s-50 22 -50 50z" />
    <glyph glyph-name="aringacute.school" unicode="&#xe057;" horiz-adv-x="535" 
d="M470 500v-500h-39l-15 41c-52 -33 -102 -51 -156 -51c-161 0 -205 116 -205 260s44 260 205 260c53 0 109 -17 156 -52l15 42h39zM260 52c65 0 101 11 140 32v332c-39 21 -75 32 -140 32c-120 0 -135 -99 -135 -198s15 -198 135 -198zM265 549c-60 0 -104 32 -104 101
c0 15 2 31 7 43l57 145h70l-45 -87h15c60 0 104 -32 104 -101s-44 -101 -104 -101zM265 702c-31 0 -54 -15 -54 -52s23 -52 54 -52s54 15 54 52s-23 52 -54 52z" />
    <glyph glyph-name="adieresismacron.school" unicode="&#xe058;" horiz-adv-x="535" 
d="M470 500v-500h-39l-15 41c-52 -33 -102 -51 -156 -51c-161 0 -205 116 -205 260s44 260 205 260c53 0 109 -17 156 -52l15 42h39zM260 52c65 0 101 11 140 32v332c-39 21 -75 32 -140 32c-120 0 -135 -99 -135 -198s15 -198 135 -198zM128 710v60h274v-60h-274zM120 615
c0 28 22 50 50 50s50 -22 50 -50s-22 -50 -50 -50s-50 22 -50 50zM310 615c0 28 22 50 50 50s50 -22 50 -50s-22 -50 -50 -50s-50 22 -50 50z" />
    <glyph glyph-name="aogonek.school" unicode="&#xe059;" horiz-adv-x="535" 
d="M470 500v-500c-65 -36 -106 -90 -106 -142c0 -31 15 -57 54 -57c22 0 43 4 57 8v-48c-17 -6 -42 -11 -71 -11c-60 0 -101 36 -101 95c0 68 42 133 120 176l-7 20c-52 -33 -102 -51 -156 -51c-161 0 -205 116 -205 260s44 260 205 260c53 0 109 -17 156 -52l15 42h39z
M260 52c65 0 101 11 140 32v332c-39 21 -75 32 -140 32c-120 0 -135 -99 -135 -198s15 -198 135 -198z" />
    <glyph glyph-name="g.school" unicode="&#xe05a;" horiz-adv-x="535" 
d="M260 -10c-161 0 -205 116 -205 260s44 260 205 260c53 0 109 -17 156 -52l15 42h39v-540c0 -124 -25 -221 -205 -221c-93 0 -150 16 -195 40v69c53 -28 116 -50 195 -50c134 0 134 92 135 162v71c-47 -27 -93 -41 -140 -41zM260 52c65 0 101 11 140 32v332
c-39 21 -75 32 -140 32c-120 0 -135 -99 -135 -198s15 -198 135 -198z" />
    <glyph glyph-name="gacute.school" unicode="&#xe05b;" horiz-adv-x="535" 
d="M260 -10c-161 0 -205 116 -205 260s44 260 205 260c53 0 109 -17 156 -52l15 42h39v-540c0 -124 -25 -221 -205 -221c-93 0 -150 16 -195 40v69c53 -28 116 -50 195 -50c134 0 134 92 135 162v71c-47 -27 -93 -41 -140 -41zM260 52c65 0 101 11 140 32v332
c-39 21 -75 32 -140 32c-120 0 -135 -99 -135 -198s15 -198 135 -198zM285 550h-50l50 200h80z" />
    <glyph glyph-name="gcircumflex.school" unicode="&#xe05c;" horiz-adv-x="535" 
d="M260 -10c-161 0 -205 116 -205 260s44 260 205 260c53 0 109 -17 156 -52l15 42h39v-540c0 -124 -25 -221 -205 -221c-93 0 -150 16 -195 40v69c53 -28 116 -50 195 -50c134 0 134 92 135 162v71c-47 -27 -93 -41 -140 -41zM260 52c65 0 101 11 140 32v332
c-39 21 -75 32 -140 32c-120 0 -135 -99 -135 -198s15 -198 135 -198zM445 550h-55l-130 141l-130 -141h-55l145 200h80z" />
    <glyph glyph-name="gtilde.school" unicode="&#xe05d;" horiz-adv-x="535" 
d="M260 -10c-161 0 -205 116 -205 260s44 260 205 260c53 0 109 -17 156 -52l15 42h39v-540c0 -124 -25 -221 -205 -221c-93 0 -150 16 -195 40v69c53 -28 116 -50 195 -50c134 0 134 92 135 162v71c-47 -27 -93 -41 -140 -41zM260 52c65 0 101 11 140 32v332
c-39 21 -75 32 -140 32c-120 0 -135 -99 -135 -198s15 -198 135 -198zM336 644c45 0 49 31 49 51h56c5 -70 -37 -110 -109 -110c-82 0 -93 71 -148 71c-45 0 -49 -31 -49 -51h-56c-5 70 37 110 109 110c82 0 93 -71 148 -71z" />
    <glyph glyph-name="gcaron.school" unicode="&#xe05e;" horiz-adv-x="535" 
d="M260 -10c-161 0 -205 116 -205 260s44 260 205 260c53 0 109 -17 156 -52l15 42h39v-540c0 -124 -25 -221 -205 -221c-93 0 -150 16 -195 40v69c53 -28 116 -50 195 -50c134 0 134 92 135 162v71c-47 -27 -93 -41 -140 -41zM260 52c65 0 101 11 140 32v332
c-39 21 -75 32 -140 32c-120 0 -135 -99 -135 -198s15 -198 135 -198zM390 750h55l-145 -200h-80l-145 200h55l130 -141z" />
    <glyph glyph-name="gbreve.school" unicode="&#xe05f;" horiz-adv-x="535" 
d="M260 -10c-161 0 -205 116 -205 260s44 260 205 260c53 0 109 -17 156 -52l15 42h39v-540c0 -124 -25 -221 -205 -221c-93 0 -150 16 -195 40v69c53 -28 116 -50 195 -50c134 0 134 92 135 162v71c-47 -27 -93 -41 -140 -41zM260 52c65 0 101 11 140 32v332
c-39 21 -75 32 -140 32c-120 0 -135 -99 -135 -198s15 -198 135 -198zM260 550c-115 0 -172 66 -175 200h51c2 -91 27 -140 124 -140s122 49 124 140h51c-3 -134 -60 -200 -175 -200z" />
    <glyph glyph-name="gdotaccent.school" unicode="&#xe060;" horiz-adv-x="535" 
d="M260 -10c-161 0 -205 116 -205 260s44 260 205 260c53 0 109 -17 156 -52l15 42h39v-540c0 -124 -25 -221 -205 -221c-93 0 -150 16 -195 40v69c53 -28 116 -50 195 -50c134 0 134 92 135 162v71c-47 -27 -93 -41 -140 -41zM260 52c65 0 101 11 140 32v332
c-39 21 -75 32 -140 32c-120 0 -135 -99 -135 -198s15 -198 135 -198zM210 650c0 28 22 50 50 50s50 -22 50 -50s-22 -50 -50 -50s-50 22 -50 50z" />
    <glyph glyph-name="gcommaaccent.school" unicode="&#xe061;" horiz-adv-x="535" 
d="M260 -10c-161 0 -205 116 -205 260s44 260 205 260c53 0 109 -17 156 -52l15 42h39v-540c0 -124 -25 -221 -205 -221c-93 0 -150 16 -195 40v69c53 -28 116 -50 195 -50c134 0 134 92 135 162v71c-47 -27 -93 -41 -140 -41zM260 52c65 0 101 11 140 32v332
c-39 21 -75 32 -140 32c-120 0 -135 -99 -135 -198s15 -198 135 -198zM299 550h-80l56 200h50z" />
    <glyph glyph-name="gcommaturnedabove.school" unicode="&#xe062;" horiz-adv-x="535" 
d="M260 -10c-161 0 -205 116 -205 260s44 260 205 260c53 0 109 -17 156 -52l15 42h39v-540c0 -124 -25 -221 -205 -221c-93 0 -150 16 -195 40v69c53 -28 116 -50 195 -50c134 0 134 92 135 162v71c-47 -27 -93 -41 -140 -41zM260 52c65 0 101 11 140 32v332
c-39 21 -75 32 -140 32c-120 0 -135 -99 -135 -198s15 -198 135 -198zM299 550h-80l56 200h50z" />
    <glyph glyph-name="gstroke.school" unicode="&#xe063;" horiz-adv-x="535" 
d="M465 -116c-14 -85 -59 -145 -200 -145c-93 0 -150 16 -195 40v69c53 -28 116 -50 195 -50c87 0 117 40 128 86h-133v51h139c1 9 1 17 1 25v71c-47 -27 -93 -41 -140 -41c-161 0 -205 116 -205 260s44 260 205 260c53 0 109 -17 156 -52l15 42h39v-540c0 -8 0 -17 -1 -25
h90v-51h-94zM260 52c65 0 101 11 140 32v332c-39 21 -75 32 -140 32c-120 0 -135 -99 -135 -198s15 -198 135 -198z" />
    <glyph glyph-name="y.school" unicode="&#xe064;" horiz-adv-x="500" 
d="M230 -261c-48 0 -106 8 -150 27v60c39 -13 83 -28 150 -28c134 0 134 92 135 162v71c-43 -28 -88 -41 -135 -41c-119 0 -170 54 -170 150v360h70v-363c0 -65 38 -85 100 -85c65 0 98 11 135 32v416h70v-540c0 -124 -25 -221 -205 -221z" />
    <glyph glyph-name="yacute.school" unicode="&#xe065;" horiz-adv-x="500" 
d="M230 -261c-48 0 -106 8 -150 27v60c39 -13 83 -28 150 -28c134 0 134 92 135 162v71c-43 -28 -88 -41 -135 -41c-119 0 -170 54 -170 150v360h70v-363c0 -65 38 -85 100 -85c65 0 98 11 135 32v416h70v-540c0 -124 -25 -221 -205 -221zM272 550h-50l50 200h80z" />
    <glyph glyph-name="ygrave.school" unicode="&#xe066;" horiz-adv-x="500" 
d="M230 -261c-48 0 -106 8 -150 27v60c39 -13 83 -28 150 -28c134 0 134 92 135 162v71c-43 -28 -88 -41 -135 -41c-119 0 -170 54 -170 150v360h70v-363c0 -65 38 -85 100 -85c65 0 98 11 135 32v416h70v-540c0 -124 -25 -221 -205 -221zM272 550h-50l-80 200h80z" />
    <glyph glyph-name="ycircumflex.school" unicode="&#xe067;" horiz-adv-x="500" 
d="M230 -261c-48 0 -106 8 -150 27v60c39 -13 83 -28 150 -28c134 0 134 92 135 162v71c-43 -28 -88 -41 -135 -41c-119 0 -170 54 -170 150v360h70v-363c0 -65 38 -85 100 -85c65 0 98 11 135 32v416h70v-540c0 -124 -25 -221 -205 -221zM432 550h-55l-130 141l-130 -141
h-55l145 200h80z" />
    <glyph glyph-name="ydieresis.school" unicode="&#xe068;" horiz-adv-x="500" 
d="M230 -261c-48 0 -106 8 -150 27v60c39 -13 83 -28 150 -28c134 0 134 92 135 162v71c-43 -28 -88 -41 -135 -41c-119 0 -170 54 -170 150v360h70v-363c0 -65 38 -85 100 -85c65 0 98 11 135 32v416h70v-540c0 -124 -25 -221 -205 -221zM102 650c0 28 22 50 50 50
s50 -22 50 -50s-22 -50 -50 -50s-50 22 -50 50zM292 650c0 28 22 50 50 50s50 -22 50 -50s-22 -50 -50 -50s-50 22 -50 50z" />
    <glyph glyph-name="ytilde.school" unicode="&#xe069;" horiz-adv-x="500" 
d="M230 -261c-48 0 -106 8 -150 27v60c39 -13 83 -28 150 -28c134 0 134 92 135 162v71c-43 -28 -88 -41 -135 -41c-119 0 -170 54 -170 150v360h70v-363c0 -65 38 -85 100 -85c65 0 98 11 135 32v416h70v-540c0 -124 -25 -221 -205 -221zM323 644c45 0 49 31 49 51h56
c5 -70 -37 -110 -109 -110c-82 0 -93 71 -148 71c-45 0 -49 -31 -49 -51h-56c-5 70 37 110 109 110c82 0 93 -71 148 -71z" />
    <glyph glyph-name="ymacron.school" unicode="&#xe06a;" horiz-adv-x="500" 
d="M230 -261c-48 0 -106 8 -150 27v60c39 -13 83 -28 150 -28c134 0 134 92 135 162v71c-43 -28 -88 -41 -135 -41c-119 0 -170 54 -170 150v360h70v-363c0 -65 38 -85 100 -85c65 0 98 11 135 32v416h70v-540c0 -124 -25 -221 -205 -221zM110 620v60h274v-60h-274z" />
    <glyph glyph-name="ordfeminine.school" unicode="&#xe06b;" horiz-adv-x="411" 
d="M35 563c0 128 53 198 174 198c30 0 76 -11 108 -34l7 24h42v-376h-42l-7 24c-32 -23 -78 -34 -108 -34c-121 0 -174 70 -174 198zM302 679c-22 14 -56 26 -89 26c-76 0 -115 -43 -115 -142s39 -142 115 -142c33 0 67 12 89 26v232z" />
    <glyph glyph-name="a.small" unicode="&#xe06c;" horiz-adv-x="530" 
d="M500 0h-73l-46 120h-233l-45 -120h-73l210 510h50zM265 427l-97 -255h193z" />
    <glyph glyph-name="b.small" unicode="&#xe06d;" horiz-adv-x="520" 
d="M75 0v500h219c116 0 157 -46 157 -130c0 -39 -21 -77 -51 -93c47 -19 75 -72 75 -126c0 -86 -40 -151 -164 -151h-236zM404 151c0 49 -15 90 -98 90h-165v-180h165c83 0 98 41 98 90zM141 302h167c65 0 76 27 76 68s-12 69 -82 69h-161v-137z" />
    <glyph glyph-name="c.small" unicode="&#xe06e;" horiz-adv-x="505" 
d="M60 250c0 144 67 260 236 260c49 0 105 -6 149 -25v-60c-39 13 -79 23 -150 23c-126 0 -165 -99 -165 -198s39 -198 165 -198c71 0 111 10 150 23v-60c-44 -19 -100 -25 -149 -25c-169 0 -236 116 -236 260z" />
    <glyph glyph-name="d.small" unicode="&#xe06f;" horiz-adv-x="545" 
d="M243 0h-168v500h168c172 0 242 -97 242 -250s-70 -250 -242 -250zM141 61h101c133 0 173 76 173 189s-40 189 -173 189h-101v-378z" />
    <glyph glyph-name="e.small" unicode="&#xe070;" horiz-adv-x="500" 
d="M405 287v-61h-264v-165h299v-61h-365v500h365v-61h-299v-152h264z" />
    <glyph glyph-name="f.small" unicode="&#xe071;" horiz-adv-x="480" 
d="M395 287v-61h-254v-226h-66v500h355v-61h-289v-152h254z" />
    <glyph glyph-name="g.small" unicode="&#xe072;" horiz-adv-x="550" 
d="M295 52c46 0 83 5 114 11v135h-109v61h175v-236c-40 -20 -118 -33 -180 -33c-169 0 -235 116 -235 260s66 260 235 260c59 0 130 -10 170 -30v-60c-38 14 -89 28 -170 28c-126 0 -165 -99 -165 -198s39 -198 165 -198z" />
    <glyph glyph-name="h.small" unicode="&#xe073;" 
d="M495 0h-66v226h-288v-226h-66v500h66v-213h288v213h66v-500z" />
    <glyph glyph-name="i.small" unicode="&#xe074;" horiz-adv-x="260" 
d="M163 0h-66v500h66v-500z" />
    <glyph glyph-name="j.small" unicode="&#xe075;" horiz-adv-x="375" 
d="M35 -3v63c24 -6 39 -8 70 -8c65 0 109 20 109 85v363h66v-360c0 -96 -50 -150 -175 -150c-21 0 -50 2 -70 7z" />
    <glyph glyph-name="k.small" unicode="&#xe076;" horiz-adv-x="515" 
d="M461 500l-215 -206l242 -294h-87l-197 254l-63 -60v-194h-66v500h66v-227l226 227h94z" />
    <glyph glyph-name="l.small" unicode="&#xe077;" horiz-adv-x="480" 
d="M141 500v-439h299v-61h-365v500h66z" />
    <glyph glyph-name="m.small" unicode="&#xe078;" horiz-adv-x="670" 
d="M364 65h-58l-170 344l4 -409h-65v500h85l175 -363l175 363h85v-500h-65l4 409z" />
    <glyph glyph-name="n.small" unicode="&#xe079;" 
d="M495 0h-44l-311 378l1 -378h-66v500h44l311 -378l-1 378h66v-500z" />
    <glyph glyph-name="o.small" unicode="&#xe07a;" horiz-adv-x="580" 
d="M523 250c0 -153 -61 -260 -233 -260c-171 0 -233 107 -233 260s62 260 233 260c172 0 233 -107 233 -260zM453 250c0 113 -30 198 -163 198c-135 0 -163 -85 -163 -198s28 -198 163 -198c133 0 163 85 163 198z" />
    <glyph glyph-name="p.small" unicode="&#xe07b;" horiz-adv-x="490" 
d="M277 178h-136v-178h-66v500h202c124 0 167 -75 167 -161s-44 -161 -167 -161zM373 339c0 48 -15 100 -98 100h-134v-200h134c83 0 98 52 98 100z" />
    <glyph glyph-name="q.small" unicode="&#xe07c;" horiz-adv-x="580" 
d="M671 -124l-455 122c-115 31 -159 123 -159 252c0 153 62 260 233 260c172 0 233 -107 233 -260c0 -120 -37 -211 -135 -245v-1l283 -56v-72zM453 250c0 113 -30 198 -163 198c-135 0 -163 -85 -163 -198s28 -198 163 -198c133 0 163 85 163 198z" />
    <glyph glyph-name="r.small" unicode="&#xe07d;" horiz-adv-x="512" 
d="M294 198h-153v-198h-66v500h214c124 0 165 -65 165 -151c0 -67 -25 -121 -94 -142l119 -207h-78zM383 349c0 48 -18 90 -101 90h-141v-180h141c83 0 101 42 101 90z" />
    <glyph glyph-name="s.small" unicode="&#xe07e;" horiz-adv-x="500" 
d="M122 358c0 -50 36 -62 132 -70c142 -13 191 -51 191 -142c0 -85 -55 -156 -216 -156c-51 0 -133 13 -164 27v60c30 -12 91 -25 165 -25c110 0 148 32 148 93c0 55 -30 75 -129 83c-145 13 -194 46 -194 130c0 90 56 152 206 152c50 0 115 -6 159 -25v-60
c-39 13 -90 23 -160 23c-105 0 -138 -26 -138 -90z" />
    <glyph glyph-name="t.small" unicode="&#xe07f;" horiz-adv-x="485" 
d="M445 439h-167v-439h-71v439h-167v61h405v-61z" />
    <glyph glyph-name="u.small" unicode="&#xe080;" 
d="M285 -10c-149 0 -215 64 -215 170v340h66v-341c0 -80 62 -107 149 -107s149 27 149 107v341h66v-340c0 -106 -66 -170 -215 -170z" />
    <glyph glyph-name="v.small" unicode="&#xe081;" horiz-adv-x="530" 
d="M425 500h75l-208 -510h-54l-208 510h75l160 -427z" />
    <glyph glyph-name="w.small" unicode="&#xe082;" horiz-adv-x="740" 
d="M633 500h77l-146 -510h-52l-142 437l-142 -437h-52l-146 510h77l97 -397l129 397h74l129 -397z" />
    <glyph glyph-name="x.small" unicode="&#xe083;" horiz-adv-x="520" 
d="M110 0h-85l195 257l-185 243h85l140 -194l140 194h85l-185 -243l195 -257h-85l-150 208z" />
    <glyph glyph-name="y.small" unicode="&#xe084;" horiz-adv-x="542" 
d="M434 500h83l-210 -320v-180h-71v180l-211 320h83l163 -267z" />
    <glyph glyph-name="z.small" unicode="&#xe085;" horiz-adv-x="510" 
d="M465 0h-420v45l317 393h-302v62h395v-45l-317 -393h327v-62z" />
    <glyph glyph-name="aacute.small" unicode="&#xe086;" horiz-adv-x="530" 
d="M500 0h-73l-46 120h-233l-45 -120h-73l210 510h50zM265 427l-97 -255h193zM290 550h-50l50 200h80z" />
    <glyph glyph-name="agrave.small" unicode="&#xe087;" horiz-adv-x="530" 
d="M500 0h-73l-46 120h-233l-45 -120h-73l210 510h50zM265 427l-97 -255h193zM290 550h-50l-80 200h80z" />
    <glyph glyph-name="acircumflex.small" unicode="&#xe088;" horiz-adv-x="530" 
d="M500 0h-73l-46 120h-233l-45 -120h-73l210 510h50zM265 427l-97 -255h193zM450 550h-55l-130 141l-130 -141h-55l145 200h80z" />
    <glyph glyph-name="adieresis.small" unicode="&#xe089;" horiz-adv-x="530" 
d="M500 0h-73l-46 120h-233l-45 -120h-73l210 510h50zM265 427l-97 -255h193zM120 650c0 28 22 50 50 50s50 -22 50 -50s-22 -50 -50 -50s-50 22 -50 50zM310 650c0 28 22 50 50 50s50 -22 50 -50s-22 -50 -50 -50s-50 22 -50 50z" />
    <glyph glyph-name="atilde.small" unicode="&#xe08a;" horiz-adv-x="530" 
d="M500 0h-73l-46 120h-233l-45 -120h-73l210 510h50zM265 427l-97 -255h193zM341 644c45 0 49 31 49 51h56c5 -70 -37 -110 -109 -110c-82 0 -93 71 -148 71c-45 0 -49 -31 -49 -51h-56c-5 70 37 110 109 110c82 0 93 -71 148 -71z" />
    <glyph glyph-name="aring.small" unicode="&#xe08b;" horiz-adv-x="530" 
d="M500 0h-73l-46 120h-233l-45 -120h-73l210 510h50zM265 427l-97 -255h193zM265 702c-31 0 -54 -15 -54 -52s23 -52 54 -52s54 15 54 52s-23 52 -54 52zM265 549c-60 0 -104 32 -104 101s44 101 104 101s104 -32 104 -101s-44 -101 -104 -101z" />
    <glyph glyph-name="acaron.small" unicode="&#xe08c;" horiz-adv-x="530" 
d="M500 0h-73l-46 120h-233l-45 -120h-73l210 510h50zM265 427l-97 -255h193zM395 750h55l-145 -200h-80l-145 200h55l130 -141z" />
    <glyph glyph-name="amacron.small" unicode="&#xe08d;" horiz-adv-x="530" 
d="M500 0h-73l-46 120h-233l-45 -120h-73l210 510h50zM265 427l-97 -255h193zM128 620v60h274v-60h-274z" />
    <glyph glyph-name="abreve.small" unicode="&#xe08e;" horiz-adv-x="530" 
d="M500 0h-73l-46 120h-233l-45 -120h-73l210 510h50zM265 427l-97 -255h193zM265 550c-115 0 -172 66 -175 200h51c2 -91 27 -140 124 -140s122 49 124 140h51c-3 -134 -60 -200 -175 -200z" />
    <glyph glyph-name="ainvertedbreve.small" unicode="&#xe08f;" horiz-adv-x="530" 
d="M500 0h-73l-46 120h-233l-45 -120h-73l210 510h50zM265 427l-97 -255h193zM265 750c115 0 172 -66 175 -200h-51c-2 91 -27 140 -124 140s-122 -49 -124 -140h-51c3 134 60 200 175 200z" />
    <glyph glyph-name="adoublegrave.small" unicode="&#xe090;" horiz-adv-x="530" 
d="M500 0h-73l-46 120h-233l-45 -120h-73l210 510h50zM265 427l-97 -255h193zM230 550h-50l-80 200h80zM350 550h-50l-80 200h80z" />
    <glyph glyph-name="adotabove.small" unicode="&#xe091;" horiz-adv-x="530" 
d="M500 0h-73l-46 120h-233l-45 -120h-73l210 510h50zM265 427l-97 -255h193zM215 650c0 28 22 50 50 50s50 -22 50 -50s-22 -50 -50 -50s-50 22 -50 50z" />
    <glyph glyph-name="aringacute.small" unicode="&#xe092;" horiz-adv-x="530" 
d="M500 0h-73l-46 120h-233l-45 -120h-73l210 510h50zM265 427l-97 -255h193zM265 549c-60 0 -104 32 -104 101c0 15 2 31 7 43l57 145h70l-45 -87h15c60 0 104 -32 104 -101s-44 -101 -104 -101zM265 702c-31 0 -54 -15 -54 -52s23 -52 54 -52s54 15 54 52s-23 52 -54 52z
" />
    <glyph glyph-name="adieresismacron.small" unicode="&#xe093;" horiz-adv-x="530" 
d="M500 0h-73l-46 120h-233l-45 -120h-73l210 510h50zM265 427l-97 -255h193zM128 710v60h274v-60h-274zM120 615c0 28 22 50 50 50s50 -22 50 -50s-22 -50 -50 -50s-50 22 -50 50zM310 615c0 28 22 50 50 50s50 -22 50 -50s-22 -50 -50 -50s-50 22 -50 50z" />
    <glyph glyph-name="aogonek.small" unicode="&#xe094;" horiz-adv-x="530" 
d="M500 0c-65 -36 -106 -90 -106 -142c0 -31 15 -57 54 -57c22 0 43 4 57 8v-48c-17 -6 -42 -11 -71 -11c-60 0 -101 36 -101 95c0 60 32 116 92 158l-44 117h-233l-45 -120h-73l210 510h50zM265 427l-97 -255h193z" />
    <glyph glyph-name="anocross.small" unicode="&#xe095;" horiz-adv-x="530" 
d="M103 0h-73l210 510h50l210 -510h-73l-162 427z" />
    <glyph glyph-name="ae.small" unicode="&#xe096;" horiz-adv-x="764" 
d="M669 287v-61h-257l34 -165h258v-61h-315l-23 120h-212l-60 -120h-74l267 500h417v-61h-336l31 -152h270zM308 424l-127 -252h175z" />
    <glyph glyph-name="aeacute.small" unicode="&#xe097;" horiz-adv-x="764" 
d="M669 287v-61h-257l34 -165h258v-61h-315l-23 120h-212l-60 -120h-74l267 500h417v-61h-336l31 -152h270zM308 424l-127 -252h175zM370 550h-50l50 200h80z" />
    <glyph glyph-name="aemacron.small" unicode="&#xe098;" horiz-adv-x="764" 
d="M669 287v-61h-257l34 -165h258v-61h-315l-23 120h-212l-60 -120h-74l267 500h417v-61h-336l31 -152h270zM308 424l-127 -252h175zM208 620v60h274v-60h-274z" />
    <glyph glyph-name="cacute.small" unicode="&#xe099;" horiz-adv-x="505" 
d="M60 250c0 144 67 260 236 260c49 0 105 -6 149 -25v-60c-39 13 -79 23 -150 23c-126 0 -165 -99 -165 -198s39 -198 165 -198c71 0 111 10 150 23v-60c-44 -19 -100 -25 -149 -25c-169 0 -236 116 -236 260zM311 550h-50l50 200h80z" />
    <glyph glyph-name="ccircumflex.small" unicode="&#xe09a;" horiz-adv-x="505" 
d="M60 250c0 144 67 260 236 260c49 0 105 -6 149 -25v-60c-39 13 -79 23 -150 23c-126 0 -165 -99 -165 -198s39 -198 165 -198c71 0 111 10 150 23v-60c-44 -19 -100 -25 -149 -25c-169 0 -236 116 -236 260zM471 550h-55l-130 141l-130 -141h-55l145 200h80z" />
    <glyph glyph-name="ccaron.small" unicode="&#xe09b;" horiz-adv-x="505" 
d="M60 250c0 144 67 260 236 260c49 0 105 -6 149 -25v-60c-39 13 -79 23 -150 23c-126 0 -165 -99 -165 -198s39 -198 165 -198c71 0 111 10 150 23v-60c-44 -19 -100 -25 -149 -25c-169 0 -236 116 -236 260zM416 750h55l-145 -200h-80l-145 200h55l130 -141z" />
    <glyph glyph-name="cdotaccent.small" unicode="&#xe09c;" horiz-adv-x="505" 
d="M60 250c0 144 67 260 236 260c49 0 105 -6 149 -25v-60c-39 13 -79 23 -150 23c-126 0 -165 -99 -165 -198s39 -198 165 -198c71 0 111 10 150 23v-60c-44 -19 -100 -25 -149 -25c-169 0 -236 116 -236 260zM235 650c0 28 22 50 50 50s50 -22 50 -50s-22 -50 -50 -50
s-50 22 -50 50z" />
    <glyph glyph-name="ccedilla.small" unicode="&#xe09d;" horiz-adv-x="505" 
d="M60 250c0 144 67 260 236 260c49 0 105 -6 149 -25v-60c-39 13 -79 23 -150 23c-126 0 -165 -99 -165 -198s39 -198 165 -198c71 0 111 10 150 23v-60c-41 -17 -92 -24 -138 -25l4 -54c40 -10 95 -35 95 -97c0 -54 -41 -89 -111 -89c-54 0 -83 12 -94 18v46
s36 -13 77 -13s67 11 67 36c0 43 -42 57 -89 63l9 92c-147 13 -205 123 -205 258z" />
    <glyph glyph-name="dcaron.small" unicode="&#xe09e;" horiz-adv-x="545" 
d="M380 750h55l-145 -200h-80l-145 200h55l130 -141zM243 0h-168v500h168c172 0 242 -97 242 -250s-70 -250 -242 -250zM141 61h101c133 0 173 76 173 189s-40 189 -173 189h-101v-378z" />
    <glyph glyph-name="dcedilla.small" unicode="&#xe09f;" horiz-adv-x="545" 
d="M210 -95l5 45c94 -10 145 -51 145 -111c0 -54 -41 -89 -111 -89c-54 0 -83 12 -94 18v46s36 -13 77 -13s67 11 67 36c0 43 -42 62 -89 68zM243 0h-168v500h168c172 0 242 -97 242 -250s-70 -250 -242 -250zM141 61h101c133 0 173 76 173 189s-40 189 -173 189h-101v-378z
" />
    <glyph glyph-name="ddotbelow.small" unicode="&#xe0a0;" horiz-adv-x="545" 
d="M243 0h-168v500h168c172 0 242 -97 242 -250s-70 -250 -242 -250zM141 61h101c133 0 173 76 173 189s-40 189 -173 189h-101v-378zM210 -150c0 28 22 50 50 50s50 -22 50 -50s-22 -50 -50 -50s-50 22 -50 50z" />
    <glyph glyph-name="dcroat.small" unicode="&#xe0a1;" horiz-adv-x="585" 
d="M25 277h90v223h168c172 0 242 -97 242 -250s-70 -250 -242 -250h-168v222h-90v55zM181 61h101c133 0 173 76 173 189s-40 189 -173 189h-101v-162h120v-55h-120v-161z" />
    <glyph glyph-name="eacute.small" unicode="&#xe0a2;" horiz-adv-x="500" 
d="M405 287v-61h-264v-165h299v-61h-365v500h365v-61h-299v-152h264zM290 550h-50l50 200h80z" />
    <glyph glyph-name="egrave.small" unicode="&#xe0a3;" horiz-adv-x="500" 
d="M405 287v-61h-264v-165h299v-61h-365v500h365v-61h-299v-152h264zM290 550h-50l-80 200h80z" />
    <glyph glyph-name="ecircumflex.small" unicode="&#xe0a4;" horiz-adv-x="500" 
d="M405 287v-61h-264v-165h299v-61h-365v500h365v-61h-299v-152h264zM450 550h-55l-130 141l-130 -141h-55l145 200h80z" />
    <glyph glyph-name="edieresis.small" unicode="&#xe0a5;" horiz-adv-x="500" 
d="M405 287v-61h-264v-165h299v-61h-365v500h365v-61h-299v-152h264zM120 650c0 28 22 50 50 50s50 -22 50 -50s-22 -50 -50 -50s-50 22 -50 50zM310 650c0 28 22 50 50 50s50 -22 50 -50s-22 -50 -50 -50s-50 22 -50 50z" />
    <glyph glyph-name="ecaron.small" unicode="&#xe0a6;" horiz-adv-x="500" 
d="M405 287v-61h-264v-165h299v-61h-365v500h365v-61h-299v-152h264zM395 750h55l-145 -200h-80l-145 200h55l130 -141z" />
    <glyph glyph-name="emacron.small" unicode="&#xe0a7;" horiz-adv-x="500" 
d="M405 287v-61h-264v-165h299v-61h-365v500h365v-61h-299v-152h264zM128 620v60h274v-60h-274z" />
    <glyph glyph-name="ebreve.small" unicode="&#xe0a8;" horiz-adv-x="500" 
d="M405 287v-61h-264v-165h299v-61h-365v500h365v-61h-299v-152h264zM265 550c-115 0 -172 66 -175 200h51c2 -91 27 -140 124 -140s122 49 124 140h51c-3 -134 -60 -200 -175 -200z" />
    <glyph glyph-name="einvertedbreve.small" unicode="&#xe0a9;" horiz-adv-x="500" 
d="M405 287v-61h-264v-165h299v-61h-365v500h365v-61h-299v-152h264zM265 750c115 0 172 -66 175 -200h-51c-2 91 -27 140 -124 140s-122 -49 -124 -140h-51c3 134 60 200 175 200z" />
    <glyph glyph-name="edoublegrave.small" unicode="&#xe0aa;" horiz-adv-x="500" 
d="M405 287v-61h-264v-165h299v-61h-365v500h365v-61h-299v-152h264zM230 550h-50l-80 200h80zM350 550h-50l-80 200h80z" />
    <glyph glyph-name="edotaccent.small" unicode="&#xe0ab;" horiz-adv-x="500" 
d="M405 287v-61h-264v-165h299v-61h-365v500h365v-61h-299v-152h264zM215 650c0 28 22 50 50 50s50 -22 50 -50s-22 -50 -50 -50s-50 22 -50 50z" />
    <glyph glyph-name="eacutedotbelow.small" unicode="&#xe0ac;" horiz-adv-x="500" 
d="M405 287v-61h-264v-165h299v-61h-365v500h365v-61h-299v-152h264zM290 550h-50l50 200h80zM215 -150c0 28 22 50 50 50s50 -22 50 -50s-22 -50 -50 -50s-50 22 -50 50z" />
    <glyph glyph-name="egravedotbelow.small" unicode="&#xe0ad;" horiz-adv-x="500" 
d="M405 287v-61h-264v-165h299v-61h-365v500h365v-61h-299v-152h264zM290 550h-50l-80 200h80zM215 -150c0 28 22 50 50 50s50 -22 50 -50s-22 -50 -50 -50s-50 22 -50 50z" />
    <glyph glyph-name="eogonek.small" unicode="&#xe0ae;" horiz-adv-x="500" 
d="M405 287v-61h-264v-165h299v-61c-65 -36 -106 -90 -106 -142c0 -31 15 -57 54 -57c22 0 43 4 57 8v-48c-17 -6 -42 -11 -71 -11c-60 0 -101 36 -101 95c0 58 30 113 87 155h-285v500h365v-61h-299v-152h264z" />
    <glyph glyph-name="gacute.small" unicode="&#xe0af;" horiz-adv-x="550" 
d="M295 52c46 0 83 5 114 11v135h-109v61h175v-236c-40 -20 -118 -33 -180 -33c-169 0 -235 116 -235 260s66 260 235 260c59 0 130 -10 170 -30v-60c-38 14 -89 28 -170 28c-126 0 -165 -99 -165 -198s39 -198 165 -198zM320 550h-50l50 200h80z" />
    <glyph glyph-name="gcircumflex.small" unicode="&#xe0b0;" horiz-adv-x="550" 
d="M295 52c46 0 83 5 114 11v135h-109v61h175v-236c-40 -20 -118 -33 -180 -33c-169 0 -235 116 -235 260s66 260 235 260c59 0 130 -10 170 -30v-60c-38 14 -89 28 -170 28c-126 0 -165 -99 -165 -198s39 -198 165 -198zM480 550h-55l-130 141l-130 -141h-55l145 200h80z
" />
    <glyph glyph-name="gtilde.small" unicode="&#xe0b1;" horiz-adv-x="550" 
d="M295 52c46 0 83 5 114 11v135h-109v61h175v-236c-40 -20 -118 -33 -180 -33c-169 0 -235 116 -235 260s66 260 235 260c59 0 130 -10 170 -30v-60c-38 14 -89 28 -170 28c-126 0 -165 -99 -165 -198s39 -198 165 -198zM371 644c45 0 49 31 49 51h56
c5 -70 -37 -110 -109 -110c-82 0 -93 71 -148 71c-45 0 -49 -31 -49 -51h-56c-5 70 37 110 109 110c82 0 93 -71 148 -71z" />
    <glyph glyph-name="gcaron.small" unicode="&#xe0b2;" horiz-adv-x="550" 
d="M295 52c46 0 83 5 114 11v135h-109v61h175v-236c-40 -20 -118 -33 -180 -33c-169 0 -235 116 -235 260s66 260 235 260c59 0 130 -10 170 -30v-60c-38 14 -89 28 -170 28c-126 0 -165 -99 -165 -198s39 -198 165 -198zM425 750h55l-145 -200h-80l-145 200h55l130 -141z
" />
    <glyph glyph-name="gbreve.small" unicode="&#xe0b3;" horiz-adv-x="550" 
d="M295 52c46 0 83 5 114 11v135h-109v61h175v-236c-40 -20 -118 -33 -180 -33c-169 0 -235 116 -235 260s66 260 235 260c59 0 130 -10 170 -30v-60c-38 14 -89 28 -170 28c-126 0 -165 -99 -165 -198s39 -198 165 -198zM295 550c-115 0 -172 66 -175 200h51
c2 -91 27 -140 124 -140s122 49 124 140h51c-3 -134 -60 -200 -175 -200z" />
    <glyph glyph-name="gdotaccent.small" unicode="&#xe0b4;" horiz-adv-x="550" 
d="M295 52c46 0 83 5 114 11v135h-109v61h175v-236c-40 -20 -118 -33 -180 -33c-169 0 -235 116 -235 260s66 260 235 260c59 0 130 -10 170 -30v-60c-38 14 -89 28 -170 28c-126 0 -165 -99 -165 -198s39 -198 165 -198zM245 650c0 28 22 50 50 50s50 -22 50 -50
s-22 -50 -50 -50s-50 22 -50 50z" />
    <glyph glyph-name="gcommaaccent.small" unicode="&#xe0b5;" horiz-adv-x="550" 
d="M295 52c46 0 83 5 114 11v135h-109v61h175v-236c-40 -20 -118 -33 -180 -33c-169 0 -235 116 -235 260s66 260 235 260c59 0 130 -10 170 -30v-60c-38 14 -89 28 -170 28c-126 0 -165 -99 -165 -198s39 -198 165 -198zM262 -50h80l-56 -200h-50z" />
    <glyph glyph-name="gcommaturnedabove.small" unicode="&#xe0b6;" horiz-adv-x="550" 
d="M295 52c46 0 83 5 114 11v135h-109v61h175v-236c-40 -20 -118 -33 -180 -33c-169 0 -235 116 -235 260s66 260 235 260c59 0 130 -10 170 -30v-60c-38 14 -89 28 -170 28c-126 0 -165 -99 -165 -198s39 -198 165 -198zM328 550h-80l56 200h50z" />
    <glyph glyph-name="gstroke.small" unicode="&#xe0b7;" horiz-adv-x="550" 
d="M475 103v-80c-40 -20 -118 -33 -180 -33c-169 0 -235 116 -235 260s66 260 235 260c59 0 130 -10 170 -30v-60c-38 14 -89 28 -170 28c-126 0 -165 -99 -165 -198s39 -198 165 -198c46 0 83 5 114 11v40h-88v55h88v40h-109v61h175v-101h51v-55h-51z" />
    <glyph glyph-name="hcircumflex.small" unicode="&#xe0b8;" 
d="M495 0h-66v226h-288v-226h-66v500h66v-213h288v213h66v-500zM470 550h-55l-130 141l-130 -141h-55l145 200h80z" />
    <glyph glyph-name="hcaron.small" unicode="&#xe0b9;" 
d="M495 0h-66v226h-288v-226h-66v500h66v-213h288v213h66v-500zM415 750h55l-145 -200h-80l-145 200h55l130 -141z" />
    <glyph glyph-name="hdotbelow.small" unicode="&#xe0ba;" 
d="M495 0h-66v226h-288v-226h-66v500h66v-213h288v213h66v-500zM235 -150c0 28 22 50 50 50s50 -22 50 -50s-22 -50 -50 -50s-50 22 -50 50z" />
    <glyph glyph-name="hmacronbelow.small" unicode="&#xe0bb;" 
d="M495 0h-66v226h-288v-226h-66v500h66v-213h288v213h66v-500zM422 -120v-60h-274v60h274z" />
    <glyph glyph-name="hbar.small" unicode="&#xe0bc;" 
d="M495 0h-66v226h-288v-226h-66v500h66v-80h288v80h66v-500zM141 287h288v72h-288v-72z" />
    <glyph glyph-name="iacute.small" unicode="&#xe0bd;" horiz-adv-x="260" 
d="M163 0h-66v500h66v-500zM155 550h-50l50 200h80z" />
    <glyph glyph-name="igrave.small" unicode="&#xe0be;" horiz-adv-x="260" 
d="M163 0h-66v500h66v-500zM155 550h-50l-80 200h80z" />
    <glyph glyph-name="icircumflex.small" unicode="&#xe0bf;" horiz-adv-x="260" 
d="M163 0h-66v500h66v-500zM315 550h-55l-130 141l-130 -141h-55l145 200h80z" />
    <glyph glyph-name="idieresis.small" unicode="&#xe0c0;" horiz-adv-x="260" 
d="M163 0h-66v500h66v-500zM5 650c0 28 22 50 50 50s50 -22 50 -50s-22 -50 -50 -50s-50 22 -50 50zM155 650c0 28 22 50 50 50s50 -22 50 -50s-22 -50 -50 -50s-50 22 -50 50z" />
    <glyph glyph-name="itilde.small" unicode="&#xe0c1;" horiz-adv-x="260" 
d="M163 0h-66v500h66v-500zM206 644c45 0 49 31 49 51h56c5 -70 -37 -110 -109 -110c-82 0 -93 71 -148 71c-45 0 -49 -31 -49 -51h-56c-5 70 37 110 109 110c82 0 93 -71 148 -71z" />
    <glyph glyph-name="icaron.small" unicode="&#xe0c2;" horiz-adv-x="260" 
d="M163 0h-66v500h66v-500zM260 750h55l-145 -200h-80l-145 200h55l130 -141z" />
    <glyph glyph-name="imacron.small" unicode="&#xe0c3;" horiz-adv-x="260" 
d="M163 0h-66v500h66v-500zM-7 620v60h274v-60h-274z" />
    <glyph glyph-name="ibreve.small" unicode="&#xe0c4;" horiz-adv-x="260" 
d="M163 0h-66v500h66v-500zM130 550c-115 0 -172 66 -175 200h51c2 -91 27 -140 124 -140s122 49 124 140h51c-3 -134 -60 -200 -175 -200z" />
    <glyph glyph-name="iinvertedbreve.small" unicode="&#xe0c5;" horiz-adv-x="260" 
d="M163 0h-66v500h66v-500zM130 750c115 0 172 -66 175 -200h-51c-2 91 -27 140 -124 140s-122 -49 -124 -140h-51c3 134 60 200 175 200z" />
    <glyph glyph-name="idoublegrave.small" unicode="&#xe0c6;" horiz-adv-x="260" 
d="M163 0h-66v500h66v-500zM95 550h-50l-80 200h80zM215 550h-50l-80 200h80z" />
    <glyph glyph-name="idotaccent.small" unicode="&#xe0c7;" horiz-adv-x="260" 
d="M163 0h-66v500h66v-500zM80 650c0 28 22 50 50 50s50 -22 50 -50s-22 -50 -50 -50s-50 22 -50 50z" />
    <glyph glyph-name="idotbelow.small" unicode="&#xe0c8;" horiz-adv-x="260" 
d="M163 0h-66v500h66v-500zM80 -150c0 28 22 50 50 50s50 -22 50 -50s-22 -50 -50 -50s-50 22 -50 50z" />
    <glyph glyph-name="iogonek.small" unicode="&#xe0c9;" horiz-adv-x="260" 
d="M163 0c-65 -46 -86 -90 -86 -142c0 -31 19 -57 58 -57c22 0 43 4 57 8v-48c-17 -6 -42 -11 -71 -11c-60 0 -105 36 -105 95c0 62 21 114 81 159v496h66v-500z" />
    <glyph glyph-name="jcircumflex.small" unicode="&#xe0ca;" horiz-adv-x="375" 
d="M432 550h-55l-130 141l-130 -141h-55l145 200h80zM35 -3v63c24 -6 39 -8 70 -8c65 0 109 20 109 85v363h66v-360c0 -96 -50 -150 -175 -150c-21 0 -50 2 -70 7z" />
    <glyph glyph-name="jcaron.small" unicode="&#xe0cb;" horiz-adv-x="375" 
d="M377 750h55l-145 -200h-80l-145 200h55l130 -141zM35 -3v63c24 -6 39 -8 70 -8c65 0 109 20 109 85v363h66v-360c0 -96 -50 -150 -175 -150c-21 0 -50 2 -70 7z" />
    <glyph glyph-name="kcaron.small" unicode="&#xe0cc;" horiz-adv-x="515" 
d="M461 500l-215 -206l242 -294h-87l-197 254l-63 -60v-194h-66v500h66v-227l226 227h94zM380 750h55l-145 -200h-80l-145 200h55l130 -141z" />
    <glyph glyph-name="kcommaaccent.small" unicode="&#xe0cd;" horiz-adv-x="515" 
d="M461 500l-215 -206l242 -294h-87l-197 254l-63 -60v-194h-66v500h66v-227l226 227h94zM217 -50h80l-56 -200h-50z" />
    <glyph glyph-name="kcedilla.small" unicode="&#xe0ce;" horiz-adv-x="515" 
d="M461 500l-215 -206l242 -294h-87l-197 254l-63 -60v-194h-66v500h66v-227l226 227h94zM210 -95l5 45c94 -10 145 -51 145 -111c0 -54 -41 -89 -111 -89c-54 0 -83 12 -94 18v46s36 -13 77 -13s67 11 67 36c0 43 -42 62 -89 68z" />
    <glyph glyph-name="khook.small" unicode="&#xe0cf;" horiz-adv-x="515" 
d="M141 0h-66v500h66v-234c31 9 58 39 82 84c50 94 106 155 237 150v-61c-84 2 -138 -26 -188 -126c-5 -10 -11 -19 -18 -29l234 -284h-87l-188 242c-23 -20 -48 -37 -72 -44v-198z" />
    <glyph glyph-name="lacute.small" unicode="&#xe0d0;" horiz-adv-x="480" 
d="M141 500v-439h299v-61h-365v500h66zM133 550h-50l50 200h80z" />
    <glyph glyph-name="lcaron.small" unicode="&#xe0d1;" horiz-adv-x="480" 
d="M141 500v-439h299v-61h-365v500h66zM257 625h78l-48 -200h-46z" />
    <glyph glyph-name="lcommaaccent.small" unicode="&#xe0d2;" horiz-adv-x="480" 
d="M141 500v-439h299v-61h-365v500h66zM232 -50h80l-56 -200h-50z" />
    <glyph glyph-name="lcedilla.small" unicode="&#xe0d3;" horiz-adv-x="480" 
d="M141 500v-439h299v-61h-365v500h66zM225 -95l5 45c94 -10 145 -51 145 -111c0 -54 -41 -89 -111 -89c-54 0 -83 12 -94 18v46s36 -13 77 -13s67 11 67 36c0 43 -42 62 -89 68z" />
    <glyph glyph-name="ldotbelow.small" unicode="&#xe0d4;" horiz-adv-x="480" 
d="M141 500v-439h299v-61h-365v500h66zM215 -150c0 28 22 50 50 50s50 -22 50 -50s-22 -50 -50 -50s-50 22 -50 50z" />
    <glyph glyph-name="ldotbelowmacron.small" unicode="&#xe0d5;" horiz-adv-x="480" 
d="M141 500v-439h299v-61h-365v500h66zM-29 620v60h274v-60h-274zM215 -150c0 28 22 50 50 50s50 -22 50 -50s-22 -50 -50 -50s-50 22 -50 50z" />
    <glyph glyph-name="ldot.small" unicode="&#xe0d6;" horiz-adv-x="480" 
d="M141 500v-439h299v-61h-365v500h66zM305 275c0 28 22 50 50 50s50 -22 50 -50s-22 -50 -50 -50s-50 22 -50 50z" />
    <glyph glyph-name="lslash.small" unicode="&#xe0d7;" horiz-adv-x="520" 
d="M363 292l-182 -103v-128h299v-61h-365v152l-90 -51v63l90 51v285h66v-248l182 103v-63z" />
    <glyph glyph-name="mmacron.small" unicode="&#xe0d8;" horiz-adv-x="670" 
d="M364 65h-58l-170 344l4 -409h-65v500h85l175 -363l175 363h85v-500h-65l4 409zM198 620v60h274v-60h-274z" />
    <glyph glyph-name="mcedilla.small" unicode="&#xe0d9;" horiz-adv-x="670" 
d="M364 65h-58l-170 344l4 -409h-65v500h85l175 -363l175 363h85v-500h-65l4 409zM295 -95l5 45c94 -10 145 -51 145 -111c0 -54 -41 -89 -111 -89c-54 0 -83 12 -94 18v46s36 -13 77 -13s67 11 67 36c0 43 -42 62 -89 68z" />
    <glyph glyph-name="mdotbelow.small" unicode="&#xe0da;" horiz-adv-x="670" 
d="M364 65h-58l-170 344l4 -409h-65v500h85l175 -363l175 363h85v-500h-65l4 409zM285 -150c0 28 22 50 50 50s50 -22 50 -50s-22 -50 -50 -50s-50 22 -50 50z" />
    <glyph glyph-name="nacute.small" unicode="&#xe0db;" 
d="M310 550h-50l50 200h80zM495 0h-44l-311 378l1 -378h-66v500h44l311 -378l-1 378h66v-500z" />
    <glyph glyph-name="ngrave.small" unicode="&#xe0dc;" 
d="M310 550h-50l-80 200h80zM495 0h-44l-311 378l1 -378h-66v500h44l311 -378l-1 378h66v-500z" />
    <glyph glyph-name="ndieresis.small" unicode="&#xe0dd;" 
d="M495 0h-44l-311 378l1 -378h-66v500h44l311 -378l-1 378h66v-500zM140 650c0 28 22 50 50 50s50 -22 50 -50s-22 -50 -50 -50s-50 22 -50 50zM330 650c0 28 22 50 50 50s50 -22 50 -50s-22 -50 -50 -50s-50 22 -50 50z" />
    <glyph glyph-name="ntilde.small" unicode="&#xe0de;" 
d="M361 644c45 0 49 31 49 51h56c5 -70 -37 -110 -109 -110c-82 0 -93 71 -148 71c-45 0 -49 -31 -49 -51h-56c-5 70 37 110 109 110c82 0 93 -71 148 -71zM495 0h-44l-311 378l1 -378h-66v500h44l311 -378l-1 378h66v-500z" />
    <glyph glyph-name="ncaron.small" unicode="&#xe0df;" 
d="M415 750h55l-145 -200h-80l-145 200h55l130 -141zM495 0h-44l-311 378l1 -378h-66v500h44l311 -378l-1 378h66v-500z" />
    <glyph glyph-name="nmacron.small" unicode="&#xe0e0;" 
d="M148 620v60h274v-60h-274zM495 0h-44l-311 378l1 -378h-66v500h44l311 -378l-1 378h66v-500z" />
    <glyph glyph-name="ndotaccent.small" unicode="&#xe0e1;" 
d="M495 0h-44l-311 378l1 -378h-66v500h44l311 -378l-1 378h66v-500zM235 650c0 28 22 50 50 50s50 -22 50 -50s-22 -50 -50 -50s-50 22 -50 50z" />
    <glyph glyph-name="ncommaaccent.small" unicode="&#xe0e2;" 
d="M495 0h-44l-311 378l1 -378h-66v500h44l311 -378l-1 378h66v-500zM252 -50h80l-56 -200h-50z" />
    <glyph glyph-name="ncedilla.small" unicode="&#xe0e3;" 
d="M245 -95l5 45c94 -10 145 -51 145 -111c0 -54 -41 -89 -111 -89c-54 0 -83 12 -94 18v46s36 -13 77 -13s67 11 67 36c0 43 -42 62 -89 68zM495 0h-44l-311 378l1 -378h-66v500h44l311 -378l-1 378h66v-500z" />
    <glyph glyph-name="ndotbelow.small" unicode="&#xe0e4;" 
d="M495 0h-44l-311 378l1 -378h-66v500h44l311 -378l-1 378h66v-500zM235 -150c0 28 22 50 50 50s50 -22 50 -50s-22 -50 -50 -50s-50 22 -50 50z" />
    <glyph glyph-name="ndescender.small" unicode="&#xe0e5;" 
d="M495 0h-44l-311 378l1 -378h-66v500h44l311 -378l-1 378h66v-439h66v-186h-66v125z" />
    <glyph glyph-name="oacute.small" unicode="&#xe0e6;" horiz-adv-x="580" 
d="M315 550h-50l50 200h80zM523 250c0 -153 -61 -260 -233 -260c-171 0 -233 107 -233 260s62 260 233 260c172 0 233 -107 233 -260zM453 250c0 113 -30 198 -163 198c-135 0 -163 -85 -163 -198s28 -198 163 -198c133 0 163 85 163 198z" />
    <glyph glyph-name="ograve.small" unicode="&#xe0e7;" horiz-adv-x="580" 
d="M315 550h-50l-80 200h80zM523 250c0 -153 -61 -260 -233 -260c-171 0 -233 107 -233 260s62 260 233 260c172 0 233 -107 233 -260zM453 250c0 113 -30 198 -163 198c-135 0 -163 -85 -163 -198s28 -198 163 -198c133 0 163 85 163 198z" />
    <glyph glyph-name="ocircumflex.small" unicode="&#xe0e8;" horiz-adv-x="580" 
d="M475 550h-55l-130 141l-130 -141h-55l145 200h80zM523 250c0 -153 -61 -260 -233 -260c-171 0 -233 107 -233 260s62 260 233 260c172 0 233 -107 233 -260zM453 250c0 113 -30 198 -163 198c-135 0 -163 -85 -163 -198s28 -198 163 -198c133 0 163 85 163 198z" />
    <glyph glyph-name="odieresis.small" unicode="&#xe0e9;" horiz-adv-x="580" 
d="M523 250c0 -153 -61 -260 -233 -260c-171 0 -233 107 -233 260s62 260 233 260c172 0 233 -107 233 -260zM453 250c0 113 -30 198 -163 198c-135 0 -163 -85 -163 -198s28 -198 163 -198c133 0 163 85 163 198zM145 650c0 28 22 50 50 50s50 -22 50 -50s-22 -50 -50 -50
s-50 22 -50 50zM335 650c0 28 22 50 50 50s50 -22 50 -50s-22 -50 -50 -50s-50 22 -50 50z" />
    <glyph glyph-name="otilde.small" unicode="&#xe0ea;" horiz-adv-x="580" 
d="M366 644c45 0 49 31 49 51h56c5 -70 -37 -110 -109 -110c-82 0 -93 71 -148 71c-45 0 -49 -31 -49 -51h-56c-5 70 37 110 109 110c82 0 93 -71 148 -71zM523 250c0 -153 -61 -260 -233 -260c-171 0 -233 107 -233 260s62 260 233 260c172 0 233 -107 233 -260zM453 250
c0 113 -30 198 -163 198c-135 0 -163 -85 -163 -198s28 -198 163 -198c133 0 163 85 163 198z" />
    <glyph glyph-name="ocaron.small" unicode="&#xe0eb;" horiz-adv-x="580" 
d="M420 750h55l-145 -200h-80l-145 200h55l130 -141zM523 250c0 -153 -61 -260 -233 -260c-171 0 -233 107 -233 260s62 260 233 260c172 0 233 -107 233 -260zM453 250c0 113 -30 198 -163 198c-135 0 -163 -85 -163 -198s28 -198 163 -198c133 0 163 85 163 198z" />
    <glyph glyph-name="omacron.small" unicode="&#xe0ec;" horiz-adv-x="580" 
d="M153 620v60h274v-60h-274zM523 250c0 -153 -61 -260 -233 -260c-171 0 -233 107 -233 260s62 260 233 260c172 0 233 -107 233 -260zM453 250c0 113 -30 198 -163 198c-135 0 -163 -85 -163 -198s28 -198 163 -198c133 0 163 85 163 198z" />
    <glyph glyph-name="obreve.small" unicode="&#xe0ed;" horiz-adv-x="580" 
d="M290 550c-115 0 -172 66 -175 200h51c2 -91 27 -140 124 -140s122 49 124 140h51c-3 -134 -60 -200 -175 -200zM523 250c0 -153 -61 -260 -233 -260c-171 0 -233 107 -233 260s62 260 233 260c172 0 233 -107 233 -260zM453 250c0 113 -30 198 -163 198
c-135 0 -163 -85 -163 -198s28 -198 163 -198c133 0 163 85 163 198z" />
    <glyph glyph-name="oinvertedbreve.small" unicode="&#xe0ee;" horiz-adv-x="580" 
d="M290 750c115 0 172 -66 175 -200h-51c-2 91 -27 140 -124 140s-122 -49 -124 -140h-51c3 134 60 200 175 200zM523 250c0 -153 -61 -260 -233 -260c-171 0 -233 107 -233 260s62 260 233 260c172 0 233 -107 233 -260zM453 250c0 113 -30 198 -163 198
c-135 0 -163 -85 -163 -198s28 -198 163 -198c133 0 163 85 163 198z" />
    <glyph glyph-name="ohungarumlaut.small" unicode="&#xe0ef;" horiz-adv-x="580" 
d="M523 250c0 -153 -61 -260 -233 -260c-171 0 -233 107 -233 260s62 260 233 260c172 0 233 -107 233 -260zM453 250c0 113 -30 198 -163 198c-135 0 -163 -85 -163 -198s28 -198 163 -198c133 0 163 85 163 198zM375 550h-50l50 200h80zM255 550h-50l50 200h80z" />
    <glyph glyph-name="odoublegrave.small" unicode="&#xe0f0;" horiz-adv-x="580" 
d="M523 250c0 -153 -61 -260 -233 -260c-171 0 -233 107 -233 260s62 260 233 260c172 0 233 -107 233 -260zM453 250c0 113 -30 198 -163 198c-135 0 -163 -85 -163 -198s28 -198 163 -198c133 0 163 85 163 198zM255 550h-50l-80 200h80zM375 550h-50l-80 200h80z" />
    <glyph glyph-name="ocommaturnedabove.small" unicode="&#xe0f1;" horiz-adv-x="580" 
d="M523 250c0 -153 -61 -260 -233 -260c-171 0 -233 107 -233 260s62 260 233 260c172 0 233 -107 233 -260zM453 250c0 113 -30 198 -163 198c-135 0 -163 -85 -163 -198s28 -198 163 -198c133 0 163 85 163 198zM329 550h-80l56 200h50z" />
    <glyph glyph-name="otildemacron.small" unicode="&#xe0f2;" horiz-adv-x="580" 
d="M366 609c45 0 49 31 49 51h56c5 -70 -37 -110 -109 -110c-82 0 -93 71 -148 71c-45 0 -49 -31 -49 -51h-56c-5 70 37 110 109 110c82 0 93 -71 148 -71zM153 710v60h274v-60h-274zM523 250c0 -153 -61 -260 -233 -260c-171 0 -233 107 -233 260s62 260 233 260
c172 0 233 -107 233 -260zM453 250c0 113 -30 198 -163 198c-135 0 -163 -85 -163 -198s28 -198 163 -198c133 0 163 85 163 198z" />
    <glyph glyph-name="odotabove.small" unicode="&#xe0f3;" horiz-adv-x="580" 
d="M523 250c0 -153 -61 -260 -233 -260c-171 0 -233 107 -233 260s62 260 233 260c172 0 233 -107 233 -260zM453 250c0 113 -30 198 -163 198c-135 0 -163 -85 -163 -198s28 -198 163 -198c133 0 163 85 163 198zM240 650c0 28 22 50 50 50s50 -22 50 -50s-22 -50 -50 -50
s-50 22 -50 50z" />
    <glyph glyph-name="odotabovemacron.small" unicode="&#xe0f4;" horiz-adv-x="580" 
d="M153 710v60h274v-60h-274zM523 250c0 -153 -61 -260 -233 -260c-171 0 -233 107 -233 260s62 260 233 260c172 0 233 -107 233 -260zM453 250c0 113 -30 198 -163 198c-135 0 -163 -85 -163 -198s28 -198 163 -198c133 0 163 85 163 198zM240 615c0 28 22 50 50 50
s50 -22 50 -50s-22 -50 -50 -50s-50 22 -50 50z" />
    <glyph glyph-name="ocedilla.small" unicode="&#xe0f5;" horiz-adv-x="580" 
d="M243 -95l5 45c94 -10 145 -51 145 -111c0 -54 -41 -89 -111 -89c-54 0 -83 12 -94 18v46s36 -13 77 -13s67 11 67 36c0 43 -42 62 -89 68zM523 250c0 -153 -61 -260 -233 -260c-171 0 -233 107 -233 260s62 260 233 260c172 0 233 -107 233 -260zM453 250
c0 113 -30 198 -163 198c-135 0 -163 -85 -163 -198s28 -198 163 -198c133 0 163 85 163 198z" />
    <glyph glyph-name="odotbelow.small" unicode="&#xe0f6;" horiz-adv-x="580" 
d="M523 250c0 -153 -61 -260 -233 -260c-171 0 -233 107 -233 260s62 260 233 260c172 0 233 -107 233 -260zM453 250c0 113 -30 198 -163 198c-135 0 -163 -85 -163 -198s28 -198 163 -198c133 0 163 85 163 198zM240 -150c0 28 22 50 50 50s50 -22 50 -50s-22 -50 -50 -50
s-50 22 -50 50z" />
    <glyph glyph-name="oogonek.small" unicode="&#xe0f7;" horiz-adv-x="580" 
d="M523 250c0 -126 -41 -220 -151 -250c-65 -36 -106 -90 -106 -142c0 -31 15 -57 54 -57c22 0 43 4 57 8v-48c-17 -6 -42 -11 -71 -11c-60 0 -101 36 -101 95c0 53 26 105 75 145c-164 4 -223 110 -223 260c0 153 62 260 233 260c172 0 233 -107 233 -260zM453 250
c0 113 -30 198 -163 198c-135 0 -163 -85 -163 -198s28 -198 163 -198c133 0 163 85 163 198z" />
    <glyph glyph-name="oogonekmacron.small" unicode="&#xe0f8;" horiz-adv-x="580" 
d="M523 250c0 -126 -41 -220 -151 -250c-65 -36 -106 -90 -106 -142c0 -31 15 -57 54 -57c22 0 43 4 57 8v-48c-17 -6 -42 -11 -71 -11c-60 0 -101 36 -101 95c0 53 26 105 75 145c-164 4 -223 110 -223 260c0 153 62 260 233 260c172 0 233 -107 233 -260zM453 250
c0 113 -30 198 -163 198c-135 0 -163 -85 -163 -198s28 -198 163 -198c133 0 163 85 163 198zM153 620v60h274v-60h-274z" />
    <glyph glyph-name="ounderlineaccent.small" unicode="&#xe0f9;" horiz-adv-x="580" 
d="M260 -50h60v-200h-60v200zM523 250c0 -153 -61 -260 -233 -260c-171 0 -233 107 -233 260s62 260 233 260c172 0 233 -107 233 -260zM453 250c0 113 -30 198 -163 198c-135 0 -163 -85 -163 -198s28 -198 163 -198c133 0 163 85 163 198z" />
    <glyph glyph-name="oslash.small" unicode="&#xe0fa;" horiz-adv-x="580" 
d="M523 250c0 -153 -61 -260 -233 -260c-52 0 -93 10 -126 27l-12 -17h-62l32 48c-46 46 -65 117 -65 202c0 153 62 260 233 260c52 0 93 -10 126 -27l12 17h62l-33 -48c47 -46 66 -117 66 -202zM127 250c0 -59 7 -110 33 -146l220 325c-23 12 -53 19 -90 19
c-135 0 -163 -85 -163 -198zM453 250c0 58 -8 109 -34 145l-219 -324c23 -12 52 -19 90 -19c133 0 163 85 163 198z" />
    <glyph glyph-name="oslashacute.small" unicode="&#xe0fb;" horiz-adv-x="580" 
d="M523 250c0 -153 -61 -260 -233 -260c-52 0 -93 10 -126 27l-12 -17h-62l32 48c-46 46 -65 117 -65 202c0 153 62 260 233 260c52 0 93 -10 126 -27l12 17h62l-33 -48c47 -46 66 -117 66 -202zM127 250c0 -59 7 -110 33 -146l220 325c-23 12 -53 19 -90 19
c-135 0 -163 -85 -163 -198zM453 250c0 58 -8 109 -34 145l-219 -324c23 -12 52 -19 90 -19c133 0 163 85 163 198zM315 550h-50l50 200h80z" />
    <glyph glyph-name="barredo.small" unicode="&#xe0fc;" horiz-adv-x="580" 
d="M523 250c0 -153 -61 -260 -233 -260c-171 0 -233 107 -233 260s62 260 233 260c172 0 233 -107 233 -260zM290 52c123 0 158 73 162 174h-325c4 -101 37 -174 163 -174zM290 448c-120 0 -155 -67 -162 -161h324c-7 94 -44 161 -162 161z" />
    <glyph glyph-name="oe.small" unicode="&#xe0fd;" horiz-adv-x="765" 
d="M670 287v-61h-234v-165h269v-61h-403c-172 0 -242 97 -242 250s70 250 242 250h403v-61h-269v-152h234zM303 61h67v378h-67c-133 0 -173 -76 -173 -189s40 -189 173 -189z" />
    <glyph glyph-name="pmacron.small" unicode="&#xe0fe;" horiz-adv-x="490" 
d="M277 178h-136v-178h-66v500h202c124 0 167 -75 167 -161s-44 -161 -167 -161zM373 339c0 48 -15 100 -98 100h-134v-200h134c83 0 98 52 98 100zM108 620v60h274v-60h-274z" />
    <glyph glyph-name="racute.small" unicode="&#xe0ff;" horiz-adv-x="512" 
d="M294 198h-153v-198h-66v500h214c124 0 165 -65 165 -151c0 -67 -25 -121 -94 -142l119 -207h-78zM383 349c0 48 -18 90 -101 90h-141v-180h141c83 0 101 42 101 90zM270 550h-50l50 200h80z" />
    <glyph glyph-name="rcaron.small" unicode="&#xe100;" horiz-adv-x="512" 
d="M294 198h-153v-198h-66v500h214c124 0 165 -65 165 -151c0 -67 -25 -121 -94 -142l119 -207h-78zM383 349c0 48 -18 90 -101 90h-141v-180h141c83 0 101 42 101 90zM380 750h55l-145 -200h-80l-145 200h55l130 -141z" />
    <glyph glyph-name="rinvertedbreve.small" unicode="&#xe101;" horiz-adv-x="512" 
d="M294 198h-153v-198h-66v500h214c124 0 165 -65 165 -151c0 -67 -25 -121 -94 -142l119 -207h-78zM383 349c0 48 -18 90 -101 90h-141v-180h141c83 0 101 42 101 90zM250 750c115 0 172 -66 175 -200h-51c-2 91 -27 140 -124 140s-122 -49 -124 -140h-51
c3 134 60 200 175 200z" />
    <glyph glyph-name="rdoublegrave.small" unicode="&#xe102;" horiz-adv-x="512" 
d="M294 198h-153v-198h-66v500h214c124 0 165 -65 165 -151c0 -67 -25 -121 -94 -142l119 -207h-78zM383 349c0 48 -18 90 -101 90h-141v-180h141c83 0 101 42 101 90zM225 550h-50l-80 200h80zM345 550h-50l-80 200h80z" />
    <glyph glyph-name="rcommaaccent.small" unicode="&#xe103;" horiz-adv-x="512" 
d="M294 198h-153v-198h-66v500h214c124 0 165 -65 165 -151c0 -67 -25 -121 -94 -142l119 -207h-78zM383 349c0 48 -18 90 -101 90h-141v-180h141c83 0 101 42 101 90zM233 -50h80l-56 -200h-50z" />
    <glyph glyph-name="rcedilla.small" unicode="&#xe104;" horiz-adv-x="512" 
d="M294 198h-153v-198h-66v500h214c124 0 165 -65 165 -151c0 -67 -25 -121 -94 -142l119 -207h-78zM383 349c0 48 -18 90 -101 90h-141v-180h141c83 0 101 42 101 90zM213 -95l5 45c94 -10 145 -51 145 -111c0 -54 -41 -89 -111 -89c-54 0 -83 12 -94 18v46s36 -13 77 -13
s67 11 67 36c0 43 -42 62 -89 68z" />
    <glyph glyph-name="rdotbelow.small" unicode="&#xe105;" horiz-adv-x="512" 
d="M294 198h-153v-198h-66v500h214c124 0 165 -65 165 -151c0 -67 -25 -121 -94 -142l119 -207h-78zM383 349c0 48 -18 90 -101 90h-141v-180h141c83 0 101 42 101 90zM210 -150c0 28 22 50 50 50s50 -22 50 -50s-22 -50 -50 -50s-50 22 -50 50z" />
    <glyph glyph-name="rdotbelowmacron.small" unicode="&#xe106;" horiz-adv-x="512" 
d="M294 198h-153v-198h-66v500h214c124 0 165 -65 165 -151c0 -67 -25 -121 -94 -142l119 -207h-78zM383 349c0 48 -18 90 -101 90h-141v-180h141c83 0 101 42 101 90zM113 620v60h274v-60h-274zM210 -150c0 28 22 50 50 50s50 -22 50 -50s-22 -50 -50 -50s-50 22 -50 50z
" />
    <glyph glyph-name="sacute.small" unicode="&#xe107;" horiz-adv-x="500" 
d="M275 550h-50l50 200h80zM122 358c0 -50 36 -62 132 -70c142 -13 191 -51 191 -142c0 -85 -55 -156 -216 -156c-51 0 -133 13 -164 27v60c30 -12 91 -25 165 -25c110 0 148 32 148 93c0 55 -30 75 -129 83c-145 13 -194 46 -194 130c0 90 56 152 206 152
c50 0 115 -6 159 -25v-60c-39 13 -90 23 -160 23c-105 0 -138 -26 -138 -90z" />
    <glyph glyph-name="scircumflex.small" unicode="&#xe108;" horiz-adv-x="500" 
d="M435 550h-55l-130 141l-130 -141h-55l145 200h80zM122 358c0 -50 36 -62 132 -70c142 -13 191 -51 191 -142c0 -85 -55 -156 -216 -156c-51 0 -133 13 -164 27v60c30 -12 91 -25 165 -25c110 0 148 32 148 93c0 55 -30 75 -129 83c-145 13 -194 46 -194 130
c0 90 56 152 206 152c50 0 115 -6 159 -25v-60c-39 13 -90 23 -160 23c-105 0 -138 -26 -138 -90z" />
    <glyph glyph-name="scaron.small" unicode="&#xe109;" horiz-adv-x="500" 
d="M380 750h55l-145 -200h-80l-145 200h55l130 -141zM122 358c0 -50 36 -62 132 -70c142 -13 191 -51 191 -142c0 -85 -55 -156 -216 -156c-51 0 -133 13 -164 27v60c30 -12 91 -25 165 -25c110 0 148 32 148 93c0 55 -30 75 -129 83c-145 13 -194 46 -194 130
c0 90 56 152 206 152c50 0 115 -6 159 -25v-60c-39 13 -90 23 -160 23c-105 0 -138 -26 -138 -90z" />
    <glyph glyph-name="scommaaccent.small" unicode="&#xe10a;" horiz-adv-x="500" 
d="M122 358c0 -50 36 -62 132 -70c142 -13 191 -51 191 -142c0 -85 -55 -156 -216 -156c-51 0 -133 13 -164 27v60c30 -12 91 -25 165 -25c110 0 148 32 148 93c0 55 -30 75 -129 83c-145 13 -194 46 -194 130c0 90 56 152 206 152c50 0 115 -6 159 -25v-60
c-39 13 -90 23 -160 23c-105 0 -138 -26 -138 -90zM203 -50h80l-56 -200h-50z" />
    <glyph glyph-name="scedilla.small" unicode="&#xe10b;" horiz-adv-x="500" 
d="M122 358c0 -50 36 -62 132 -70c142 -13 191 -51 191 -142c0 -79 -47 -146 -182 -155l5 -55c40 -10 95 -35 95 -97c0 -54 -41 -89 -111 -89c-54 0 -83 12 -94 18v46s36 -13 77 -13s67 11 67 36c0 43 -42 57 -89 63l9 90c-51 1 -128 13 -157 27v60c30 -12 91 -25 165 -25
c110 0 148 32 148 93c0 55 -30 75 -129 83c-145 13 -194 46 -194 130c0 90 56 152 206 152c50 0 115 -6 159 -25v-60c-39 13 -90 23 -160 23c-105 0 -138 -26 -138 -90z" />
    <glyph glyph-name="sdotbelow.small" unicode="&#xe10c;" horiz-adv-x="500" 
d="M122 358c0 -50 36 -62 132 -70c142 -13 191 -51 191 -142c0 -85 -55 -156 -216 -156c-51 0 -133 13 -164 27v60c30 -12 91 -25 165 -25c110 0 148 32 148 93c0 55 -30 75 -129 83c-145 13 -194 46 -194 130c0 90 56 152 206 152c50 0 115 -6 159 -25v-60
c-39 13 -90 23 -160 23c-105 0 -138 -26 -138 -90zM190 -150c0 28 22 50 50 50s50 -22 50 -50s-22 -50 -50 -50s-50 22 -50 50z" />
    <glyph glyph-name="germandbls.small" unicode="&#xe10d;" horiz-adv-x="1000" 
d="M122 358c0 -50 36 -62 132 -70c142 -13 191 -51 191 -142c0 -85 -55 -156 -216 -156c-51 0 -133 13 -164 27v60c30 -12 91 -25 165 -25c110 0 148 32 148 93c0 55 -30 75 -129 83c-145 13 -194 46 -194 130c0 90 56 152 206 152c50 0 115 -6 159 -25v-60
c-39 13 -90 23 -160 23c-105 0 -138 -26 -138 -90zM622 358c0 -50 36 -62 132 -70c142 -13 191 -51 191 -142c0 -85 -55 -156 -216 -156c-51 0 -133 13 -164 27v60c30 -12 91 -25 165 -25c110 0 148 32 148 93c0 55 -30 75 -129 83c-145 13 -194 46 -194 130
c0 90 56 152 206 152c50 0 115 -6 159 -25v-60c-39 13 -90 23 -160 23c-105 0 -138 -26 -138 -90z" />
    <glyph glyph-name="tcaron.small" unicode="&#xe10e;" horiz-adv-x="485" 
d="M445 439h-167v-439h-71v439h-167v61h405v-61zM373 750h55l-145 -200h-80l-145 200h55l130 -141z" />
    <glyph glyph-name="tcommaaccent.small" unicode="&#xe10f;" horiz-adv-x="485" 
d="M445 439h-167v-439h-71v439h-167v61h405v-61zM203 -50h80l-56 -200h-50z" />
    <glyph glyph-name="tcedilla.small" unicode="&#xe110;" horiz-adv-x="485" 
d="M445 439h-167v-439h-71v439h-167v61h405v-61zM197 -95l5 45c94 -10 145 -51 145 -111c0 -54 -41 -89 -111 -89c-54 0 -83 12 -94 18v46s36 -13 77 -13s67 11 67 36c0 43 -42 62 -89 68z" />
    <glyph glyph-name="tdotbelow.small" unicode="&#xe111;" horiz-adv-x="485" 
d="M445 439h-167v-439h-71v439h-167v61h405v-61zM193 -150c0 28 22 50 50 50s50 -22 50 -50s-22 -50 -50 -50s-50 22 -50 50z" />
    <glyph glyph-name="tbar.small" unicode="&#xe112;" horiz-adv-x="485" 
d="M445 439h-167v-155h125v-55h-125v-229h-71v229h-125v55h125v155h-167v61h405v-61z" />
    <glyph glyph-name="uacute.small" unicode="&#xe113;" 
d="M310 550h-50l50 200h80zM285 -10c-149 0 -215 64 -215 170v340h66v-341c0 -80 62 -107 149 -107s149 27 149 107v341h66v-340c0 -106 -66 -170 -215 -170z" />
    <glyph glyph-name="ugrave.small" unicode="&#xe114;" 
d="M310 550h-50l-80 200h80zM285 -10c-149 0 -215 64 -215 170v340h66v-341c0 -80 62 -107 149 -107s149 27 149 107v341h66v-340c0 -106 -66 -170 -215 -170z" />
    <glyph glyph-name="ucircumflex.small" unicode="&#xe115;" 
d="M470 550h-55l-130 141l-130 -141h-55l145 200h80zM285 -10c-149 0 -215 64 -215 170v340h66v-341c0 -80 62 -107 149 -107s149 27 149 107v341h66v-340c0 -106 -66 -170 -215 -170z" />
    <glyph glyph-name="udieresis.small" unicode="&#xe116;" 
d="M285 -10c-149 0 -215 64 -215 170v340h66v-341c0 -80 62 -107 149 -107s149 27 149 107v341h66v-340c0 -106 -66 -170 -215 -170zM140 650c0 28 22 50 50 50s50 -22 50 -50s-22 -50 -50 -50s-50 22 -50 50zM330 650c0 28 22 50 50 50s50 -22 50 -50s-22 -50 -50 -50
s-50 22 -50 50z" />
    <glyph glyph-name="utilde.small" unicode="&#xe117;" 
d="M361 644c45 0 49 31 49 51h56c5 -70 -37 -110 -109 -110c-82 0 -93 71 -148 71c-45 0 -49 -31 -49 -51h-56c-5 70 37 110 109 110c82 0 93 -71 148 -71zM285 -10c-149 0 -215 64 -215 170v340h66v-341c0 -80 62 -107 149 -107s149 27 149 107v341h66v-340
c0 -106 -66 -170 -215 -170z" />
    <glyph glyph-name="uring.small" unicode="&#xe118;" 
d="M285 702c-31 0 -54 -15 -54 -52s23 -52 54 -52s54 15 54 52s-23 52 -54 52zM285 549c-60 0 -104 32 -104 101s44 101 104 101s104 -32 104 -101s-44 -101 -104 -101zM285 -10c-149 0 -215 64 -215 170v340h66v-341c0 -80 62 -107 149 -107s149 27 149 107v341h66v-340
c0 -106 -66 -170 -215 -170z" />
    <glyph glyph-name="ucaron.small" unicode="&#xe119;" 
d="M415 750h55l-145 -200h-80l-145 200h55l130 -141zM285 -10c-149 0 -215 64 -215 170v340h66v-341c0 -80 62 -107 149 -107s149 27 149 107v341h66v-340c0 -106 -66 -170 -215 -170z" />
    <glyph glyph-name="umacron.small" unicode="&#xe11a;" 
d="M148 620v60h274v-60h-274zM285 -10c-149 0 -215 64 -215 170v340h66v-341c0 -80 62 -107 149 -107s149 27 149 107v341h66v-340c0 -106 -66 -170 -215 -170z" />
    <glyph glyph-name="ubreve.small" unicode="&#xe11b;" 
d="M285 550c-115 0 -172 66 -175 200h51c2 -91 27 -140 124 -140s122 49 124 140h51c-3 -134 -60 -200 -175 -200zM285 -10c-149 0 -215 64 -215 170v340h66v-341c0 -80 62 -107 149 -107s149 27 149 107v341h66v-340c0 -106 -66 -170 -215 -170z" />
    <glyph glyph-name="uinvertedbreve.small" unicode="&#xe11c;" 
d="M285 750c115 0 172 -66 175 -200h-51c-2 91 -27 140 -124 140s-122 -49 -124 -140h-51c3 134 60 200 175 200zM285 -10c-149 0 -215 64 -215 170v340h66v-341c0 -80 62 -107 149 -107s149 27 149 107v341h66v-340c0 -106 -66 -170 -215 -170z" />
    <glyph glyph-name="uhungarumlaut.small" unicode="&#xe11d;" 
d="M285 -10c-149 0 -215 64 -215 170v340h66v-341c0 -80 62 -107 149 -107s149 27 149 107v341h66v-340c0 -106 -66 -170 -215 -170zM370 550h-50l50 200h80zM250 550h-50l50 200h80z" />
    <glyph glyph-name="udoublegrave.small" unicode="&#xe11e;" 
d="M285 -10c-149 0 -215 64 -215 170v340h66v-341c0 -80 62 -107 149 -107s149 27 149 107v341h66v-340c0 -106 -66 -170 -215 -170zM250 550h-50l-80 200h80zM370 550h-50l-80 200h80z" />
    <glyph glyph-name="udotbelow.small" unicode="&#xe11f;" 
d="M285 -10c-149 0 -215 64 -215 170v340h66v-341c0 -80 62 -107 149 -107s149 27 149 107v341h66v-340c0 -106 -66 -170 -215 -170zM235 -150c0 28 22 50 50 50s50 -22 50 -50s-22 -50 -50 -50s-50 22 -50 50z" />
    <glyph glyph-name="uogonek.small" unicode="&#xe120;" 
d="M500 160c0 -82 -39 -138 -125 -160c-65 -36 -106 -90 -106 -142c0 -31 15 -57 54 -57c22 0 43 4 57 8v-48c-17 -6 -42 -11 -71 -11c-60 0 -101 36 -101 95c0 53 26 105 75 145c-148 1 -213 64 -213 170v340h66v-341c0 -80 62 -107 149 -107s149 27 149 107v341h66v-340z
" />
    <glyph glyph-name="umacronbelow.small" unicode="&#xe121;" 
d="M148 -180v60h274v-60h-274zM285 -10c-149 0 -215 64 -215 170v340h66v-341c0 -80 62 -107 149 -107s149 27 149 107v341h66v-340c0 -106 -66 -170 -215 -170z" />
    <glyph glyph-name="wacute.small" unicode="&#xe122;" horiz-adv-x="740" 
d="M633 500h77l-146 -510h-52l-142 437l-142 -437h-52l-146 510h77l97 -397l129 397h74l129 -397zM395 550h-50l50 200h80z" />
    <glyph glyph-name="wgrave.small" unicode="&#xe123;" horiz-adv-x="740" 
d="M633 500h77l-146 -510h-52l-142 437l-142 -437h-52l-146 510h77l97 -397l129 397h74l129 -397zM395 550h-50l-70 200h70z" />
    <glyph glyph-name="wcircumflex.small" unicode="&#xe124;" horiz-adv-x="740" 
d="M633 500h77l-146 -510h-52l-142 437l-142 -437h-52l-146 510h77l97 -397l129 397h74l129 -397zM555 550h-55l-130 141l-130 -141h-55l145 200h80z" />
    <glyph glyph-name="wdieresis.small" unicode="&#xe125;" horiz-adv-x="740" 
d="M633 500h77l-146 -510h-52l-142 437l-142 -437h-52l-146 510h77l97 -397l129 397h74l129 -397zM225 650c0 28 22 50 50 50s50 -22 50 -50s-22 -50 -50 -50s-50 22 -50 50zM415 650c0 28 22 50 50 50s50 -22 50 -50s-22 -50 -50 -50s-50 22 -50 50z" />
    <glyph glyph-name="yacute.small" unicode="&#xe126;" horiz-adv-x="542" 
d="M296 550h-50l50 200h80zM434 500h83l-210 -320v-180h-71v180l-211 320h83l163 -267z" />
    <glyph glyph-name="ygrave.small" unicode="&#xe127;" horiz-adv-x="542" 
d="M296 550h-50l-80 200h80zM434 500h83l-210 -320v-180h-71v180l-211 320h83l163 -267z" />
    <glyph glyph-name="ycircumflex.small" unicode="&#xe128;" horiz-adv-x="542" 
d="M456 550h-55l-130 141l-130 -141h-55l145 200h80zM434 500h83l-210 -320v-180h-71v180l-211 320h83l163 -267z" />
    <glyph glyph-name="ydieresis.small" unicode="&#xe129;" horiz-adv-x="542" 
d="M434 500h83l-210 -320v-180h-71v180l-211 320h83l163 -267zM125 650c0 28 22 50 50 50s50 -22 50 -50s-22 -50 -50 -50s-50 22 -50 50zM315 650c0 28 22 50 50 50s50 -22 50 -50s-22 -50 -50 -50s-50 22 -50 50z" />
    <glyph glyph-name="ytilde.small" unicode="&#xe12a;" horiz-adv-x="542" 
d="M347 644c45 0 49 31 49 51h56c5 -70 -37 -110 -109 -110c-82 0 -93 71 -148 71c-45 0 -49 -31 -49 -51h-56c-5 70 37 110 109 110c82 0 93 -71 148 -71zM434 500h83l-210 -320v-180h-71v180l-211 320h83l163 -267z" />
    <glyph glyph-name="ymacron.small" unicode="&#xe12b;" horiz-adv-x="542" 
d="M134 620v60h274v-60h-274zM434 500h83l-210 -320v-180h-71v180l-211 320h83l163 -267z" />
    <glyph glyph-name="ij.small" unicode="&#xe12c;" horiz-adv-x="635" 
d="M163 0h-66v500h66v-500zM295 -3v63c24 -6 39 -8 70 -8c65 0 109 20 109 85v363h66v-360c0 -96 -50 -150 -175 -150c-21 0 -50 2 -70 7z" />
    <glyph glyph-name="zacute.small" unicode="&#xe12d;" horiz-adv-x="510" 
d="M280 550h-50l50 200h80zM465 0h-420v45l317 393h-302v62h395v-45l-317 -393h327v-62z" />
    <glyph glyph-name="zcaron.small" unicode="&#xe12e;" horiz-adv-x="510" 
d="M385 750h55l-145 -200h-80l-145 200h55l130 -141zM465 0h-420v45l317 393h-302v62h395v-45l-317 -393h327v-62z" />
    <glyph glyph-name="zdotaccent.small" unicode="&#xe12f;" horiz-adv-x="510" 
d="M465 0h-420v45l317 393h-302v62h395v-45l-317 -393h327v-62zM205 650c0 28 22 50 50 50s50 -22 50 -50s-22 -50 -50 -50s-50 22 -50 50z" />
    <glyph glyph-name="eng.small" unicode="&#xe130;" 
d="M495 -97c0 -104 -107 -159 -198 -164v61c59 8 135 35 135 112v111l-292 355l1 -378h-66v500h44l311 -378l-1 378h66v-597z" />
    <glyph glyph-name="eth.small" unicode="&#xe131;" horiz-adv-x="585" 
d="M25 277h90v223h168c172 0 242 -97 242 -250s-70 -250 -242 -250h-168v222h-90v55zM181 61h101c133 0 173 76 173 189s-40 189 -173 189h-101v-162h120v-55h-120v-161z" />
    <glyph glyph-name="thorn.small" unicode="&#xe132;" horiz-adv-x="490" 
d="M277 89h-136v-89h-66v500h66v-89h136c124 0 167 -75 167 -161s-44 -161 -167 -161zM373 250c0 48 -15 100 -98 100h-134v-200h134c83 0 98 52 98 100z" />
    <glyph glyph-name="ezh.small" unicode="&#xe133;" horiz-adv-x="500" 
d="M179 133h-68v49l234 256h-315v62h410v-49l-229 -250c140 0 268 -32 268 -218c0 -216 -170 -243 -284 -243c-73 0 -135 15 -170 32v65c37 -14 94 -32 171 -32c84 0 208 21 208 178c0 147 -107 150 -225 150z" />
    <glyph glyph-name="ezhcaron.small" unicode="&#xe134;" horiz-adv-x="500" 
d="M179 133h-68v49l234 256h-315v62h410v-49l-229 -250c140 0 268 -32 268 -218c0 -216 -170 -243 -284 -243c-73 0 -135 15 -170 32v65c37 -14 94 -32 171 -32c84 0 208 21 208 178c0 147 -107 150 -225 150zM366 750h55l-145 -200h-80l-145 200h55l130 -141z" />
    <glyph glyph-name="schwa.small" unicode="&#xe135;" 
d="M510 250c0 -144 -67 -260 -236 -260c-170 0 -215 116 -215 260v32h379c-4 87 -41 165 -164 165c-75 0 -143 -15 -190 -35v63c47 19 97 35 190 35c169 0 236 -116 236 -260zM274 53c121 0 161 82 164 172h-307c0 -89 23 -172 143 -172z" />
    <glyph glyph-name="ordfeminine.small" unicode="&#xe136;" horiz-adv-x="370" 
d="M371 378h-73l-40 103h-146l-40 -103h-73l161 382h50zM185 677l-53 -144h106z" />
    <glyph glyph-name="ordmasculine.small" unicode="&#xe137;" horiz-adv-x="439" 
d="M45 565c0 128 50 195 171 195s178 -67 178 -195s-57 -195 -178 -195s-171 67 -171 195zM109 565c0 -99 31 -135 107 -135c78 0 115 38 115 135s-37 135 -115 135c-76 0 -107 -36 -107 -135z" />
    <glyph glyph-name="cordinal.small" unicode="&#xe138;" horiz-adv-x="366" 
d="M216 430c45 0 77 5 105 12v-61c-34 -8 -71 -11 -105 -11c-121 0 -171 67 -171 195s50 195 171 195c34 0 71 -3 105 -11v-61c-28 7 -60 12 -105 12c-76 0 -107 -36 -107 -135s31 -135 107 -135z" />
    <glyph glyph-name="a.superior" unicode="&#xe139;" horiz-adv-x="269" 
d="M172 511c0 25 -10 39 -45 39c-33 0 -61 -7 -82 -15v48c20 9 53 15 83 15c82 0 101 -37 101 -90v-167h-34l-9 19c-20 -16 -47 -26 -75 -26c-64 0 -86 42 -86 81c0 53 32 77 91 82l56 5v9zM172 463l-51 -6c-31 -3 -40 -18 -40 -38c0 -19 9 -37 39 -37c22 0 38 7 52 17v64z
" />
    <glyph glyph-name="b.superior" unicode="&#xe13a;" horiz-adv-x="293" 
d="M156 598c78 0 107 -50 107 -132s-29 -132 -107 -132c-25 0 -54 10 -74 26l-9 -19h-33v375h57v-135c15 10 37 17 59 17zM150 551c-26 0 -43 -8 -53 -13v-143c10 -6 27 -13 53 -13c46 0 56 38 56 84s-10 85 -56 85z" />
    <glyph glyph-name="c.superior" unicode="&#xe13b;" horiz-adv-x="235" 
d="M87 466c0 -48 16 -82 63 -82c29 0 47 6 65 12v-49c-19 -9 -43 -13 -69 -13c-86 0 -116 54 -116 132c0 79 30 132 116 132c26 0 50 -4 69 -13v-49c-18 7 -36 12 -65 12c-47 0 -63 -33 -63 -82z" />
    <glyph glyph-name="d.superior" unicode="&#xe13c;" horiz-adv-x="293" 
d="M137 598c22 0 44 -7 59 -17v135h57v-375h-33l-9 19c-20 -16 -49 -26 -74 -26c-78 0 -107 50 -107 132s29 132 107 132zM143 551c-46 0 -56 -39 -56 -85s10 -84 56 -84c26 0 43 7 53 13v143c-10 5 -27 13 -53 13z" />
    <glyph glyph-name="e.superior" unicode="&#xe13d;" horiz-adv-x="273" 
d="M30 466c0 81 33 132 111 132c86 0 102 -56 102 -124l-1 -28h-155c2 -38 18 -63 65 -63c34 0 60 7 80 15v-48c-29 -12 -61 -16 -89 -16c-79 0 -113 51 -113 132zM141 549c-39 0 -53 -27 -54 -64h99c0 34 -4 64 -45 64z" />
    <glyph glyph-name="f.superior" unicode="&#xe13e;" horiz-adv-x="194" 
d="M189 717v-49c-9 3 -19 6 -37 6c-25 0 -45 -9 -45 -37v-46h72v-48h-72v-202h-57v202h-45v35l45 13v51c0 53 30 81 98 81c11 0 29 -1 41 -6z" />
    <glyph glyph-name="g.superior" unicode="&#xe13f;" horiz-adv-x="272" 
d="M124 407c-10 0 -20 1 -29 2c-4 -3 -6 -9 -6 -14c0 -8 3 -13 14 -14l91 -11c51 -6 68 -29 68 -71c0 -64 -69 -90 -142 -90c-67 0 -115 22 -115 74c0 34 25 53 51 62c-12 8 -19 20 -19 37s10 30 23 39c-29 16 -41 45 -41 82c0 57 29 95 105 95c20 0 36 -2 50 -7h83v-36
l-36 -10c6 -12 8 -27 8 -42c0 -58 -28 -96 -105 -96zM178 323l-71 9c-22 -4 -48 -13 -48 -39c0 -27 20 -38 65 -38c44 0 80 12 80 45c0 15 -8 21 -26 23zM124 452c42 0 51 22 51 51c0 28 -9 50 -51 50c-41 0 -50 -22 -50 -50c0 -29 9 -51 50 -51z" />
    <glyph glyph-name="h.superior" unicode="&#xe140;" horiz-adv-x="285" 
d="M40 716h57v-135c19 11 41 17 64 17c66 0 89 -32 89 -80v-177h-58v173c0 25 -12 36 -39 36c-26 0 -43 -6 -56 -14v-195h-57v375z" />
    <glyph glyph-name="i.superior" unicode="&#xe141;" horiz-adv-x="140" 
d="M116 336h-12c-39 0 -66 19 -66 63v192h57v-188c0 -14 5 -19 21 -19v-48zM29 665c0 20 17 37 38 37c20 0 37 -17 37 -37c0 -21 -17 -38 -37 -38c-21 0 -38 17 -38 38z" />
    <glyph glyph-name="j.superior" unicode="&#xe142;" horiz-adv-x="138" 
d="M-15 209v48c37 2 58 19 58 50v284h57v-291c0 -62 -59 -90 -115 -91zM34 665c0 20 17 37 38 37c20 0 37 -17 37 -37c0 -21 -17 -38 -37 -38c-21 0 -38 17 -38 38z" />
    <glyph glyph-name="k.superior" unicode="&#xe143;" horiz-adv-x="273" 
d="M96 716v-221l88 96h74l-103 -102l113 -148h-71l-78 111l-23 -24v-87h-56v375h56z" />
    <glyph glyph-name="l.superior" unicode="&#xe144;" horiz-adv-x="140" 
d="M116 336h-12c-39 0 -66 19 -66 63v317h57v-313c0 -14 5 -19 21 -19v-48z" />
    <glyph glyph-name="m.superior" unicode="&#xe145;" horiz-adv-x="419" 
d="M327 341v178c0 23 -13 31 -35 31c-24 0 -40 -7 -53 -14c1 -9 2 -19 2 -28v-167h-58v178c0 23 -13 31 -35 31c-23 0 -38 -6 -51 -14v-195h-57v250h33l9 -19c21 16 49 26 74 26c36 0 55 -10 66 -25c22 15 49 25 77 25c62 0 85 -33 85 -80v-177h-57z" />
    <glyph glyph-name="n.superior" unicode="&#x207f;" horiz-adv-x="285" 
d="M40 591h33l9 -19c22 16 50 26 79 26c66 0 89 -32 89 -80v-177h-58v173c0 25 -12 36 -39 36c-26 0 -43 -6 -56 -14v-195h-57v250z" />
    <glyph glyph-name="o.superior" unicode="&#xe146;" horiz-adv-x="282" 
d="M252 466c0 -77 -25 -132 -111 -132c-85 0 -111 55 -111 132c0 78 26 132 111 132c86 0 111 -54 111 -132zM141 382c46 0 54 31 54 84s-8 85 -54 85c-47 0 -54 -32 -54 -85s7 -84 54 -84z" />
    <glyph glyph-name="p.superior" unicode="&#xe147;" horiz-adv-x="293" 
d="M156 334c-22 0 -44 7 -59 18v-136h-57v375h33l9 -19c20 16 49 26 74 26c78 0 107 -50 107 -132s-29 -132 -107 -132zM150 382c46 0 56 38 56 84c0 47 -10 85 -56 85c-26 0 -43 -8 -53 -13v-143c10 -6 27 -13 53 -13z" />
    <glyph glyph-name="q.superior" unicode="&#xe148;" horiz-adv-x="293" 
d="M137 334c-78 0 -107 50 -107 132s29 132 107 132c25 0 54 -10 74 -26l9 19h33v-375h-57v136c-15 -11 -37 -18 -59 -18zM143 382c26 0 43 7 53 13v143c-10 5 -27 13 -53 13c-46 0 -56 -38 -56 -85c0 -46 10 -84 56 -84z" />
    <glyph glyph-name="r.superior" unicode="&#xe149;" horiz-adv-x="197" 
d="M187 595v-49c-5 1 -15 3 -27 3c-29 0 -50 -7 -63 -16v-192h-57v250h33l9 -19c19 16 49 26 75 26c15 0 24 -2 30 -3z" />
    <glyph glyph-name="s.superior" unicode="&#xe14a;" horiz-adv-x="245" 
d="M207 586v-49c-21 8 -45 14 -77 14c-36 0 -47 -13 -47 -31s9 -25 41 -28c75 -7 94 -27 94 -76c0 -43 -26 -82 -106 -82c-36 0 -66 7 -83 14v49c19 -8 48 -15 82 -15c38 0 51 14 51 32s-8 28 -40 30c-76 7 -95 28 -95 74c0 43 28 80 102 80c35 0 59 -4 78 -12z" />
    <glyph glyph-name="t.superior" unicode="&#xe14b;" horiz-adv-x="177" 
d="M165 383v-46c-8 -2 -23 -3 -32 -3c-56 0 -88 25 -88 79v130h-45v35l45 13v60l58 15v-75h69v-48h-69v-125c0 -25 12 -37 40 -37c9 0 17 1 22 2z" />
    <glyph glyph-name="u.superior" unicode="&#xe14c;" horiz-adv-x="285" 
d="M245 341h-33l-9 20c-22 -17 -50 -27 -79 -27c-66 0 -89 33 -89 81v176h58v-172c0 -26 12 -37 39 -37c26 0 43 7 56 15v194h57v-250z" />
    <glyph glyph-name="v.superior" unicode="&#xe14d;" horiz-adv-x="258" 
d="M153 336h-48l-95 255h61l58 -180l58 180h61z" />
    <glyph glyph-name="w.superior" unicode="&#xe14e;" horiz-adv-x="360" 
d="M206 591l47 -171l34 171h58l-64 -255h-49l-52 191l-52 -191h-49l-64 255h58l34 -171l48 171h51z" />
    <glyph glyph-name="x.superior" unicode="&#xe14f;" horiz-adv-x="261" 
d="M183 341l-53 90l-52 -90h-68l83 129l-78 121h67l48 -83l48 83h67l-78 -121l84 -129h-68z" />
    <glyph glyph-name="y.superior" unicode="&#xe150;" horiz-adv-x="258" 
d="M10 591h64l55 -176l56 176h63l-144 -375h-62l60 137z" />
    <glyph glyph-name="z.superior" unicode="&#xe151;" horiz-adv-x="245" 
d="M225 341h-205v41l126 159h-117v50h190v-40l-126 -160l132 1v-51z" />
    <glyph glyph-name="ampersand" unicode="&#x26;" horiz-adv-x="705" 
d="M141 592c0 81 44 168 174 168s173 -87 173 -168c0 -107 -90 -149 -188 -195l-26 -12c16 -25 34 -50 53 -73c54 -66 113 -118 175 -159c71 78 113 200 113 347h68c0 -163 -46 -295 -123 -384c48 -27 97 -50 146 -70l-24 -56c-57 23 -114 49 -168 81
c-65 -52 -144 -81 -235 -81c-125 0 -234 53 -234 208c0 128 65 177 139 214c-27 55 -43 115 -43 180zM278 269c-23 28 -44 57 -63 87c-56 -30 -100 -66 -100 -158c0 -114 88 -144 164 -144c66 0 124 19 173 55c-62 42 -120 93 -174 160zM210 592c0 -54 13 -104 35 -152
l27 13c75 34 148 66 148 139c0 53 -24 106 -105 106s-105 -52 -105 -106z" />
    <glyph glyph-name="ampersand.alt" unicode="&#xe160;" horiz-adv-x="705" 
d="M465 590h-62c4 12 7 27 7 48c0 30 -11 60 -85 60c-89 0 -107 -69 -107 -123c0 -132 77 -377 272 -476c58 37 100 97 100 186c0 114 -53 153 -125 153c-57 0 -82 -5 -120 -17v60c50 16 80 19 120 19c112 0 195 -65 195 -215c0 -95 -41 -165 -100 -214
c35 -10 73 -15 115 -15v-66c-69 0 -131 13 -186 37c-54 -25 -113 -37 -169 -37c-161 0 -280 66 -280 235c0 100 62 165 130 198c-14 52 -21 104 -21 152c0 81 42 185 176 185c119 0 150 -55 150 -122c0 -16 -5 -35 -10 -48zM320 52c31 0 64 4 96 13
c-108 70 -184 181 -226 295c-42 -22 -80 -62 -80 -135c0 -122 88 -173 210 -173z" />
    <glyph glyph-name="ampersand.small" unicode="&#xe161;" horiz-adv-x="705" 
d="M152 500h71c19 -69 58 -132 104 -188c54 -66 113 -118 175 -159c71 78 113 200 113 347h68c0 -163 -46 -295 -123 -384c48 -27 97 -50 146 -70l-24 -56c-57 23 -114 49 -168 81c-65 -52 -144 -81 -235 -81c-125 0 -234 53 -234 208c0 128 65 177 139 214
c-14 28 -25 57 -32 88zM278 269c-23 28 -44 57 -63 87c-56 -30 -100 -66 -100 -158c0 -114 88 -144 164 -144c66 0 124 19 173 55c-62 42 -120 93 -174 160z" />
    <glyph glyph-name="acute" unicode="&#xb4;" 
d="M310 550h-50l50 200h80z" />
    <glyph glyph-name="grave" unicode="`" 
d="M310 550h-50l-80 200h80z" />
    <glyph glyph-name="circumflex" unicode="&#x2c6;" 
d="M470 550h-55l-130 141l-130 -141h-55l145 200h80z" />
    <glyph glyph-name="dieresis" unicode="&#xa8;" 
d="M140 650c0 28 22 50 50 50s50 -22 50 -50s-22 -50 -50 -50s-50 22 -50 50zM330 650c0 28 22 50 50 50s50 -22 50 -50s-22 -50 -50 -50s-50 22 -50 50z" />
    <glyph glyph-name="tilde" unicode="&#x2dc;" 
d="M361 644c45 0 49 31 49 51h56c5 -70 -37 -110 -109 -110c-82 0 -93 71 -148 71c-45 0 -49 -31 -49 -51h-56c-5 70 37 110 109 110c82 0 93 -71 148 -71z" />
    <glyph glyph-name="ring" unicode="&#x2da;" 
d="M285 702c-31 0 -54 -15 -54 -52s23 -52 54 -52s54 15 54 52s-23 52 -54 52zM285 549c-60 0 -104 32 -104 101s44 101 104 101s104 -32 104 -101s-44 -101 -104 -101z" />
    <glyph glyph-name="caron" unicode="&#x2c7;" 
d="M415 750h55l-145 -200h-80l-145 200h55l130 -141z" />
    <glyph glyph-name="caronSlovak" unicode="&#xe162;" 
d="M351 750h78l-48 -200h-46z" />
    <glyph glyph-name="macron" unicode="&#xaf;" 
d="M148 620v60h274v-60h-274z" />
    <glyph glyph-name="breve" unicode="&#x2d8;" 
d="M285 550c-115 0 -172 66 -175 200h51c2 -91 27 -140 124 -140s122 49 124 140h51c-3 -134 -60 -200 -175 -200z" />
    <glyph glyph-name="invertedbreve" unicode="&#xe163;" 
d="M285 750c115 0 172 -66 175 -200h-51c-2 91 -27 140 -124 140s-122 -49 -124 -140h-51c3 134 60 200 175 200z" />
    <glyph glyph-name="hungarumlaut" unicode="&#x2dd;" 
d="M370 550h-50l50 200h80zM250 550h-50l50 200h80z" />
    <glyph glyph-name="doublegrave" unicode="&#xe164;" 
d="M250 550h-50l-80 200h80zM370 550h-50l-80 200h80z" />
    <glyph glyph-name="dotaccent" unicode="&#x2d9;" 
d="M235 650c0 28 22 50 50 50s50 -22 50 -50s-22 -50 -50 -50s-50 22 -50 50z" />
    <glyph glyph-name="commaaccent" unicode="&#xe165;" 
d="M252 -50h80l-56 -200h-50z" />
    <glyph glyph-name="cedilla" unicode="&#xb8;" 
d="M265 0h40l5 -64c40 -10 95 -35 95 -97c0 -54 -41 -89 -111 -89c-54 0 -83 12 -94 18v46s36 -13 77 -13s67 11 67 36c0 43 -42 57 -89 63z" />
    <glyph glyph-name="altcedilla" unicode="&#xe166;" 
d="M245 -95l5 45c94 -10 145 -51 145 -111c0 -54 -41 -89 -111 -89c-54 0 -83 12 -94 18v46s36 -13 77 -13s67 11 67 36c0 43 -42 62 -89 68z" />
    <glyph glyph-name="ogonek" unicode="&#x2db;" 
d="M335 34l21 -34c-65 -36 -106 -90 -106 -142c0 -31 15 -57 54 -57c22 0 43 4 57 8v-48c-17 -6 -42 -11 -71 -11c-60 0 -101 36 -101 95c0 75 52 146 146 189z" />
    </font>
</defs>
</svg>
