<?xml version="1.0" standalone="no"?>
<!DOCTYPE svg PUBLIC "-//W3C//DTD SVG 1.1//EN" "http://www.w3.org/Graphics/SVG/1.1/DTD/svg11.dtd" >
<svg xmlns="http://www.w3.org/2000/svg" xmlns:xlink="http://www.w3.org/1999/xlink" version="1.1">
<metadata>
Created by FontForge 20181214 at Wed Jan 18 14:38:21 2006
 By convertio
Copyright (c) Village Type &#38; Design LLC. All rights reserved.
</metadata>
<defs>
<font id="ApexNew-BookItalic" horiz-adv-x="570" >
  <font-face 
    font-family="Apex New Book Italic"
    font-weight="525"
    font-style="italic"
    font-stretch="normal"
    units-per-em="1000"
    panose-1="2 1 6 0 4 5 1 1 1 3"
    ascent="750"
    descent="-250"
    x-height="500"
    cap-height="750"
    bbox="-110 -270 1466 995"
    underline-thickness="25"
    underline-position="-100"
    unicode-range="U+0020-FF3F"
  />
<missing-glyph horiz-adv-x="649" 
d="M403 293h-156v242h156v-242zM325 47c-107 0 -201 -25 -275 -57v166c74 31 167 52 275 52s201 -21 275 -52v-166c-74 32 -168 57 -275 57zM515 760c54 0 95 -41 95 -95c0 -53 -41 -95 -95 -95c-53 0 -95 42 -95 95c0 54 42 95 95 95zM135 760c53 0 95 -41 95 -95
c0 -53 -42 -95 -95 -95c-54 0 -95 42 -95 95c0 54 41 95 95 95z" />
    <glyph glyph-name="f_b" unicode="fb" horiz-adv-x="915" 
d="M687 510c161 0 191 -116 173 -260c-17 -144 -76 -260 -237 -260c-54 0 -102 18 -149 51l-20 -41h-39l85 694c-20 2 -42 4 -65 4c-105 0 -196 -28 -207 -113l-10 -85h158l-7 -55h-158l-85 -695h-67l85 695h-100l4 31l104 29l9 80c15 116 117 175 282 175
c41 0 95 -4 134 -10l-35 -281c47 28 99 41 145 41zM680 448c-65 0 -103 -11 -144 -32l-41 -332c36 -21 71 -32 136 -32c120 0 147 99 159 198s10 198 -110 198z" />
    <glyph glyph-name="f_f_b" unicode="ffb" horiz-adv-x="1240" 
d="M432 753l-8 -63c-19 5 -38 8 -69 8c-65 0 -116 -23 -124 -88l-13 -110h258l10 85c15 116 117 175 282 175c41 0 95 -4 134 -10l-35 -281c47 28 99 41 145 41c161 0 191 -116 173 -260c-17 -144 -76 -260 -237 -260c-54 0 -102 18 -149 51l-20 -41h-39l85 694
c-20 2 -42 4 -65 4c-105 0 -196 -28 -207 -113l-10 -85h158l-7 -55h-158l-85 -695h-67l85 695h-258l-85 -695h-67l85 695h-100l4 31l104 29l12 105c12 96 74 150 199 150c21 0 50 -2 69 -7zM1005 448c-65 0 -103 -11 -144 -32l-41 -332c36 -21 71 -32 136 -32
c120 0 147 99 159 198s10 198 -110 198z" />
    <glyph glyph-name="ff" unicode="ff" horiz-adv-x="700" 
d="M757 753l-8 -63c-19 5 -38 8 -69 8c-65 0 -116 -23 -124 -88l-13 -110h158l-7 -55h-158l-85 -695h-67l85 695h-258l-85 -695h-67l85 695h-100l4 31l104 29l12 105c12 96 74 150 199 150c21 0 50 -2 69 -7l-8 -63c-19 5 -38 8 -69 8c-65 0 -116 -23 -124 -88l-13 -110h258
l13 110c12 96 74 150 199 150c21 0 50 -2 69 -7z" />
    <glyph glyph-name="f_h" unicode="fh" horiz-adv-x="880" 
d="M764 363c8 65 -27 85 -89 85c-65 0 -102 -11 -141 -32l-51 -416h-68l85 694c-20 2 -42 4 -65 4c-105 0 -196 -28 -207 -113l-10 -85h158l-7 -55h-158l-85 -695h-67l85 695h-100l4 31l104 29l9 80c15 116 117 175 282 175c41 0 93 -4 132 -10l-35 -281c47 28 96 41 142 41
c119 0 163 -54 152 -150l-44 -360h-70z" />
    <glyph glyph-name="f_f_h" unicode="ffh" horiz-adv-x="1205" 
d="M432 753l-8 -63c-19 5 -38 8 -69 8c-65 0 -116 -23 -124 -88l-13 -110h258l10 85c15 116 117 175 282 175c41 0 93 -4 132 -10l-35 -281c47 28 96 41 142 41c119 0 163 -54 152 -150l-44 -360h-70l44 363c8 65 -27 85 -89 85c-65 0 -102 -11 -141 -32l-51 -416h-68
l85 694c-20 2 -42 4 -65 4c-105 0 -196 -28 -207 -113l-10 -85h158l-7 -55h-158l-85 -695h-67l85 695h-258l-85 -695h-67l85 695h-100l4 31l104 29l12 105c12 96 74 150 199 150c21 0 50 -2 69 -7z" />
    <glyph glyph-name="fi" unicode="fi" horiz-adv-x="605" 
d="M523 -10c-72 0 -106 30 -96 110l42 345h-258l-85 -695h-67l85 695h-100l4 31l104 29l9 80c15 116 117 175 282 175c41 0 95 -4 132 -9l-8 -66c-43 7 -81 13 -132 13c-105 0 -196 -28 -207 -113l-10 -85h326l-50 -408c-5 -35 5 -45 36 -45z" />
    <glyph glyph-name="ffi" unicode="ffi" horiz-adv-x="930" 
d="M848 -10c-72 0 -106 30 -96 110l42 345h-258l-85 -695h-67l85 695h-258l-85 -695h-67l85 695h-100l4 31l104 29l12 105c12 96 74 150 199 150c21 0 50 -2 69 -7l-8 -63c-19 5 -38 8 -69 8c-65 0 -116 -23 -124 -88l-13 -110h258l10 85c15 116 117 175 282 175
c41 0 95 -4 132 -9l-8 -66c-43 7 -81 13 -132 13c-105 0 -196 -28 -207 -113l-10 -85h326l-50 -408c-5 -35 5 -45 36 -45z" />
    <glyph glyph-name="f_j" unicode="fj" horiz-adv-x="594" 
d="M255 -260l7 59c60 8 132 37 142 114l65 532h-258l-85 -695h-67l85 695h-100l4 31l104 29l9 80c15 116 117 175 282 175c41 0 95 -4 132 -9l-8 -66c-43 7 -81 13 -132 13c-105 0 -196 -28 -207 -113l-10 -85h326l-73 -596c-13 -104 -125 -159 -216 -164z" />
    <glyph glyph-name="f_f_j" unicode="ffj" horiz-adv-x="919" 
d="M432 753l-8 -63c-19 5 -38 8 -69 8c-65 0 -116 -23 -124 -88l-13 -110h258l10 85c15 116 117 175 282 175c41 0 95 -4 132 -9l-8 -66c-43 7 -81 13 -132 13c-105 0 -196 -28 -207 -113l-10 -85h326l-73 -596c-13 -104 -125 -159 -216 -164l7 59c60 8 132 37 142 114
l65 532h-258l-85 -695h-67l85 695h-258l-85 -695h-67l85 695h-100l4 31l104 29l12 105c12 96 74 150 199 150c21 0 50 -2 69 -7z" />
    <glyph glyph-name="f_k" unicode="fk" horiz-adv-x="880" 
d="M864 500l-240 -206l206 -294h-87l-166 254l-71 -60l-23 -194h-68l85 694c-20 2 -42 4 -65 4c-105 0 -196 -28 -207 -113l-10 -85h158l-7 -55h-158l-85 -695h-67l85 695h-100l4 31l104 29l9 80c15 116 117 175 282 175c41 0 93 -4 132 -10l-59 -474l254 224h94z" />
    <glyph glyph-name="f_f_k" unicode="ffk" horiz-adv-x="1205" 
d="M432 753l-8 -63c-19 5 -38 8 -69 8c-65 0 -116 -23 -124 -88l-13 -110h258l10 85c15 116 117 175 282 175c41 0 93 -4 132 -10l-59 -474l254 224h94l-240 -206l206 -294h-87l-166 254l-71 -60l-23 -194h-68l85 694c-20 2 -42 4 -65 4c-105 0 -196 -28 -207 -113l-10 -85
h158l-7 -55h-158l-85 -695h-67l85 695h-258l-85 -695h-67l85 695h-100l4 31l104 29l12 105c12 96 74 150 199 150c21 0 50 -2 69 -7z" />
    <glyph glyph-name="fl" unicode="fl" horiz-adv-x="605" 
d="M523 -10c-72 0 -106 30 -96 110l73 594c-20 2 -42 4 -65 4c-105 0 -196 -28 -207 -113l-10 -85h158l-7 -55h-158l-85 -695h-67l85 695h-100l4 31l104 29l9 80c15 116 117 175 282 175c41 0 95 -4 132 -9l-81 -659c-5 -35 5 -45 36 -45z" />
    <glyph glyph-name="ffl" unicode="ffl" horiz-adv-x="930" 
d="M432 753l-8 -63c-19 5 -38 8 -69 8c-65 0 -116 -23 -124 -88l-13 -110h258l10 85c15 116 117 175 282 175c41 0 95 -4 132 -9l-81 -659c-5 -35 5 -45 36 -45l-7 -57c-72 0 -106 30 -96 110l73 594c-20 2 -42 4 -65 4c-105 0 -196 -28 -207 -113l-10 -85h158l-7 -55h-158
l-85 -695h-67l85 695h-258l-85 -695h-67l85 695h-100l4 31l104 29l12 105c12 96 74 150 199 150c21 0 50 -2 69 -7z" />
    <glyph glyph-name="f_t" unicode="ft" horiz-adv-x="700" 
d="M626 50l-7 -56c-13 -3 -33 -4 -46 -4c-83 0 -155 38 -143 136l39 319h-258l-85 -695h-67l85 695h-100l4 31l104 29l12 105c12 96 74 150 199 150c21 0 50 -2 69 -7l-8 -63c-19 5 -38 8 -69 8c-65 0 -116 -23 -124 -88l-13 -110h258l17 140l73 20l-20 -160h155l-7 -55
h-155l-38 -311c-8 -61 22 -86 85 -86c13 0 27 1 40 2z" />
    <glyph glyph-name="f_f_t" unicode="fft" horiz-adv-x="1025" 
d="M432 753l-8 -63c-19 5 -38 8 -69 8c-65 0 -116 -23 -124 -88l-13 -110h258l13 110c12 96 74 150 199 150c21 0 50 -2 69 -7l-8 -63c-19 5 -38 8 -69 8c-65 0 -116 -23 -124 -88l-13 -110h258l17 140l73 20l-20 -160h155l-7 -55h-155l-38 -311c-8 -61 22 -86 85 -86
c13 0 27 1 40 2l-7 -56c-13 -3 -33 -4 -46 -4c-83 0 -155 38 -143 136l39 319h-258l-85 -695h-67l85 695h-258l-85 -695h-67l85 695h-100l4 31l104 29l12 105c12 96 74 150 199 150c21 0 50 -2 69 -7z" />
    <glyph glyph-name="f_dotlessi" unicode="f&#x131;" horiz-adv-x="605" 
d="M152 505l12 105c12 96 74 150 199 150c21 0 50 -2 69 -7l-8 -63c-19 5 -38 8 -69 8c-65 0 -116 -23 -124 -88l-13 -110h326l-50 -408c-5 -35 5 -45 36 -45l-7 -57c-72 0 -106 30 -96 110l42 345h-258l-85 -695h-67l85 695h-100l4 31z" />
    <glyph glyph-name="f_f_dotlessi" unicode="ff&#x131;" horiz-adv-x="930" 
d="M543 500h326l-50 -408c-5 -35 5 -45 36 -45l-7 -57c-72 0 -106 30 -96 110l42 345h-258l-85 -695h-67l85 695h-258l-85 -695h-67l85 695h-100l4 31l104 29l12 105c12 96 74 150 199 150c21 0 50 -2 69 -7l-8 -63c-19 5 -38 8 -69 8c-65 0 -116 -23 -124 -88l-13 -110h258
l13 110c12 96 74 150 199 150c21 0 50 -2 69 -7l-8 -63c-19 5 -38 8 -69 8c-65 0 -116 -23 -124 -88z" />
    <glyph glyph-name="f_t_t" unicode="ftt" horiz-adv-x="1025" 
d="M626 50l-7 -56c-13 -3 -33 -4 -46 -4c-83 0 -155 38 -143 136l39 319h-258l-85 -695h-67l85 695h-100l4 31l104 29l12 105c12 96 74 150 199 150c21 0 50 -2 69 -7l-8 -63c-19 5 -38 8 -69 8c-65 0 -116 -23 -124 -88l-13 -110h258l17 140l73 20l-20 -160h255l17 140
l73 20l-20 -160h155l-7 -55h-155l-38 -311c-8 -61 22 -86 85 -86c13 0 27 1 40 2l-7 -56c-13 -3 -33 -4 -46 -4c-83 0 -155 38 -143 136l39 319h-255l-38 -311c-8 -61 22 -86 85 -86c13 0 27 1 40 2z" />
    <glyph glyph-name="t_t" unicode="tt" horiz-adv-x="700" 
d="M626 50l-7 -56c-13 -3 -33 -4 -46 -4c-83 0 -155 38 -143 136l39 319h-255l-38 -311c-8 -61 22 -86 85 -86c13 0 27 1 40 2l-7 -56c-13 -3 -33 -4 -46 -4c-83 0 -155 38 -143 136l39 319h-100l4 31l104 29l16 135l73 20l-20 -160h255l17 140l73 20l-20 -160h155l-7 -55
h-155l-38 -311c-8 -61 22 -86 85 -86c13 0 27 1 40 2z" />
    <glyph glyph-name="interrobang" unicode="&#x21;&#x3f;" horiz-adv-x="470" 
d="M194 210h-40l33 486c-48 -4 -86 -13 -110 -21l8 60c33 13 109 25 157 25c210 0 234 -96 222 -198c-16 -126 -94 -163 -210 -208c-15 -6 -28 -12 -37 -19zM396 561c9 73 -8 124 -115 135l-53 -296c6 2 12 4 18 7c70 25 138 50 150 154zM103 40c0 28 22 50 50 50
s50 -22 50 -50s-22 -50 -50 -50s-50 22 -50 50z" />
    <glyph glyph-name="interrobangdown" unicode="&#xa1;&#xbf;" horiz-adv-x="470" 
d="M276 290h40l-33 -486c48 4 85 13 110 21l-7 -60c-34 -13 -109 -25 -157 -25c-210 0 -235 96 -222 198c15 126 93 163 209 208c15 5 27 11 38 18zM74 -61c-9 -73 8 -124 115 -135l53 296c-6 -3 -12 -5 -18 -7c-69 -25 -137 -50 -150 -154zM267 460c0 28 22 50 50 50
s50 -22 50 -50s-22 -50 -50 -50s-50 22 -50 50z" />
    <glyph glyph-name=".notdef" horiz-adv-x="649" 
d="M403 293h-156v242h156v-242zM325 47c-107 0 -201 -25 -275 -57v166c74 31 167 52 275 52s201 -21 275 -52v-166c-74 32 -168 57 -275 57zM515 760c54 0 95 -41 95 -95c0 -53 -41 -95 -95 -95c-53 0 -95 42 -95 95c0 54 42 95 95 95zM135 760c53 0 95 -41 95 -95
c0 -53 -42 -95 -95 -95c-54 0 -95 42 -95 95c0 54 41 95 95 95z" />
    <glyph glyph-name="space" unicode=" " horiz-adv-x="170" 
 />
    <glyph glyph-name="A" unicode="A" horiz-adv-x="630" 
d="M72 0h-77l358 760h50l172 -760h-77l-44 210h-288zM364 646l-171 -377h249z" />
    <glyph glyph-name="B" unicode="B" horiz-adv-x="615" 
d="M45 0l92 750h237c175 0 222 -89 208 -198c-8 -65 -48 -128 -117 -156c83 -23 110 -105 100 -185c-14 -117 -89 -211 -276 -211h-244zM157 359l-37 -296h185c141 0 178 76 186 148c13 101 -24 148 -147 148h-187zM508 552c8 66 -5 135 -132 135h-179l-33 -265h187
c113 0 149 66 157 130z" />
    <glyph glyph-name="C" unicode="C" horiz-adv-x="610" 
d="M76 375c26 213 118 385 342 385c92 0 152 -17 191 -35l-9 -67c-65 28 -115 39 -190 39c-164 0 -240 -141 -262 -322c-23 -181 19 -322 183 -322c75 0 127 11 200 39l-8 -67c-44 -18 -108 -35 -200 -35c-224 0 -274 172 -247 385z" />
    <glyph glyph-name="D" unicode="D" horiz-adv-x="655" 
d="M249 0h-204l92 750h204c245 0 296 -162 270 -375c-27 -213 -117 -375 -362 -375zM197 687l-77 -624h140c180 0 256 132 279 312c22 180 -22 312 -202 312h-140z" />
    <glyph glyph-name="E" unicode="E" 
d="M496 422l-7 -63h-332l-37 -296h367l-7 -63h-435l92 750h435l-8 -63h-367l-33 -265h332z" />
    <glyph glyph-name="F" unicode="F" horiz-adv-x="550" 
d="M486 422l-7 -63h-322l-44 -359h-68l92 750h425l-8 -63h-357l-33 -265h322z" />
    <glyph glyph-name="G" unicode="G" horiz-adv-x="660" 
d="M323 -10c-224 0 -274 172 -247 385c26 213 118 385 342 385c104 0 166 -21 205 -42l-9 -68c-74 32 -123 47 -204 47c-164 0 -240 -141 -262 -322c-23 -181 19 -322 183 -322c57 0 128 5 165 22l31 256h-157l8 63h225l-45 -363c-54 -24 -130 -41 -235 -41z" />
    <glyph glyph-name="H" unicode="H" horiz-adv-x="660" 
d="M555 0h-68l44 359h-374l-44 -359h-68l92 750h68l-41 -328h374l41 328h68z" />
    <glyph glyph-name="I" unicode="I" horiz-adv-x="260" 
d="M135 0h-70l92 750h70z" />
    <glyph glyph-name="J" unicode="J" horiz-adv-x="379" 
d="M4 -3l8 64c23 -6 38 -8 69 -8c65 0 111 20 119 85l76 612h70l-75 -610c-12 -96 -73 -150 -198 -150c-21 0 -49 2 -69 7z" />
    <glyph glyph-name="K" unicode="K" horiz-adv-x="595" 
d="M455 0l-233 363l-74 -75l-35 -288h-68l92 750h68l-46 -374l359 374h88l-334 -336l272 -414h-89z" />
    <glyph glyph-name="L" unicode="L" horiz-adv-x="530" 
d="M205 750l-85 -687h347l-7 -63h-415l92 750h68z" />
    <glyph glyph-name="M" unicode="M" horiz-adv-x="840" 
d="M752 661l-320 -546h-56l-186 546l-77 -661h-68l92 750h92l185 -552l321 552h92l-92 -750h-68z" />
    <glyph glyph-name="N" unicode="N" horiz-adv-x="670" 
d="M565 0h-51l-328 611l-73 -611h-68l92 750h51l328 -611l73 611h68z" />
    <glyph glyph-name="O" unicode="O" horiz-adv-x="680" 
d="M316 53c181 0 225 142 248 322c22 180 12 322 -169 322s-225 -142 -247 -322c-23 -180 -13 -322 168 -322zM308 -10c-245 0 -257 189 -232 385c24 196 82 385 327 385s257 -189 233 -385c-25 -196 -83 -385 -328 -385z" />
    <glyph glyph-name="P" unicode="P" horiz-adv-x="590" 
d="M149 300l-36 -300h-68l92 750h229c187 0 237 -108 223 -225s-92 -225 -279 -225h-161zM197 687l-40 -324h170c141 0 179 90 188 162s-7 162 -148 162h-170z" />
    <glyph glyph-name="Q" unicode="Q" horiz-adv-x="680" 
d="M393 7v-1l280 -58l-9 -72l-446 124c-159 44 -164 202 -142 375c26 214 87 385 327 385c243 0 259 -171 233 -385c-23 -186 -63 -334 -243 -368zM316 53c181 0 225 142 248 322c22 180 12 322 -169 322s-225 -142 -247 -322c-23 -180 -13 -322 168 -322z" />
    <glyph glyph-name="R" unicode="R" horiz-adv-x="621" 
d="M153 328l-40 -328h-68l92 750h235c187 0 235 -82 219 -211c-13 -100 -56 -172 -163 -199l138 -340h-79l-128 329c-11 -1 -22 -1 -33 -1h-173zM197 687l-36 -296h185c133 0 161 68 171 148s-2 148 -135 148h-185z" />
    <glyph glyph-name="S" unicode="S" horiz-adv-x="595" 
d="M360 697c-148 0 -190 -68 -200 -147c-13 -107 48 -117 164 -132c144 -19 231 -55 213 -202c-13 -102 -82 -226 -305 -226c-69 0 -160 19 -205 40l8 65c46 -16 102 -42 206 -42c156 0 212 73 223 163c13 107 -28 128 -151 144c-175 22 -238 63 -222 191
c11 87 68 209 278 209c92 0 152 -16 191 -35l-9 -67c-64 29 -117 39 -191 39z" />
    <glyph glyph-name="T" unicode="T" horiz-adv-x="560" 
d="M575 687h-207l-84 -687h-68l84 687h-207l8 63h482z" />
    <glyph glyph-name="U" unicode="U" horiz-adv-x="670" 
d="M311 53c67 0 199 13 221 193l62 504h68l-64 -515c-26 -213 -205 -245 -295 -245s-261 32 -235 245l64 515h68l-62 -504c-22 -180 106 -193 173 -193z" />
    <glyph glyph-name="V" unicode="V" horiz-adv-x="640" 
d="M595 750h77l-359 -760h-50l-171 760h77l133 -646z" />
    <glyph glyph-name="W" unicode="W" horiz-adv-x="880" 
d="M464 750h76l88 -654l212 654h72l-258 -760h-73l-90 670l-256 -670h-73l-70 760h72l50 -654z" />
    <glyph glyph-name="X" unicode="X" horiz-adv-x="630" 
d="M322 424l240 326h85l-286 -370l199 -380h-88l-161 334l-243 -334h-88l291 380l-194 370h85z" />
    <glyph glyph-name="Y" unicode="Y" horiz-adv-x="670" 
d="M702 750l-325 -440l-38 -310h-68l38 310l-217 440h75l182 -385l278 385h75z" />
    <glyph glyph-name="Z" unicode="Z" horiz-adv-x="610" 
d="M540 0h-530l5 46l506 643l-407 -2l8 63h495l-6 -46l-506 -643l442 2z" />
    <glyph glyph-name="Aacute" unicode="&#xc1;" horiz-adv-x="630" 
d="M72 0h-77l358 760h50l172 -760h-77l-44 210h-288zM364 646l-171 -377h249zM408 800h-50l62 100h90z" />
    <glyph glyph-name="Agrave" unicode="&#xc0;" horiz-adv-x="630" 
d="M72 0h-77l358 760h50l172 -760h-77l-44 210h-288zM364 646l-171 -377h249zM408 800h-50l-78 100h90z" />
    <glyph glyph-name="Acircumflex" unicode="&#xc2;" horiz-adv-x="630" 
d="M72 0h-77l358 760h50l172 -760h-77l-44 210h-288zM364 646l-171 -377h249zM538 800h-56l-92 56l-106 -56h-56l127 100h80z" />
    <glyph glyph-name="Adieresis" unicode="&#xc4;" horiz-adv-x="630" 
d="M72 0h-77l358 760h50l172 -760h-77l-44 210h-288zM364 646l-171 -377h249zM244 850c0 28 22 50 50 50s50 -22 50 -50s-22 -50 -50 -50s-50 22 -50 50zM434 850c0 28 22 50 50 50s50 -22 50 -50s-22 -50 -50 -50s-50 22 -50 50z" />
    <glyph glyph-name="Atilde" unicode="&#xc3;" horiz-adv-x="630" 
d="M72 0h-77l358 760h50l172 -760h-77l-44 210h-288zM364 646l-171 -377h249zM465 849c45 0 53 31 55 51h56c-4 -70 -51 -110 -123 -110s-90 61 -140 61c-45 0 -53 -31 -55 -51h-56c3 70 50 110 122 110s91 -61 141 -61z" />
    <glyph glyph-name="Aring" unicode="&#xc5;" horiz-adv-x="630" 
d="M72 0h-77l358 760h50l172 -760h-77l-44 210h-288zM364 646l-171 -377h249zM398 921c50 0 92 -16 85 -71s-53 -71 -103 -71s-92 16 -85 71s53 71 103 71zM386 828c30 0 45 7 47 22s-11 22 -41 22s-45 -7 -47 -22s11 -22 41 -22z" />
    <glyph glyph-name="Acaron" unicode="&#x1cd;" horiz-adv-x="630" 
d="M72 0h-77l358 760h50l172 -760h-77l-44 210h-288zM364 646l-171 -377h249zM240 900h56l92 -56l106 56h56l-127 -100h-80z" />
    <glyph glyph-name="Amacron" unicode="&#x100;" horiz-adv-x="630" 
d="M72 0h-77l358 760h50l172 -760h-77l-44 210h-288zM364 646l-171 -377h249zM248 820l8 60h274l-8 -60h-274z" />
    <glyph glyph-name="Abreve" unicode="&#x102;" horiz-adv-x="630" 
d="M72 0h-77l358 760h50l172 -760h-77l-44 210h-288zM364 646l-171 -377h249zM381 790c-95 0 -137 36 -131 110h51c-3 -41 30 -55 87 -55s94 14 101 55h51c-12 -74 -64 -110 -159 -110z" />
    <glyph glyph-name="Ainvertedbreve" unicode="&#x202;" horiz-adv-x="630" 
d="M72 0h-77l358 760h50l172 -760h-77l-44 210h-288zM364 646l-171 -377h249zM396 910c95 0 138 -36 132 -110h-51c3 41 -31 55 -88 55s-93 -14 -100 -55h-51c12 74 63 110 158 110z" />
    <glyph glyph-name="Adoublegrave" unicode="&#xe000;" horiz-adv-x="630" 
d="M72 0h-77l358 760h50l172 -760h-77l-44 210h-288zM364 646l-171 -377h249zM468 800h-50l-78 100h90zM348 800h-50l-78 100h90z" />
    <glyph glyph-name="Adotabove" unicode="&#xe001;" horiz-adv-x="630" 
d="M72 0h-77l358 760h50l172 -760h-77l-44 210h-288zM364 646l-171 -377h249zM339 850c0 28 22 50 50 50s50 -22 50 -50s-22 -50 -50 -50s-50 22 -50 50z" />
    <glyph glyph-name="Aringacute" unicode="&#x1fa;" horiz-adv-x="630" 
d="M72 0h-77l358 760h50l172 -760h-77l-44 210h-288zM364 646l-171 -377h249zM295 850c2 20 9 34 20 47l63 78h59l-51 -54h12c51 0 91 -17 85 -71c-7 -55 -53 -71 -103 -71s-92 16 -85 71zM386 828c30 0 45 7 47 22s-11 22 -41 22s-45 -7 -47 -22s11 -22 41 -22z" />
    <glyph glyph-name="Adieresismacron" unicode="&#x1de;" horiz-adv-x="630" 
d="M72 0h-77l358 760h50l172 -760h-77l-44 210h-288zM364 646l-171 -377h249zM262 935l8 60h274l-8 -60h-274zM244 850c0 28 22 50 50 50s50 -22 50 -50s-22 -50 -50 -50s-50 22 -50 50zM434 850c0 28 22 50 50 50s50 -22 50 -50s-22 -50 -50 -50s-50 22 -50 50z" />
    <glyph glyph-name="Aogonek" unicode="&#x104;" horiz-adv-x="630" 
d="M72 0h-77l358 760h50l172 -760c-70 -36 -118 -90 -124 -142c-4 -31 8 -57 47 -57c22 0 44 4 58 8l-6 -48c-18 -6 -43 -11 -72 -11c-60 0 -97 36 -90 95c8 59 46 115 109 156l-43 209h-288zM364 646l-171 -377h249z" />
    <glyph glyph-name="Anocross" unicode="&#xe002;" horiz-adv-x="630" 
d="M72 0h-77l358 760h50l172 -760h-77l-134 646z" />
    <glyph glyph-name="AE" unicode="&#xc6;" horiz-adv-x="975" 
d="M529 687l10 -265h362l-7 -63h-351l11 -296h338l-7 -63h-396l-10 210h-287l-126 -210h-76l468 750h519l-8 -63h-440zM462 655l-233 -386h249z" />
    <glyph glyph-name="AEacute" unicode="&#x1fc;" horiz-adv-x="975" 
d="M529 687l10 -265h362l-7 -63h-351l11 -296h338l-7 -63h-396l-10 210h-287l-126 -210h-76l468 750h519l-8 -63h-440zM462 655l-233 -386h249zM558 800h-50l62 100h90z" />
    <glyph glyph-name="AEmacron" unicode="&#x1e2;" horiz-adv-x="975" 
d="M529 687l10 -265h362l-7 -63h-351l11 -296h338l-7 -63h-396l-10 210h-287l-126 -210h-76l468 750h519l-8 -63h-440zM462 655l-233 -386h249zM420 820l8 60h274l-8 -60h-274z" />
    <glyph glyph-name="Cacute" unicode="&#x106;" horiz-adv-x="610" 
d="M76 375c26 213 118 385 342 385c92 0 152 -17 191 -35l-9 -67c-65 28 -115 39 -190 39c-164 0 -240 -141 -262 -322c-23 -181 19 -322 183 -322c75 0 127 11 200 39l-8 -67c-44 -18 -108 -35 -200 -35c-224 0 -274 172 -247 385zM448 800h-50l62 100h90z" />
    <glyph glyph-name="Ccircumflex" unicode="&#x108;" horiz-adv-x="610" 
d="M76 375c26 213 118 385 342 385c92 0 152 -17 191 -35l-9 -67c-65 28 -115 39 -190 39c-164 0 -240 -141 -262 -322c-23 -181 19 -322 183 -322c75 0 127 11 200 39l-8 -67c-44 -18 -108 -35 -200 -35c-224 0 -274 172 -247 385zM578 800h-56l-92 56l-106 -56h-56
l127 100h80z" />
    <glyph glyph-name="Ccaron" unicode="&#x10c;" horiz-adv-x="610" 
d="M76 375c26 213 118 385 342 385c92 0 152 -17 191 -35l-9 -67c-65 28 -115 39 -190 39c-164 0 -240 -141 -262 -322c-23 -181 19 -322 183 -322c75 0 127 11 200 39l-8 -67c-44 -18 -108 -35 -200 -35c-224 0 -274 172 -247 385zM280 900h56l92 -56l106 56h56l-127 -100
h-80z" />
    <glyph glyph-name="Cdotaccent" unicode="&#x10a;" horiz-adv-x="610" 
d="M76 375c26 213 118 385 342 385c92 0 152 -17 191 -35l-9 -67c-65 28 -115 39 -190 39c-164 0 -240 -141 -262 -322c-23 -181 19 -322 183 -322c75 0 127 11 200 39l-8 -67c-44 -18 -108 -35 -200 -35c-224 0 -274 172 -247 385zM379 850c0 28 22 50 50 50s50 -22 50 -50
s-22 -50 -50 -50s-50 22 -50 50z" />
    <glyph glyph-name="Ccedilla" unicode="&#xc7;" horiz-adv-x="610" 
d="M76 375c26 213 118 385 342 385c92 0 152 -17 191 -35l-9 -67c-65 28 -115 39 -190 39c-164 0 -240 -141 -262 -322c-23 -181 19 -322 183 -322c75 0 127 11 200 39l-8 -67c-41 -17 -98 -32 -179 -34l-2 -55c38 -10 90 -35 83 -97c-7 -54 -52 -89 -122 -89
c-54 0 -82 12 -92 18l6 46s34 -13 75 -13s68 11 71 36c6 43 -35 57 -81 63l20 91c-206 10 -252 178 -226 384z" />
    <glyph glyph-name="Dcaron" unicode="&#x10e;" horiz-adv-x="655" 
d="M249 0h-204l92 750h204c245 0 296 -162 270 -375c-27 -213 -117 -375 -362 -375zM197 687l-77 -624h140c180 0 256 132 279 312c22 180 -22 312 -202 312h-140zM225 900h56l92 -56l106 56h56l-127 -100h-80z" />
    <glyph glyph-name="Dcedilla" unicode="&#x1e10;" horiz-adv-x="655" 
d="M249 0h-204l92 750h204c245 0 296 -162 270 -375c-27 -213 -117 -375 -362 -375zM197 687l-77 -624h140c180 0 256 132 279 312c22 180 -22 312 -202 312h-140zM208 -95l10 45c93 -10 139 -51 132 -111c-7 -54 -52 -89 -122 -89c-54 0 -82 12 -92 18l6 46s34 -13 75 -13
s68 11 71 36c6 43 -34 62 -80 68z" />
    <glyph glyph-name="Ddotbelow" unicode="&#x1e0c;" horiz-adv-x="655" 
d="M249 0h-204l92 750h204c245 0 296 -162 270 -375c-27 -213 -117 -375 -362 -375zM197 687l-77 -624h140c180 0 256 132 279 312c22 180 -22 312 -202 312h-140zM201 -150c0 28 22 50 50 50s50 -22 50 -50s-22 -50 -50 -50s-50 22 -50 50z" />
    <glyph glyph-name="Dcroat" unicode="&#x110;" horiz-adv-x="685" 
d="M29 362l6 53h90l42 335h204c245 0 296 -162 270 -375c-27 -213 -117 -375 -362 -375h-204l44 362h-90zM227 687l-34 -272h183l-6 -53h-183l-37 -299h140c180 0 256 132 279 312c22 180 -22 312 -202 312h-140z" />
    <glyph glyph-name="Eacute" unicode="&#xc9;" 
d="M496 422l-7 -63h-332l-37 -296h367l-7 -63h-435l92 750h435l-8 -63h-367l-33 -265h332zM393 800h-50l62 100h90z" />
    <glyph glyph-name="Egrave" unicode="&#xc8;" 
d="M496 422l-7 -63h-332l-37 -296h367l-7 -63h-435l92 750h435l-8 -63h-367l-33 -265h332zM393 800h-50l-78 100h90z" />
    <glyph glyph-name="Ecircumflex" unicode="&#xca;" 
d="M496 422l-7 -63h-332l-37 -296h367l-7 -63h-435l92 750h435l-8 -63h-367l-33 -265h332zM523 800h-56l-92 56l-106 -56h-56l127 100h80z" />
    <glyph glyph-name="Edieresis" unicode="&#xcb;" 
d="M496 422l-7 -63h-332l-37 -296h367l-7 -63h-435l92 750h435l-8 -63h-367l-33 -265h332zM229 850c0 28 22 50 50 50s50 -22 50 -50s-22 -50 -50 -50s-50 22 -50 50zM419 850c0 28 22 50 50 50s50 -22 50 -50s-22 -50 -50 -50s-50 22 -50 50z" />
    <glyph glyph-name="Ecaron" unicode="&#x11a;" 
d="M496 422l-7 -63h-332l-37 -296h367l-7 -63h-435l92 750h435l-8 -63h-367l-33 -265h332zM225 900h56l92 -56l106 56h56l-127 -100h-80z" />
    <glyph glyph-name="Emacron" unicode="&#x112;" 
d="M496 422l-7 -63h-332l-37 -296h367l-7 -63h-435l92 750h435l-8 -63h-367l-33 -265h332zM233 820l8 60h274l-8 -60h-274z" />
    <glyph glyph-name="Ebreve" unicode="&#x114;" 
d="M496 422l-7 -63h-332l-37 -296h367l-7 -63h-435l92 750h435l-8 -63h-367l-33 -265h332zM366 790c-95 0 -137 36 -131 110h51c-3 -41 30 -55 87 -55s94 14 101 55h51c-12 -74 -64 -110 -159 -110z" />
    <glyph glyph-name="Einvertedbreve" unicode="&#x206;" 
d="M496 422l-7 -63h-332l-37 -296h367l-7 -63h-435l92 750h435l-8 -63h-367l-33 -265h332zM381 910c95 0 138 -36 132 -110h-51c3 41 -31 55 -88 55s-93 -14 -100 -55h-51c12 74 63 110 158 110z" />
    <glyph glyph-name="Edoublegrave" unicode="&#xe003;" 
d="M496 422l-7 -63h-332l-37 -296h367l-7 -63h-435l92 750h435l-8 -63h-367l-33 -265h332zM453 800h-50l-78 100h90zM333 800h-50l-78 100h90z" />
    <glyph glyph-name="Edotaccent" unicode="&#x116;" 
d="M496 422l-7 -63h-332l-37 -296h367l-7 -63h-435l92 750h435l-8 -63h-367l-33 -265h332zM324 850c0 28 22 50 50 50s50 -22 50 -50s-22 -50 -50 -50s-50 22 -50 50z" />
    <glyph glyph-name="Eacutedotbelow" unicode="&#xe004;" 
d="M496 422l-7 -63h-332l-37 -296h367l-7 -63h-435l92 750h435l-8 -63h-367l-33 -265h332zM393 800h-50l62 100h90zM201 -150c0 28 22 50 50 50s50 -22 50 -50s-22 -50 -50 -50s-50 22 -50 50z" />
    <glyph glyph-name="Egravedotbelow" unicode="&#xe005;" 
d="M496 422l-7 -63h-332l-37 -296h367l-7 -63h-435l92 750h435l-8 -63h-367l-33 -265h332zM393 800h-50l-78 100h90zM201 -150c0 28 22 50 50 50s50 -22 50 -50s-22 -50 -50 -50s-50 22 -50 50z" />
    <glyph glyph-name="Eogonek" unicode="&#x118;" 
d="M496 422l-7 -63h-332l-37 -296h367l-7 -63c-70 -36 -118 -90 -124 -142c-4 -31 8 -57 47 -57c22 0 44 4 58 8l-6 -48c-18 -6 -43 -11 -72 -11c-60 0 -97 36 -90 95c8 58 44 113 107 155h-355l92 750h435l-8 -63h-367l-33 -265h332z" />
    <glyph glyph-name="Gacute" unicode="&#x1f4;" horiz-adv-x="660" 
d="M323 -10c-224 0 -274 172 -247 385c26 213 118 385 342 385c104 0 166 -21 205 -42l-9 -68c-74 32 -123 47 -204 47c-164 0 -240 -141 -262 -322c-23 -181 19 -322 183 -322c57 0 128 5 165 22l31 256h-157l8 63h225l-45 -363c-54 -24 -130 -41 -235 -41zM448 800h-50
l62 100h90z" />
    <glyph glyph-name="Gcircumflex" unicode="&#x11c;" horiz-adv-x="660" 
d="M323 -10c-224 0 -274 172 -247 385c26 213 118 385 342 385c104 0 166 -21 205 -42l-9 -68c-74 32 -123 47 -204 47c-164 0 -240 -141 -262 -322c-23 -181 19 -322 183 -322c57 0 128 5 165 22l31 256h-157l8 63h225l-45 -363c-54 -24 -130 -41 -235 -41zM578 800h-56
l-92 56l-106 -56h-56l127 100h80z" />
    <glyph glyph-name="Gtilde" unicode="&#xe006;" horiz-adv-x="660" 
d="M323 -10c-224 0 -274 172 -247 385c26 213 118 385 342 385c104 0 166 -21 205 -42l-9 -68c-74 32 -123 47 -204 47c-164 0 -240 -141 -262 -322c-23 -181 19 -322 183 -322c57 0 128 5 165 22l31 256h-157l8 63h225l-45 -363c-54 -24 -130 -41 -235 -41zM480 849
c45 0 53 31 55 51h56c-4 -70 -51 -110 -123 -110s-90 61 -140 61c-45 0 -53 -31 -55 -51h-56c3 70 50 110 122 110s91 -61 141 -61z" />
    <glyph glyph-name="Gcaron" unicode="&#x1e6;" horiz-adv-x="660" 
d="M323 -10c-224 0 -274 172 -247 385c26 213 118 385 342 385c104 0 166 -21 205 -42l-9 -68c-74 32 -123 47 -204 47c-164 0 -240 -141 -262 -322c-23 -181 19 -322 183 -322c57 0 128 5 165 22l31 256h-157l8 63h225l-45 -363c-54 -24 -130 -41 -235 -41zM280 900h56
l92 -56l106 56h56l-127 -100h-80z" />
    <glyph glyph-name="Gbreve" unicode="&#x11e;" horiz-adv-x="660" 
d="M323 -10c-224 0 -274 172 -247 385c26 213 118 385 342 385c104 0 166 -21 205 -42l-9 -68c-74 32 -123 47 -204 47c-164 0 -240 -141 -262 -322c-23 -181 19 -322 183 -322c57 0 128 5 165 22l31 256h-157l8 63h225l-45 -363c-54 -24 -130 -41 -235 -41zM421 790
c-95 0 -137 36 -131 110h51c-3 -41 30 -55 87 -55s94 14 101 55h51c-12 -74 -64 -110 -159 -110z" />
    <glyph glyph-name="Gdotaccent" unicode="&#x120;" horiz-adv-x="660" 
d="M323 -10c-224 0 -274 172 -247 385c26 213 118 385 342 385c104 0 166 -21 205 -42l-9 -68c-74 32 -123 47 -204 47c-164 0 -240 -141 -262 -322c-23 -181 19 -322 183 -322c57 0 128 5 165 22l31 256h-157l8 63h225l-45 -363c-54 -24 -130 -41 -235 -41zM379 850
c0 28 22 50 50 50s50 -22 50 -50s-22 -50 -50 -50s-50 22 -50 50z" />
    <glyph glyph-name="Gcommaturnedabove" unicode="&#xe007;" horiz-adv-x="660" 
d="M323 -10c-224 0 -274 172 -247 385c26 213 118 385 342 385c104 0 166 -21 205 -42l-9 -68c-74 32 -123 47 -204 47c-164 0 -240 -141 -262 -322c-23 -181 19 -322 183 -322c57 0 128 5 165 22l31 256h-157l8 63h225l-45 -363c-54 -24 -130 -41 -235 -41zM455 900h50
l-37 -100h-90z" />
    <glyph glyph-name="Gcommaaccent" unicode="&#x122;" horiz-adv-x="660" 
d="M323 -10c-224 0 -274 172 -247 385c26 213 118 385 342 385c104 0 166 -21 205 -42l-9 -68c-74 32 -123 47 -204 47c-164 0 -240 -141 -262 -322c-23 -181 19 -322 183 -322c57 0 128 5 165 22l31 256h-157l8 63h225l-45 -363c-54 -24 -130 -41 -235 -41zM279 -50h92
l-92 -200h-50z" />
    <glyph glyph-name="Gstroke" unicode="&#x1e4;" horiz-adv-x="680" 
d="M323 -10c-224 0 -274 172 -247 385c26 213 118 385 342 385c104 0 166 -21 205 -42l-9 -68c-74 32 -123 47 -204 47c-164 0 -240 -141 -262 -322c-23 -181 19 -322 183 -322c57 0 128 5 165 22l13 105h-127l7 60h127l11 91h-157l8 63h225l-19 -154h80l-7 -60h-80
l-19 -149c-54 -24 -130 -41 -235 -41z" />
    <glyph glyph-name="Hcircumflex" unicode="&#x124;" horiz-adv-x="660" 
d="M555 0h-68l44 359h-374l-44 -359h-68l92 750h68l-41 -328h374l41 328h68zM553 800h-56l-92 56l-106 -56h-56l127 100h80z" />
    <glyph glyph-name="Hcaron" unicode="&#xe008;" horiz-adv-x="660" 
d="M555 0h-68l44 359h-374l-44 -359h-68l92 750h68l-41 -328h374l41 328h68zM255 900h56l92 -56l106 56h56l-127 -100h-80z" />
    <glyph glyph-name="Hdotbelow" unicode="&#x1e24;" horiz-adv-x="660" 
d="M555 0h-68l44 359h-374l-44 -359h-68l92 750h68l-41 -328h374l41 328h68zM231 -150c0 28 22 50 50 50s50 -22 50 -50s-22 -50 -50 -50s-50 22 -50 50z" />
    <glyph glyph-name="Hmacronbelow" unicode="&#xe009;" horiz-adv-x="660" 
d="M555 0h-68l44 359h-374l-44 -359h-68l92 750h68l-41 -328h374l41 328h68zM422 -120l-8 -60h-274l8 60h274z" />
    <glyph glyph-name="Hbar" unicode="&#x126;" horiz-adv-x="660" 
d="M555 0h-68l44 359h-374l-44 -359h-68l92 750h68l-18 -144h374l18 144h68zM164 422h374l15 121h-374z" />
    <glyph glyph-name="Iacute" unicode="&#xcd;" horiz-adv-x="260" 
d="M135 0h-70l92 750h70zM223 800h-50l62 100h90z" />
    <glyph glyph-name="Igrave" unicode="&#xcc;" horiz-adv-x="260" 
d="M135 0h-70l92 750h70zM223 800h-50l-78 100h90z" />
    <glyph glyph-name="Icircumflex" unicode="&#xce;" horiz-adv-x="260" 
d="M135 0h-70l92 750h70zM353 800h-56l-92 56l-106 -56h-56l127 100h80z" />
    <glyph glyph-name="Idieresis" unicode="&#xcf;" horiz-adv-x="260" 
d="M135 0h-70l92 750h70zM79 850c0 28 22 50 50 50s50 -22 50 -50s-22 -50 -50 -50s-50 22 -50 50zM229 850c0 28 22 50 50 50s50 -22 50 -50s-22 -50 -50 -50s-50 22 -50 50z" />
    <glyph glyph-name="Itilde" unicode="&#x128;" horiz-adv-x="260" 
d="M135 0h-70l92 750h70zM280 849c45 0 53 31 55 51h56c-4 -70 -51 -110 -123 -110s-90 61 -140 61c-45 0 -53 -31 -55 -51h-56c3 70 50 110 122 110s91 -61 141 -61z" />
    <glyph glyph-name="Icaron" unicode="&#x1cf;" horiz-adv-x="260" 
d="M135 0h-70l92 750h70zM55 900h56l92 -56l106 56h56l-127 -100h-80z" />
    <glyph glyph-name="Imacron" unicode="&#x12a;" horiz-adv-x="260" 
d="M135 0h-70l92 750h70zM63 820l8 60h274l-8 -60h-274z" />
    <glyph glyph-name="Ibreve" unicode="&#x12c;" horiz-adv-x="260" 
d="M135 0h-70l92 750h70zM196 790c-95 0 -137 36 -131 110h51c-3 -41 30 -55 87 -55s94 14 101 55h51c-12 -74 -64 -110 -159 -110z" />
    <glyph glyph-name="Iinvertedbreve" unicode="&#x20a;" horiz-adv-x="260" 
d="M135 0h-70l92 750h70zM211 910c95 0 138 -36 132 -110h-51c3 41 -31 55 -88 55s-93 -14 -100 -55h-51c12 74 63 110 158 110z" />
    <glyph glyph-name="Idoublegrave" unicode="&#xe00b;" horiz-adv-x="260" 
d="M135 0h-70l92 750h70zM283 800h-50l-78 100h90zM163 800h-50l-78 100h90z" />
    <glyph glyph-name="Idotaccent" unicode="&#x130;" horiz-adv-x="260" 
d="M135 0h-70l92 750h70zM154 850c0 28 22 50 50 50s50 -22 50 -50s-22 -50 -50 -50s-50 22 -50 50z" />
    <glyph glyph-name="Idotbelow" unicode="&#x1eca;" horiz-adv-x="260" 
d="M135 0h-70l92 750h70zM31 -150c0 28 22 50 50 50s50 -22 50 -50s-22 -50 -50 -50s-50 22 -50 50z" />
    <glyph glyph-name="Iogonek" unicode="&#x12e;" horiz-adv-x="260" 
d="M135 0c-71 -46 -98 -90 -104 -142c-4 -31 8 -57 47 -57c22 0 44 4 58 8l-6 -48c-18 -6 -43 -11 -72 -11c-60 0 -96 36 -89 95c7 60 33 112 96 156l92 749h70z" />
    <glyph glyph-name="Jcircumflex" unicode="&#x134;" horiz-adv-x="379" 
d="M4 -3l8 64c23 -6 38 -8 69 -8c65 0 111 20 119 85l76 612h70l-75 -610c-12 -96 -73 -150 -198 -150c-21 0 -49 2 -69 7zM472 800h-56l-92 56l-106 -56h-56l127 100h80z" />
    <glyph glyph-name="Jcaron" unicode="&#xe00c;" horiz-adv-x="379" 
d="M4 -3l8 64c23 -6 38 -8 69 -8c65 0 111 20 119 85l76 612h70l-75 -610c-12 -96 -73 -150 -198 -150c-21 0 -49 2 -69 7zM174 900h56l92 -56l106 56h56l-127 -100h-80z" />
    <glyph glyph-name="Kcaron" unicode="&#x1e8;" horiz-adv-x="595" 
d="M222 363l-74 -75l-35 -288h-68l92 750h68l-46 -374l359 374h88l-334 -336l272 -414h-89zM215 900h56l92 -56l106 56h56l-127 -100h-80z" />
    <glyph glyph-name="Kcommaaccent" unicode="&#x136;" horiz-adv-x="595" 
d="M222 363l-74 -75l-35 -288h-68l92 750h68l-46 -374l359 374h88l-334 -336l272 -414h-89zM224 -50h92l-92 -200h-50z" />
    <glyph glyph-name="Kcedilla" unicode="&#xe00d;" horiz-adv-x="595" 
d="M222 363l-74 -75l-35 -288h-68l92 750h68l-46 -374l359 374h88l-334 -336l272 -414h-89zM218 -95l10 45c93 -10 139 -51 132 -111c-7 -54 -52 -89 -122 -89c-54 0 -82 12 -92 18l6 46s34 -13 75 -13s68 11 71 36c6 43 -34 62 -80 68z" />
    <glyph glyph-name="Khook" unicode="&#x198;" horiz-adv-x="593" 
d="M45 0l92 750h68l-45 -361c36 19 79 51 115 107c74 113 169 259 311 254l-9 -69c-113 2 -171 -113 -246 -223c-15 -21 -32 -40 -50 -57l263 -401h-89l-230 359c-29 -20 -50 -32 -74 -43l-38 -316h-68z" />
    <glyph glyph-name="Lacute" unicode="&#x139;" horiz-adv-x="530" 
d="M205 750l-85 -687h347l-7 -63h-415l92 750h68zM202 800h-50l62 100h90z" />
    <glyph glyph-name="Lcaron" unicode="&#x13d;" horiz-adv-x="530" 
d="M205 750l-85 -687h347l-7 -63h-415l92 750h68zM301 750h78l-73 -200h-46z" />
    <glyph glyph-name="Lcommaaccent" unicode="&#x13b;" horiz-adv-x="530" 
d="M205 750l-85 -687h347l-7 -63h-415l92 750h68zM209 -50h92l-92 -200h-50z" />
    <glyph glyph-name="Lcedilla" unicode="&#xe00e;" horiz-adv-x="530" 
d="M205 750l-85 -687h347l-7 -63h-415l92 750h68zM198 -95l10 45c93 -10 139 -51 132 -111c-7 -54 -52 -89 -122 -89c-54 0 -82 12 -92 18l6 46s34 -13 75 -13s68 11 71 36c6 43 -34 62 -80 68z" />
    <glyph glyph-name="Ldotbelow" unicode="&#x1e36;" horiz-adv-x="530" 
d="M205 750l-85 -687h347l-7 -63h-415l92 750h68zM186 -150c0 28 22 50 50 50s50 -22 50 -50s-22 -50 -50 -50s-50 22 -50 50z" />
    <glyph glyph-name="Ldotbelowmacron" unicode="&#x1e38;" horiz-adv-x="530" 
d="M205 750l-85 -687h347l-7 -63h-415l92 750h68zM42 820l8 60h274l-8 -60h-274zM186 -150c0 28 22 50 50 50s50 -22 50 -50s-22 -50 -50 -50s-50 22 -50 50z" />
    <glyph glyph-name="Ldot" unicode="&#x13f;" horiz-adv-x="530" 
d="M205 750l-85 -687h347l-7 -63h-415l92 750h68zM340 375c0 28 22 50 50 50s50 -22 50 -50s-22 -50 -50 -50s-50 22 -50 50z" />
    <glyph glyph-name="Lslash" unicode="&#x141;" horiz-adv-x="560" 
d="M233 750l-45 -367l224 127l-7 -61l-225 -127l-32 -259h347l-7 -63h-415l34 280l-105 -59l7 61l105 59l51 409h68z" />
    <glyph glyph-name="Mmacron" unicode="&#xe00f;" horiz-adv-x="840" 
d="M752 661l-320 -546h-56l-186 546l-77 -661h-68l92 750h92l185 -552l321 552h92l-92 -750h-68zM353 820l8 60h274l-8 -60h-274z" />
    <glyph glyph-name="Mcedilla" unicode="&#xe010;" horiz-adv-x="840" 
d="M752 661l-320 -546h-56l-186 546l-77 -661h-68l92 750h92l185 -552l321 552h92l-92 -750h-68zM338 -95l10 45c93 -10 139 -51 132 -111c-7 -54 -52 -89 -122 -89c-54 0 -82 12 -92 18l6 46s34 -13 75 -13s68 11 71 36c6 43 -34 62 -80 68z" />
    <glyph glyph-name="Mdotbelow" unicode="&#x1e42;" horiz-adv-x="840" 
d="M752 661l-320 -546h-56l-186 546l-77 -661h-68l92 750h92l185 -552l321 552h92l-92 -750h-68zM321 -150c0 28 22 50 50 50s50 -22 50 -50s-22 -50 -50 -50s-50 22 -50 50z" />
    <glyph glyph-name="Nacute" unicode="&#x143;" horiz-adv-x="670" 
d="M565 0h-51l-328 611l-73 -611h-68l92 750h51l328 -611l73 611h68zM428 800h-50l62 100h90z" />
    <glyph glyph-name="Ngrave" unicode="&#xe011;" horiz-adv-x="670" 
d="M565 0h-51l-328 611l-73 -611h-68l92 750h51l328 -611l73 611h68zM428 800h-50l-78 100h90z" />
    <glyph glyph-name="Ndieresis" unicode="&#xe012;" horiz-adv-x="670" 
d="M565 0h-51l-328 611l-73 -611h-68l92 750h51l328 -611l73 611h68zM264 850c0 28 22 50 50 50s50 -22 50 -50s-22 -50 -50 -50s-50 22 -50 50zM454 850c0 28 22 50 50 50s50 -22 50 -50s-22 -50 -50 -50s-50 22 -50 50z" />
    <glyph glyph-name="Ntilde" unicode="&#xd1;" horiz-adv-x="670" 
d="M565 0h-51l-328 611l-73 -611h-68l92 750h51l328 -611l73 611h68zM485 849c45 0 53 31 55 51h56c-4 -70 -51 -110 -123 -110s-90 61 -140 61c-45 0 -53 -31 -55 -51h-56c3 70 50 110 122 110s91 -61 141 -61z" />
    <glyph glyph-name="Ncaron" unicode="&#x147;" horiz-adv-x="670" 
d="M565 0h-51l-328 611l-73 -611h-68l92 750h51l328 -611l73 611h68zM260 900h56l92 -56l106 56h56l-127 -100h-80z" />
    <glyph glyph-name="Nmacron" unicode="&#xe013;" horiz-adv-x="670" 
d="M565 0h-51l-328 611l-73 -611h-68l92 750h51l328 -611l73 611h68zM268 820l8 60h274l-8 -60h-274z" />
    <glyph glyph-name="Ndotaccent" unicode="&#x1e44;" horiz-adv-x="670" 
d="M565 0h-51l-328 611l-73 -611h-68l92 750h51l328 -611l73 611h68zM359 850c0 28 22 50 50 50s50 -22 50 -50s-22 -50 -50 -50s-50 22 -50 50z" />
    <glyph glyph-name="Ncommaaccent" unicode="&#x145;" horiz-adv-x="670" 
d="M565 0h-51l-328 611l-73 -611h-68l92 750h51l328 -611l73 611h68zM259 -50h92l-92 -200h-50z" />
    <glyph glyph-name="Ncedilla" unicode="&#xe014;" horiz-adv-x="670" 
d="M565 0h-51l-328 611l-73 -611h-68l92 750h51l328 -611l73 611h68zM253 -95l10 45c93 -10 139 -51 132 -111c-7 -54 -52 -89 -122 -89c-54 0 -82 12 -92 18l6 46s34 -13 75 -13s68 11 71 36c6 43 -34 62 -80 68z" />
    <glyph glyph-name="Ndotbelow" unicode="&#x1e46;" horiz-adv-x="670" 
d="M565 0h-51l-328 611l-73 -611h-68l92 750h51l328 -611l73 611h68zM236 -150c0 28 22 50 50 50s50 -22 50 -50s-22 -50 -50 -50s-50 22 -50 50z" />
    <glyph glyph-name="Ndescender" unicode="&#xe015;" horiz-adv-x="670" 
d="M549 -125l16 125h-51l-328 611l-73 -611h-68l92 750h51l328 -611l73 611h68l-85 -687h68l-23 -188h-68z" />
    <glyph glyph-name="Oacute" unicode="&#xd3;" horiz-adv-x="680" 
d="M316 53c181 0 225 142 248 322c22 180 12 322 -169 322s-225 -142 -247 -322c-23 -180 -13 -322 168 -322zM308 -10c-245 0 -257 189 -232 385c24 196 82 385 327 385s257 -189 233 -385c-25 -196 -83 -385 -328 -385zM433 800h-50l62 100h90z" />
    <glyph glyph-name="Ograve" unicode="&#xd2;" horiz-adv-x="680" 
d="M316 53c181 0 225 142 248 322c22 180 12 322 -169 322s-225 -142 -247 -322c-23 -180 -13 -322 168 -322zM308 -10c-245 0 -257 189 -232 385c24 196 82 385 327 385s257 -189 233 -385c-25 -196 -83 -385 -328 -385zM433 800h-50l-78 100h90z" />
    <glyph glyph-name="Ocircumflex" unicode="&#xd4;" horiz-adv-x="680" 
d="M316 53c181 0 225 142 248 322c22 180 12 322 -169 322s-225 -142 -247 -322c-23 -180 -13 -322 168 -322zM308 -10c-245 0 -257 189 -232 385c24 196 82 385 327 385s257 -189 233 -385c-25 -196 -83 -385 -328 -385zM563 800h-56l-92 56l-106 -56h-56l127 100h80z" />
    <glyph glyph-name="Odieresis" unicode="&#xd6;" horiz-adv-x="680" 
d="M316 53c181 0 225 142 248 322c22 180 12 322 -169 322s-225 -142 -247 -322c-23 -180 -13 -322 168 -322zM308 -10c-245 0 -257 189 -232 385c24 196 82 385 327 385s257 -189 233 -385c-25 -196 -83 -385 -328 -385zM269 850c0 28 22 50 50 50s50 -22 50 -50
s-22 -50 -50 -50s-50 22 -50 50zM459 850c0 28 22 50 50 50s50 -22 50 -50s-22 -50 -50 -50s-50 22 -50 50z" />
    <glyph glyph-name="Otilde" unicode="&#xd5;" horiz-adv-x="680" 
d="M316 53c181 0 225 142 248 322c22 180 12 322 -169 322s-225 -142 -247 -322c-23 -180 -13 -322 168 -322zM308 -10c-245 0 -257 189 -232 385c24 196 82 385 327 385s257 -189 233 -385c-25 -196 -83 -385 -328 -385zM490 849c45 0 53 31 55 51h56
c-4 -70 -51 -110 -123 -110s-90 61 -140 61c-45 0 -53 -31 -55 -51h-56c3 70 50 110 122 110s91 -61 141 -61z" />
    <glyph glyph-name="Ocaron" unicode="&#x1d1;" horiz-adv-x="680" 
d="M316 53c181 0 225 142 248 322c22 180 12 322 -169 322s-225 -142 -247 -322c-23 -180 -13 -322 168 -322zM308 -10c-245 0 -257 189 -232 385c24 196 82 385 327 385s257 -189 233 -385c-25 -196 -83 -385 -328 -385zM265 900h56l92 -56l106 56h56l-127 -100h-80z" />
    <glyph glyph-name="Omacron" unicode="&#x14c;" horiz-adv-x="680" 
d="M316 53c181 0 225 142 248 322c22 180 12 322 -169 322s-225 -142 -247 -322c-23 -180 -13 -322 168 -322zM308 -10c-245 0 -257 189 -232 385c24 196 82 385 327 385s257 -189 233 -385c-25 -196 -83 -385 -328 -385zM273 820l8 60h274l-8 -60h-274z" />
    <glyph glyph-name="Obreve" unicode="&#x14e;" horiz-adv-x="680" 
d="M316 53c181 0 225 142 248 322c22 180 12 322 -169 322s-225 -142 -247 -322c-23 -180 -13 -322 168 -322zM308 -10c-245 0 -257 189 -232 385c24 196 82 385 327 385s257 -189 233 -385c-25 -196 -83 -385 -328 -385zM406 790c-95 0 -137 36 -131 110h51
c-3 -41 30 -55 87 -55s94 14 101 55h51c-12 -74 -64 -110 -159 -110z" />
    <glyph glyph-name="Oinvertedbreve" unicode="&#x20e;" horiz-adv-x="680" 
d="M316 53c181 0 225 142 248 322c22 180 12 322 -169 322s-225 -142 -247 -322c-23 -180 -13 -322 168 -322zM308 -10c-245 0 -257 189 -232 385c24 196 82 385 327 385s257 -189 233 -385c-25 -196 -83 -385 -328 -385zM421 910c95 0 138 -36 132 -110h-51
c3 41 -31 55 -88 55s-93 -14 -100 -55h-51c12 74 63 110 158 110z" />
    <glyph glyph-name="Ohungarumlaut" unicode="&#x150;" horiz-adv-x="680" 
d="M316 53c181 0 225 142 248 322c22 180 12 322 -169 322s-225 -142 -247 -322c-23 -180 -13 -322 168 -322zM308 -10c-245 0 -257 189 -232 385c24 196 82 385 327 385s257 -189 233 -385c-25 -196 -83 -385 -328 -385zM373 800h-50l62 100h90zM493 800h-50l62 100h90z
" />
    <glyph glyph-name="Odoublegrave" unicode="&#xe016;" horiz-adv-x="680" 
d="M316 53c181 0 225 142 248 322c22 180 12 322 -169 322s-225 -142 -247 -322c-23 -180 -13 -322 168 -322zM308 -10c-245 0 -257 189 -232 385c24 196 82 385 327 385s257 -189 233 -385c-25 -196 -83 -385 -328 -385zM493 800h-50l-78 100h90zM373 800h-50l-78 100h90z
" />
    <glyph glyph-name="Ocommaturnedabove" unicode="&#xe017;" horiz-adv-x="680" 
d="M316 53c181 0 225 142 248 322c22 180 12 322 -169 322s-225 -142 -247 -322c-23 -180 -13 -322 168 -322zM308 -10c-245 0 -257 189 -232 385c24 196 82 385 327 385s257 -189 233 -385c-25 -196 -83 -385 -328 -385zM440 900h50l-37 -100h-90z" />
    <glyph glyph-name="Otildemacron" unicode="&#xe018;" horiz-adv-x="680" 
d="M316 53c181 0 225 142 248 322c22 180 12 322 -169 322s-225 -142 -247 -322c-23 -180 -13 -322 168 -322zM308 -10c-245 0 -257 189 -232 385c24 196 82 385 327 385s257 -189 233 -385c-25 -196 -83 -385 -328 -385zM490 849c45 0 53 31 55 51h56
c-4 -70 -51 -110 -123 -110s-90 61 -140 61c-45 0 -53 -31 -55 -51h-56c3 70 50 110 122 110s91 -61 141 -61zM287 935l8 60h274l-8 -60h-274z" />
    <glyph glyph-name="Odotabove" unicode="&#xe019;" horiz-adv-x="680" 
d="M316 53c181 0 225 142 248 322c22 180 12 322 -169 322s-225 -142 -247 -322c-23 -180 -13 -322 168 -322zM308 -10c-245 0 -257 189 -232 385c24 196 82 385 327 385s257 -189 233 -385c-25 -196 -83 -385 -328 -385zM364 850c0 28 22 50 50 50s50 -22 50 -50
s-22 -50 -50 -50s-50 22 -50 50z" />
    <glyph glyph-name="Odotabovemacron" unicode="&#xe01a;" horiz-adv-x="680" 
d="M316 53c181 0 225 142 248 322c22 180 12 322 -169 322s-225 -142 -247 -322c-23 -180 -13 -322 168 -322zM308 -10c-245 0 -257 189 -232 385c24 196 82 385 327 385s257 -189 233 -385c-25 -196 -83 -385 -328 -385zM287 935l8 60h274l-8 -60h-274zM364 850
c0 28 22 50 50 50s50 -22 50 -50s-22 -50 -50 -50s-50 22 -50 50z" />
    <glyph glyph-name="Ocedilla" unicode="&#xe01b;" horiz-adv-x="680" 
d="M316 53c181 0 225 142 248 322c22 180 12 322 -169 322s-225 -142 -247 -322c-23 -180 -13 -322 168 -322zM308 -10c-245 0 -257 189 -232 385c24 196 82 385 327 385s257 -189 233 -385c-25 -196 -83 -385 -328 -385zM250 -95l10 45c93 -10 139 -51 132 -111
c-7 -54 -52 -89 -122 -89c-54 0 -82 12 -92 18l6 46s34 -13 75 -13s68 11 71 36c6 43 -34 62 -80 68z" />
    <glyph glyph-name="Odotbelow" unicode="&#x1ecc;" horiz-adv-x="680" 
d="M316 53c181 0 225 142 248 322c22 180 12 322 -169 322s-225 -142 -247 -322c-23 -180 -13 -322 168 -322zM308 -10c-245 0 -257 189 -232 385c24 196 82 385 327 385s257 -189 233 -385c-25 -196 -83 -385 -328 -385zM241 -150c0 28 22 50 50 50s50 -22 50 -50
s-22 -50 -50 -50s-50 22 -50 50z" />
    <glyph glyph-name="Oogonek" unicode="&#x1ea;" horiz-adv-x="680" 
d="M636 375c-21 -170 -68 -334 -238 -375c-70 -36 -118 -90 -124 -142c-4 -31 8 -57 47 -57c22 0 44 4 58 8l-6 -48c-18 -6 -43 -11 -72 -11c-60 0 -97 36 -90 95c7 53 39 105 93 145c-241 2 -252 190 -228 385c24 196 82 385 327 385s257 -189 233 -385zM316 53
c181 0 225 142 248 322c22 180 12 322 -169 322s-225 -142 -247 -322c-23 -180 -13 -322 168 -322z" />
    <glyph glyph-name="Oogonekmacron" unicode="&#x1ec;" horiz-adv-x="680" 
d="M636 375c-21 -170 -68 -334 -238 -375c-70 -36 -118 -90 -124 -142c-4 -31 8 -57 47 -57c22 0 44 4 58 8l-6 -48c-18 -6 -43 -11 -72 -11c-60 0 -97 36 -90 95c7 53 39 105 93 145c-241 2 -252 190 -228 385c24 196 82 385 327 385s257 -189 233 -385zM316 53
c181 0 225 142 248 322c22 180 12 322 -169 322s-225 -142 -247 -322c-23 -180 -13 -322 168 -322zM273 820l8 60h274l-8 -60h-274z" />
    <glyph glyph-name="Ounderlineaccent" unicode="&#xe01c;" horiz-adv-x="680" 
d="M316 53c181 0 225 142 248 322c22 180 12 322 -169 322s-225 -142 -247 -322c-23 -180 -13 -322 168 -322zM308 -10c-245 0 -257 189 -232 385c24 196 82 385 327 385s257 -189 233 -385c-25 -196 -83 -385 -328 -385zM273 -50h60l-24 -200h-60z" />
    <glyph glyph-name="Oslash" unicode="&#xd8;" horiz-adv-x="660" 
d="M308 -10c-77 0 -130 18 -167 49l-28 -39h-63l57 78c-48 74 -45 184 -31 297c24 196 82 385 327 385c76 0 129 -19 167 -50l29 40h63l-58 -79c47 -73 45 -184 32 -296c-25 -196 -83 -385 -328 -385zM316 53c181 0 225 142 248 322c11 90 14 171 -9 229l-370 -506
c27 -29 69 -45 131 -45zM148 375c-12 -91 -16 -172 7 -230l371 506c-27 29 -69 46 -131 46c-181 0 -225 -142 -247 -322z" />
    <glyph glyph-name="Oslashacute" unicode="&#x1fe;" horiz-adv-x="660" 
d="M308 -10c-77 0 -130 18 -167 49l-28 -39h-63l57 78c-48 74 -45 184 -31 297c24 196 82 385 327 385c76 0 129 -19 167 -50l29 40h63l-58 -79c47 -73 45 -184 32 -296c-25 -196 -83 -385 -328 -385zM316 53c181 0 225 142 248 322c11 90 14 171 -9 229l-370 -506
c27 -29 69 -45 131 -45zM148 375c-12 -91 -16 -172 7 -230l371 506c-27 29 -69 46 -131 46c-181 0 -225 -142 -247 -322zM433 800h-50l62 100h100z" />
    <glyph glyph-name="barredO" unicode="&#xe01d;" horiz-adv-x="680" 
d="M308 -10c-245 0 -257 189 -232 385c24 196 82 385 327 385s257 -189 233 -385c-25 -196 -83 -385 -328 -385zM316 53c175 0 222 134 246 306h-416c-21 -172 -6 -306 170 -306zM395 697c-165 0 -216 -118 -241 -275h414c14 157 -8 275 -173 275z" />
    <glyph glyph-name="OE" unicode="&#x152;" horiz-adv-x="890" 
d="M816 422l-7 -63h-290l-37 -296h325l-7 -63h-454c-245 0 -297 162 -270 375c26 213 117 375 362 375h454l-8 -63h-325l-33 -265h290zM414 63l77 624h-65c-180 0 -256 -132 -278 -312c-23 -180 21 -312 201 -312h65z" />
    <glyph glyph-name="Pmacron" unicode="&#xe01e;" horiz-adv-x="590" 
d="M149 300l-36 -300h-68l92 750h229c187 0 237 -108 223 -225s-92 -225 -279 -225h-161zM197 687l-40 -324h170c141 0 179 90 188 162s-7 162 -148 162h-170zM228 820l8 60h274l-8 -60h-274z" />
    <glyph glyph-name="Racute" unicode="&#x154;" horiz-adv-x="621" 
d="M153 328l-40 -328h-68l92 750h235c187 0 235 -82 219 -211c-13 -100 -56 -172 -163 -199l138 -340h-79l-128 329c-11 -1 -22 -1 -33 -1h-173zM197 687l-36 -296h185c133 0 161 68 171 148s-2 148 -135 148h-185zM383 800h-50l62 100h90z" />
    <glyph glyph-name="Rcaron" unicode="&#x158;" horiz-adv-x="621" 
d="M153 328l-40 -328h-68l92 750h235c187 0 235 -82 219 -211c-13 -100 -56 -172 -163 -199l138 -340h-79l-128 329c-11 -1 -22 -1 -33 -1h-173zM197 687l-36 -296h185c133 0 161 68 171 148s-2 148 -135 148h-185zM215 900h56l92 -56l106 56h56l-127 -100h-80z" />
    <glyph glyph-name="Rinvertedbreve" unicode="&#x212;" horiz-adv-x="621" 
d="M153 328l-40 -328h-68l92 750h235c187 0 235 -82 219 -211c-13 -100 -56 -172 -163 -199l138 -340h-79l-128 329c-11 -1 -22 -1 -33 -1h-173zM197 687l-36 -296h185c133 0 161 68 171 148s-2 148 -135 148h-185zM371 910c95 0 138 -36 132 -110h-51c3 41 -31 55 -88 55
s-93 -14 -100 -55h-51c12 74 63 110 158 110z" />
    <glyph glyph-name="Rdoublegrave" unicode="&#xe01f;" horiz-adv-x="621" 
d="M153 328l-40 -328h-68l92 750h235c187 0 235 -82 219 -211c-13 -100 -56 -172 -163 -199l138 -340h-79l-128 329c-11 -1 -22 -1 -33 -1h-173zM197 687l-36 -296h185c133 0 161 68 171 148s-2 148 -135 148h-185zM443 800h-50l-78 100h90zM323 800h-50l-78 100h90z" />
    <glyph glyph-name="Rcommaaccent" unicode="&#x156;" horiz-adv-x="621" 
d="M153 328l-40 -328h-68l92 750h235c187 0 235 -82 219 -211c-13 -100 -56 -172 -163 -199l138 -340h-79l-128 329c-11 -1 -22 -1 -33 -1h-173zM197 687l-36 -296h185c133 0 161 68 171 148s-2 148 -135 148h-185zM234 -50h92l-92 -200h-50z" />
    <glyph glyph-name="Rcedilla" unicode="&#xe020;" horiz-adv-x="621" 
d="M153 328l-40 -328h-68l92 750h235c187 0 235 -82 219 -211c-13 -100 -56 -172 -163 -199l138 -340h-79l-128 329c-11 -1 -22 -1 -33 -1h-173zM197 687l-36 -296h185c133 0 161 68 171 148s-2 148 -135 148h-185zM228 -95l10 45c93 -10 139 -51 132 -111
c-7 -54 -52 -89 -122 -89c-54 0 -82 12 -92 18l6 46s34 -13 75 -13s68 11 71 36c6 43 -34 62 -80 68z" />
    <glyph glyph-name="Rdotbelow" unicode="&#x1e5a;" horiz-adv-x="621" 
d="M153 328l-40 -328h-68l92 750h235c187 0 235 -82 219 -211c-13 -100 -56 -172 -163 -199l138 -340h-79l-128 329c-11 -1 -22 -1 -33 -1h-173zM197 687l-36 -296h185c133 0 161 68 171 148s-2 148 -135 148h-185zM210 -150c0 28 22 50 50 50s50 -22 50 -50
s-22 -50 -50 -50s-50 22 -50 50z" />
    <glyph glyph-name="Rdotbelowmacron" unicode="&#x1e5c;" horiz-adv-x="621" 
d="M153 328l-40 -328h-68l92 750h235c187 0 235 -82 219 -211c-13 -100 -56 -172 -163 -199l138 -340h-79l-128 329c-11 -1 -22 -1 -33 -1h-173zM197 687l-36 -296h185c133 0 161 68 171 148s-2 148 -135 148h-185zM223 820l8 60h274l-8 -60h-274zM210 -150
c0 28 22 50 50 50s50 -22 50 -50s-22 -50 -50 -50s-50 22 -50 50z" />
    <glyph glyph-name="Sacute" unicode="&#x15a;" horiz-adv-x="595" 
d="M360 697c-148 0 -190 -68 -200 -147c-13 -107 48 -117 164 -132c144 -19 231 -55 213 -202c-13 -102 -82 -226 -305 -226c-69 0 -160 19 -205 40l8 65c46 -16 102 -42 206 -42c156 0 212 73 223 163c13 107 -28 128 -151 144c-175 22 -238 63 -222 191
c11 87 68 209 278 209c92 0 152 -16 191 -35l-9 -67c-64 29 -117 39 -191 39zM399 800h-50l62 100h90z" />
    <glyph glyph-name="Scircumflex" unicode="&#x15c;" horiz-adv-x="595" 
d="M360 697c-148 0 -190 -68 -200 -147c-13 -107 48 -117 164 -132c144 -19 231 -55 213 -202c-13 -102 -82 -226 -305 -226c-69 0 -160 19 -205 40l8 65c46 -16 102 -42 206 -42c156 0 212 73 223 163c13 107 -28 128 -151 144c-175 22 -238 63 -222 191
c11 87 68 209 278 209c92 0 152 -16 191 -35l-9 -67c-64 29 -117 39 -191 39zM529 800h-56l-92 56l-106 -56h-56l127 100h80z" />
    <glyph glyph-name="Scaron" unicode="&#x160;" horiz-adv-x="595" 
d="M360 697c-148 0 -190 -68 -200 -147c-13 -107 48 -117 164 -132c144 -19 231 -55 213 -202c-13 -102 -82 -226 -305 -226c-69 0 -160 19 -205 40l8 65c46 -16 102 -42 206 -42c156 0 212 73 223 163c13 107 -28 128 -151 144c-175 22 -238 63 -222 191
c11 87 68 209 278 209c92 0 152 -16 191 -35l-9 -67c-64 29 -117 39 -191 39zM231 900h56l92 -56l106 56h56l-127 -100h-80z" />
    <glyph glyph-name="Scommaaccent" unicode="&#x218;" horiz-adv-x="595" 
d="M360 697c-148 0 -190 -68 -200 -147c-13 -107 48 -117 164 -132c144 -19 231 -55 213 -202c-13 -102 -82 -226 -305 -226c-69 0 -160 19 -205 40l8 65c46 -16 102 -42 206 -42c156 0 212 73 223 163c13 107 -28 128 -151 144c-175 22 -238 63 -222 191
c11 87 68 209 278 209c92 0 152 -16 191 -35l-9 -67c-64 29 -117 39 -191 39zM194 -50h92l-92 -200h-50z" />
    <glyph glyph-name="Scedilla" unicode="&#x15e;" horiz-adv-x="595" 
d="M360 697c-148 0 -190 -68 -200 -147c-13 -107 48 -117 164 -132c144 -19 231 -55 213 -202c-12 -96 -74 -212 -268 -224l-2 -56c38 -10 90 -35 83 -97c-7 -54 -52 -89 -122 -89c-54 0 -82 12 -92 18l6 46s34 -13 75 -13s68 11 71 36c6 43 -35 57 -81 63l20 90
c-69 1 -156 19 -200 40l8 65c46 -16 102 -42 206 -42c156 0 212 73 223 163c13 107 -28 128 -151 144c-175 22 -238 63 -222 191c11 87 68 209 278 209c92 0 152 -16 191 -35l-9 -67c-64 29 -117 39 -191 39z" />
    <glyph glyph-name="Sdotbelow" unicode="&#x1e62;" horiz-adv-x="595" 
d="M360 697c-148 0 -190 -68 -200 -147c-13 -107 48 -117 164 -132c144 -19 231 -55 213 -202c-13 -102 -82 -226 -305 -226c-69 0 -160 19 -205 40l8 65c46 -16 102 -42 206 -42c156 0 212 73 223 163c13 107 -28 128 -151 144c-175 22 -238 63 -222 191
c11 87 68 209 278 209c92 0 152 -16 191 -35l-9 -67c-64 29 -117 39 -191 39zM175 -150c0 28 22 50 50 50s50 -22 50 -50s-22 -50 -50 -50s-50 22 -50 50z" />
    <glyph glyph-name="Tcaron" unicode="&#x164;" horiz-adv-x="560" 
d="M575 687h-207l-84 -687h-68l84 687h-207l8 63h482zM205 900h56l92 -56l106 56h56l-127 -100h-80z" />
    <glyph glyph-name="Tcommaaccent" unicode="&#x162;" horiz-adv-x="560" 
d="M575 687h-207l-84 -687h-68l84 687h-207l8 63h482zM199 -50h92l-92 -200h-50z" />
    <glyph glyph-name="Tcommaaccent" unicode="&#x21a;" horiz-adv-x="560" 
d="M575 687h-207l-84 -687h-68l84 687h-207l8 63h482zM199 -50h92l-92 -200h-50z" />
    <glyph glyph-name="Tcedilla" unicode="&#xe021;" horiz-adv-x="560" 
d="M575 687h-207l-84 -687h-68l84 687h-207l8 63h482zM198 -95l10 45c93 -10 139 -51 132 -111c-7 -54 -52 -89 -122 -89c-54 0 -82 12 -92 18l6 46s34 -13 75 -13s68 11 71 36c6 43 -34 62 -80 68z" />
    <glyph glyph-name="Tdotbelow" unicode="&#x1e6c;" horiz-adv-x="560" 
d="M575 687h-207l-84 -687h-68l84 687h-207l8 63h482zM181 -150c0 28 22 50 50 50s50 -22 50 -50s-22 -50 -50 -50s-50 22 -50 50z" />
    <glyph glyph-name="Tbar" unicode="&#x166;" horiz-adv-x="560" 
d="M328 360l-44 -360h-68l44 360h-125l7 61h125l33 266h-207l8 63h482l-8 -63h-207l-33 -266h125l-7 -61h-125z" />
    <glyph glyph-name="Uacute" unicode="&#xda;" horiz-adv-x="670" 
d="M311 53c67 0 199 13 221 193l62 504h68l-64 -515c-26 -213 -205 -245 -295 -245s-261 32 -235 245l64 515h68l-62 -504c-22 -180 106 -193 173 -193zM428 800h-50l62 100h90z" />
    <glyph glyph-name="Ugrave" unicode="&#xd9;" horiz-adv-x="670" 
d="M311 53c67 0 199 13 221 193l62 504h68l-64 -515c-26 -213 -205 -245 -295 -245s-261 32 -235 245l64 515h68l-62 -504c-22 -180 106 -193 173 -193zM428 800h-50l-78 100h90z" />
    <glyph glyph-name="Ucircumflex" unicode="&#xdb;" horiz-adv-x="670" 
d="M311 53c67 0 199 13 221 193l62 504h68l-64 -515c-26 -213 -205 -245 -295 -245s-261 32 -235 245l64 515h68l-62 -504c-22 -180 106 -193 173 -193zM558 800h-56l-92 56l-106 -56h-56l127 100h80z" />
    <glyph glyph-name="Udieresis" unicode="&#xdc;" horiz-adv-x="670" 
d="M311 53c67 0 199 13 221 193l62 504h68l-64 -515c-26 -213 -205 -245 -295 -245s-261 32 -235 245l64 515h68l-62 -504c-22 -180 106 -193 173 -193zM264 850c0 28 22 50 50 50s50 -22 50 -50s-22 -50 -50 -50s-50 22 -50 50zM454 850c0 28 22 50 50 50s50 -22 50 -50
s-22 -50 -50 -50s-50 22 -50 50z" />
    <glyph glyph-name="Utilde" unicode="&#x168;" horiz-adv-x="670" 
d="M311 53c67 0 199 13 221 193l62 504h68l-64 -515c-26 -213 -205 -245 -295 -245s-261 32 -235 245l64 515h68l-62 -504c-22 -180 106 -193 173 -193zM485 849c45 0 53 31 55 51h56c-4 -70 -51 -110 -123 -110s-90 61 -140 61c-45 0 -53 -31 -55 -51h-56
c3 70 50 110 122 110s91 -61 141 -61z" />
    <glyph glyph-name="Uring" unicode="&#x16e;" horiz-adv-x="670" 
d="M311 53c67 0 199 13 221 193l62 504h68l-64 -515c-26 -213 -205 -245 -295 -245s-261 32 -235 245l64 515h68l-62 -504c-22 -180 106 -193 173 -193zM418 921c50 0 92 -16 85 -71s-53 -71 -103 -71s-92 16 -85 71s53 71 103 71zM406 828c30 0 45 7 47 22s-11 22 -41 22
s-45 -7 -47 -22s11 -22 41 -22z" />
    <glyph glyph-name="Ucaron" unicode="&#x1d3;" horiz-adv-x="670" 
d="M311 53c67 0 199 13 221 193l62 504h68l-64 -515c-26 -213 -205 -245 -295 -245s-261 32 -235 245l64 515h68l-62 -504c-22 -180 106 -193 173 -193zM260 900h56l92 -56l106 56h56l-127 -100h-80z" />
    <glyph glyph-name="Umacron" unicode="&#x16a;" horiz-adv-x="670" 
d="M311 53c67 0 199 13 221 193l62 504h68l-64 -515c-26 -213 -205 -245 -295 -245s-261 32 -235 245l64 515h68l-62 -504c-22 -180 106 -193 173 -193zM268 820l8 60h274l-8 -60h-274z" />
    <glyph glyph-name="Ubreve" unicode="&#x16c;" horiz-adv-x="670" 
d="M311 53c67 0 199 13 221 193l62 504h68l-64 -515c-26 -213 -205 -245 -295 -245s-261 32 -235 245l64 515h68l-62 -504c-22 -180 106 -193 173 -193zM401 790c-95 0 -137 36 -131 110h51c-3 -41 30 -55 87 -55s94 14 101 55h51c-12 -74 -64 -110 -159 -110z" />
    <glyph glyph-name="Uinvertedbreve" unicode="&#x216;" horiz-adv-x="670" 
d="M311 53c67 0 199 13 221 193l62 504h68l-64 -515c-26 -213 -205 -245 -295 -245s-261 32 -235 245l64 515h68l-62 -504c-22 -180 106 -193 173 -193zM416 910c95 0 138 -36 132 -110h-51c3 41 -31 55 -88 55s-93 -14 -100 -55h-51c12 74 63 110 158 110z" />
    <glyph glyph-name="Uhungarumlaut" unicode="&#x170;" horiz-adv-x="670" 
d="M311 53c67 0 199 13 221 193l62 504h68l-64 -515c-26 -213 -205 -245 -295 -245s-261 32 -235 245l64 515h68l-62 -504c-22 -180 106 -193 173 -193zM368 800h-50l62 100h90zM488 800h-50l62 100h90z" />
    <glyph glyph-name="Udoublegrave" unicode="&#xe022;" horiz-adv-x="670" 
d="M311 53c67 0 199 13 221 193l62 504h68l-64 -515c-26 -213 -205 -245 -295 -245s-261 32 -235 245l64 515h68l-62 -504c-22 -180 106 -193 173 -193zM488 800h-50l-78 100h90zM368 800h-50l-78 100h90z" />
    <glyph glyph-name="Udotbelow" unicode="&#x1ee4;" horiz-adv-x="670" 
d="M311 53c67 0 199 13 221 193l62 504h68l-64 -515c-26 -213 -205 -245 -295 -245s-261 32 -235 245l64 515h68l-62 -504c-22 -180 106 -193 173 -193zM236 -150c0 28 22 50 50 50s50 -22 50 -50s-22 -50 -50 -50s-50 22 -50 50z" />
    <glyph glyph-name="Umacronbelow" unicode="&#xe023;" horiz-adv-x="670" 
d="M311 53c67 0 199 13 221 193l62 504h68l-64 -515c-26 -213 -205 -245 -295 -245s-261 32 -235 245l64 515h68l-62 -504c-22 -180 106 -193 173 -193zM427 -120l-8 -60h-274l8 60h274z" />
    <glyph glyph-name="Uogonek" unicode="&#x172;" horiz-adv-x="670" 
d="M311 53c67 0 199 13 221 193l62 504h68l-64 -515c-19 -156 -120 -215 -207 -235c-70 -36 -118 -90 -124 -142c-4 -31 8 -57 47 -57c22 0 44 4 58 8l-6 -48c-18 -6 -43 -11 -72 -11c-60 0 -97 36 -90 95c7 53 39 105 93 145c-91 2 -254 36 -229 245l64 515h68l-62 -504
c-22 -180 106 -193 173 -193z" />
    <glyph glyph-name="Wacute" unicode="&#x1e82;" horiz-adv-x="880" 
d="M464 750h76l88 -654l212 654h72l-258 -760h-73l-90 670l-256 -670h-73l-70 760h72l50 -654zM533 800h-50l62 100h90z" />
    <glyph glyph-name="Wgrave" unicode="&#x1e80;" horiz-adv-x="880" 
d="M464 750h76l88 -654l212 654h72l-258 -760h-73l-90 670l-256 -670h-73l-70 760h72l50 -654zM533 800h-50l-78 100h90z" />
    <glyph glyph-name="Wcircumflex" unicode="&#x174;" horiz-adv-x="880" 
d="M464 750h76l88 -654l212 654h72l-258 -760h-73l-90 670l-256 -670h-73l-70 760h72l50 -654zM663 800h-56l-92 56l-106 -56h-56l127 100h80z" />
    <glyph glyph-name="Wdieresis" unicode="&#x1e84;" horiz-adv-x="880" 
d="M464 750h76l88 -654l212 654h72l-258 -760h-73l-90 670l-256 -670h-73l-70 760h72l50 -654zM369 850c0 28 22 50 50 50s50 -22 50 -50s-22 -50 -50 -50s-50 22 -50 50zM559 850c0 28 22 50 50 50s50 -22 50 -50s-22 -50 -50 -50s-50 22 -50 50z" />
    <glyph glyph-name="Yacute" unicode="&#xdd;" horiz-adv-x="670" 
d="M702 750l-325 -440l-38 -310h-68l38 310l-217 440h75l182 -385l278 385h75zM428 800h-50l62 100h90z" />
    <glyph glyph-name="Ygrave" unicode="&#x1ef2;" horiz-adv-x="670" 
d="M702 750l-325 -440l-38 -310h-68l38 310l-217 440h75l182 -385l278 385h75zM428 800h-50l-78 100h90z" />
    <glyph glyph-name="Ycircumflex" unicode="&#x176;" horiz-adv-x="670" 
d="M702 750l-325 -440l-38 -310h-68l38 310l-217 440h75l182 -385l278 385h75zM558 800h-56l-92 56l-106 -56h-56l127 100h80z" />
    <glyph glyph-name="Ydieresis" unicode="&#x178;" horiz-adv-x="670" 
d="M702 750l-325 -440l-38 -310h-68l38 310l-217 440h75l182 -385l278 385h75zM264 850c0 28 22 50 50 50s50 -22 50 -50s-22 -50 -50 -50s-50 22 -50 50zM454 850c0 28 22 50 50 50s50 -22 50 -50s-22 -50 -50 -50s-50 22 -50 50z" />
    <glyph glyph-name="Ytilde" unicode="&#x1ef8;" horiz-adv-x="670" 
d="M702 750l-325 -440l-38 -310h-68l38 310l-217 440h75l182 -385l278 385h75zM485 849c45 0 53 31 55 51h56c-4 -70 -51 -110 -123 -110s-90 61 -140 61c-45 0 -53 -31 -55 -51h-56c3 70 50 110 122 110s91 -61 141 -61z" />
    <glyph glyph-name="Ymacron" unicode="&#xe024;" horiz-adv-x="670" 
d="M702 750l-325 -440l-38 -310h-68l38 310l-217 440h75l182 -385l278 385h75zM268 820l8 60h274l-8 -60h-274z" />
    <glyph glyph-name="IJ" unicode="&#x132;" horiz-adv-x="639" 
d="M135 0h-70l92 750h70zM264 -3l8 64c23 -6 38 -8 69 -8c65 0 111 20 119 85l76 612h70l-75 -610c-12 -96 -73 -150 -198 -150c-21 0 -49 2 -69 7z" />
    <glyph glyph-name="Zacute" unicode="&#x179;" horiz-adv-x="610" 
d="M540 0h-530l5 46l506 643l-407 -2l8 63h495l-6 -46l-506 -643l442 2zM398 800h-50l62 100h90z" />
    <glyph glyph-name="Zcaron" unicode="&#x17d;" horiz-adv-x="610" 
d="M540 0h-530l5 46l506 643l-407 -2l8 63h495l-6 -46l-506 -643l442 2zM230 900h56l92 -56l106 56h56l-127 -100h-80z" />
    <glyph glyph-name="Zdotaccent" unicode="&#x17b;" horiz-adv-x="610" 
d="M540 0h-530l5 46l506 643l-407 -2l8 63h495l-6 -46l-506 -643l442 2zM329 850c0 28 22 50 50 50s50 -22 50 -50s-22 -50 -50 -50s-50 22 -50 50z" />
    <glyph glyph-name="Eng" unicode="&#x14a;" horiz-adv-x="670" 
d="M339 -260l7 59c60 8 132 37 142 114l13 109l-315 589l-73 -611h-68l92 750h51l328 -611l73 611h68l-104 -846c-13 -104 -123 -159 -214 -164z" />
    <glyph glyph-name="Eth" unicode="&#xd0;" horiz-adv-x="685" 
d="M29 362l6 53h90l42 335h204c245 0 296 -162 270 -375c-27 -213 -117 -375 -362 -375h-204l44 362h-90zM227 687l-34 -272h183l-6 -53h-183l-37 -299h140c180 0 256 132 279 312c22 180 -22 312 -202 312h-140z" />
    <glyph glyph-name="Thorn" unicode="&#xde;" 
d="M131 150l-18 -150h-68l92 750h68l-19 -150h161c187 0 238 -108 224 -225c-15 -117 -92 -225 -279 -225h-161zM178 537l-39 -324h170c141 0 179 90 188 162c8 72 -8 162 -149 162h-170z" />
    <glyph glyph-name="Ezh" unicode="&#x1b7;" horiz-adv-x="640" 
d="M191 -197c96 0 278 23 307 257c27 224 -151 227 -282 227h-54l7 56l338 346l-408 -2l8 63h496l-7 -55l-342 -347c155 0 347 -47 318 -288c-35 -280 -262 -320 -389 -320c-69 0 -161 19 -206 40l8 65c47 -16 102 -42 206 -42z" />
    <glyph glyph-name="Ezhcaron" unicode="&#x1ee;" horiz-adv-x="640" 
d="M191 -197c96 0 278 23 307 257c27 224 -151 227 -282 227h-54l7 56l338 346l-408 -2l8 63h496l-7 -55l-342 -347c155 0 347 -47 318 -288c-35 -280 -262 -320 -389 -320c-69 0 -161 19 -206 40l8 65c47 -16 102 -42 206 -42zM215 900h56l92 -56l106 56h56l-127 -100h-80z
" />
    <glyph glyph-name="Schwa" unicode="&#x18f;" horiz-adv-x="685" 
d="M76 375l5 47h491c10 158 -38 275 -187 275c-75 0 -135 -11 -237 -59l8 68c79 39 145 54 237 54c224 0 274 -172 248 -385c-27 -213 -119 -385 -343 -385c-235 0 -247 189 -222 385zM306 53c159 0 235 132 261 306h-419c-21 -172 -8 -306 158 -306z" />
    <glyph glyph-name="a" unicode="a" horiz-adv-x="535" 
d="M501 500l-61 -500h-39l-10 41c-57 -33 -109 -51 -163 -51c-161 0 -190 116 -173 260c18 144 76 260 237 260c53 0 107 -17 150 -52l20 42h39zM236 52c65 0 102 11 144 32l41 332c-37 21 -71 32 -136 32c-120 0 -148 -99 -160 -198s-9 -198 111 -198z" />
    <glyph glyph-name="b" unicode="b" horiz-adv-x="535" 
d="M307 510c161 0 191 -116 173 -260c-17 -144 -76 -260 -237 -260c-54 0 -102 18 -149 51l-20 -41h-39l92 750h70l-35 -281c47 28 99 41 145 41zM300 448c-65 0 -103 -11 -144 -32l-41 -332c36 -21 71 -32 136 -32c120 0 147 99 159 198s10 198 -110 198z" />
    <glyph glyph-name="c" unicode="c" horiz-adv-x="460" 
d="M55 250c18 144 74 260 243 260c49 0 104 -6 146 -25l-7 -60c-38 13 -76 23 -147 23c-126 0 -153 -99 -165 -198s-10 -198 116 -198c71 0 112 10 153 23l-8 -60c-46 -19 -103 -25 -152 -25c-169 0 -196 116 -179 260z" />
    <glyph glyph-name="d" unicode="d" horiz-adv-x="535" 
d="M292 510c46 0 96 -13 135 -41l35 281h70l-92 -750h-39l-10 41c-57 -33 -109 -51 -163 -51c-161 0 -190 116 -173 260c18 144 76 260 237 260zM285 448c-120 0 -148 -99 -160 -198s-9 -198 111 -198c65 0 102 11 144 32l41 332c-37 21 -71 32 -136 32z" />
    <glyph glyph-name="e" unicode="e" horiz-adv-x="510" 
d="M128 275h140c99 0 125 38 131 87s-10 86 -109 86c-116 0 -148 -83 -162 -173zM261 218h-140c-6 -87 7 -166 120 -166c72 0 117 7 168 28l-7 -60c-59 -25 -120 -30 -169 -30c-169 0 -195 116 -178 260c18 144 73 260 242 260c141 0 177 -77 168 -148s-63 -144 -204 -144z
" />
    <glyph glyph-name="f" unicode="f" horiz-adv-x="375" 
d="M432 753l-8 -63c-19 5 -38 8 -69 8c-65 0 -116 -23 -124 -88l-13 -110h158l-7 -55h-158l-85 -695h-67l85 695h-100l4 31l104 29l12 105c12 96 74 150 199 150c21 0 50 -2 69 -7z" />
    <glyph glyph-name="g" unicode="g" horiz-adv-x="535" 
d="M228 -10c-161 0 -190 116 -173 260c18 144 76 260 237 260c53 0 107 -17 150 -52l20 42h39l-66 -540c-16 -124 -53 -221 -233 -221c-93 0 -148 16 -190 40l9 69c49 -28 110 -50 189 -50c134 0 145 92 155 162l8 71c-50 -27 -98 -41 -145 -41zM236 52c65 0 102 11 144 32
l41 332c-37 21 -71 32 -136 32c-120 0 -148 -99 -160 -198s-9 -198 111 -198z" />
    <glyph glyph-name="h" unicode="h" horiz-adv-x="500" 
d="M384 363c8 65 -27 85 -89 85c-65 0 -102 -11 -141 -32l-51 -416h-68l92 750h68l-35 -281c47 28 96 41 142 41c119 0 163 -54 152 -150l-44 -360h-70z" />
    <glyph glyph-name="i" unicode="i" horiz-adv-x="240" 
d="M159 -10c-72 0 -106 30 -96 110l49 400h68l-50 -408c-5 -35 5 -45 36 -45zM114 650c0 28 22 50 50 50s50 -22 50 -50s-22 -50 -50 -50s-50 22 -50 50z" />
    <glyph glyph-name="j" unicode="j" horiz-adv-x="230" 
d="M-108 -260l7 59c60 8 131 37 141 114l72 587h68l-73 -596c-13 -104 -125 -159 -215 -164zM114 650c0 28 22 50 50 50s50 -22 50 -50s-22 -50 -50 -50s-50 22 -50 50z" />
    <glyph glyph-name="k" unicode="k" horiz-adv-x="500" 
d="M484 500l-240 -206l206 -294h-87l-166 254l-71 -60l-23 -194h-68l92 750h68l-59 -474l254 224h94z" />
    <glyph glyph-name="l" unicode="l" horiz-adv-x="240" 
d="M159 -10c-72 0 -106 30 -96 110l80 650h68l-81 -658c-5 -35 5 -45 36 -45z" />
    <glyph glyph-name="m" unicode="m" horiz-adv-x="785" 
d="M625 0l44 363c8 65 -27 85 -84 85c-62 0 -98 -12 -141 -33c2 -16 2 -33 0 -52l-44 -363h-70l44 363c8 65 -27 85 -84 85c-58 0 -93 -10 -134 -30l-51 -418h-70l61 500h39l10 -41c52 35 106 51 152 51c67 0 112 -19 133 -57c57 36 112 57 162 57c107 0 159 -50 147 -150
l-44 -360h-70z" />
    <glyph glyph-name="n" unicode="n" horiz-adv-x="500" 
d="M340 0l44 363c8 65 -27 85 -89 85c-65 0 -100 -11 -139 -32l-51 -416h-70l61 500h39l10 -42c51 35 104 52 157 52c119 0 163 -54 152 -150l-44 -360h-70z" />
    <glyph glyph-name="o" unicode="o" horiz-adv-x="530" 
d="M475 250c-19 -153 -70 -260 -242 -260c-171 0 -197 107 -178 260s71 260 242 260c172 0 197 -107 178 -260zM405 250c14 113 15 198 -115 198c-132 0 -151 -85 -165 -198s-16 -198 116 -198c130 0 150 85 164 198z" />
    <glyph glyph-name="p" unicode="p" horiz-adv-x="535" 
d="M243 -10c-46 0 -95 13 -135 41l-34 -281h-70l92 750h39l10 -41c56 33 108 51 162 51c161 0 191 -116 173 -260c-17 -144 -76 -260 -237 -260zM251 52c120 0 147 99 159 198s10 198 -110 198c-65 0 -103 -11 -144 -32l-41 -332c36 -21 71 -32 136 -32z" />
    <glyph glyph-name="q" unicode="q" horiz-adv-x="535" 
d="M228 -10c-161 0 -190 116 -173 260c18 144 76 260 237 260c54 0 102 -18 150 -51l20 41h39l-92 -750h-70l34 281c-46 -28 -99 -41 -145 -41zM236 52c65 0 102 11 144 32l41 332c-37 21 -71 32 -136 32c-120 0 -148 -99 -160 -198s-9 -198 111 -198z" />
    <glyph glyph-name="r" unicode="r" horiz-adv-x="363" 
d="M372 505l-8 -65c-15 5 -34 8 -59 8c-68 0 -110 -11 -149 -32l-51 -416h-70l61 500h39l10 -42c51 35 111 52 167 52c23 0 41 -2 60 -5z" />
    <glyph glyph-name="s" unicode="s" horiz-adv-x="460" 
d="M132 362c-5 -44 10 -67 105 -75c140 -13 168 -61 158 -143c-9 -77 -68 -154 -220 -154c-48 0 -115 12 -146 25l8 60c29 -11 76 -23 147 -23c104 0 137 44 143 91c6 46 -4 78 -102 86c-144 13 -168 64 -159 133c9 71 64 148 205 148c47 0 99 -6 141 -25l-7 -60
c-38 13 -75 23 -142 23c-99 0 -125 -37 -131 -86z" />
    <glyph glyph-name="t" unicode="t" horiz-adv-x="375" 
d="M301 50l-7 -56c-13 -3 -33 -4 -46 -4c-83 0 -155 38 -143 136l39 319h-100l4 31l104 29l16 135l73 20l-20 -160h155l-7 -55h-155l-38 -311c-8 -61 22 -86 85 -86c13 0 27 1 40 2z" />
    <glyph glyph-name="u" unicode="u" horiz-adv-x="500" 
d="M161 500l-45 -363c-8 -65 28 -85 90 -85c65 0 99 11 139 32l51 416h70l-61 -500h-39l-10 42c-52 -35 -105 -52 -158 -52c-119 0 -163 54 -151 150l44 360h70z" />
    <glyph glyph-name="v" unicode="v" horiz-adv-x="480" 
d="M51 500h77l93 -410l193 410h77l-258 -510h-50z" />
    <glyph glyph-name="w" unicode="w" horiz-adv-x="700" 
d="M636 500h75l-204 -510h-52l-83 435l-191 -435h-52l-78 510h75l46 -392l172 392h74l76 -392z" />
    <glyph glyph-name="x" unicode="x" horiz-adv-x="490" 
d="M73 0h-83l216 257l-145 243h83l108 -196l156 196h83l-205 -243l154 -257h-83l-117 210z" />
    <glyph glyph-name="y" unicode="y" horiz-adv-x="500" 
d="M167 -261c-48 0 -105 8 -146 27l7 60c38 -13 80 -28 147 -28c134 0 145 92 155 162l8 71c-46 -28 -93 -41 -140 -41c-119 0 -163 54 -151 150l44 360h70l-45 -363c-8 -65 28 -85 90 -85c65 0 99 11 139 32l51 416h70l-66 -540c-16 -124 -53 -221 -233 -221z" />
    <glyph glyph-name="z" unicode="z" horiz-adv-x="455" 
d="M395 0h-390l5 45l342 396h-278l7 59h365l-6 -45l-341 -396h303z" />
    <glyph glyph-name="aacute" unicode="&#xe1;" horiz-adv-x="535" 
d="M501 500l-61 -500h-39l-10 41c-57 -33 -109 -51 -163 -51c-161 0 -190 116 -173 260c18 144 76 260 237 260c53 0 107 -17 150 -52l20 42h39zM236 52c65 0 102 11 144 32l41 332c-37 21 -71 32 -136 32c-120 0 -148 -99 -160 -198s-9 -198 111 -198zM327 550h-50l75 200
h80z" />
    <glyph glyph-name="agrave" unicode="&#xe0;" horiz-adv-x="535" 
d="M501 500l-61 -500h-39l-10 41c-57 -33 -109 -51 -163 -51c-161 0 -190 116 -173 260c18 144 76 260 237 260c53 0 107 -17 150 -52l20 42h39zM236 52c65 0 102 11 144 32l41 332c-37 21 -71 32 -136 32c-120 0 -148 -99 -160 -198s-9 -198 111 -198zM327 550h-50l-55 200
h80z" />
    <glyph glyph-name="acircumflex" unicode="&#xe2;" horiz-adv-x="535" 
d="M501 500l-61 -500h-39l-10 41c-57 -33 -109 -51 -163 -51c-161 0 -190 116 -173 260c18 144 76 260 237 260c53 0 107 -17 150 -52l20 42h39zM236 52c65 0 102 11 144 32l41 332c-37 21 -71 32 -136 32c-120 0 -148 -99 -160 -198s-9 -198 111 -198zM487 550h-55
l-113 141l-147 -141h-55l170 200h80z" />
    <glyph glyph-name="adieresis" unicode="&#xe4;" horiz-adv-x="535" 
d="M501 500l-61 -500h-39l-10 41c-57 -33 -109 -51 -163 -51c-161 0 -190 116 -173 260c18 144 76 260 237 260c53 0 107 -17 150 -52l20 42h39zM236 52c65 0 102 11 144 32l41 332c-37 21 -71 32 -136 32c-120 0 -148 -99 -160 -198s-9 -198 111 -198zM169 650
c0 28 22 50 50 50s50 -22 50 -50s-22 -50 -50 -50s-50 22 -50 50zM359 650c0 28 22 50 50 50s50 -22 50 -50s-22 -50 -50 -50s-50 22 -50 50z" />
    <glyph glyph-name="atilde" unicode="&#xe3;" horiz-adv-x="535" 
d="M501 500l-61 -500h-39l-10 41c-57 -33 -109 -51 -163 -51c-161 0 -190 116 -173 260c18 144 76 260 237 260c53 0 107 -17 150 -52l20 42h39zM236 52c65 0 102 11 144 32l41 332c-37 21 -71 32 -136 32c-120 0 -148 -99 -160 -198s-9 -198 111 -198zM390 644
c45 0 52 31 55 51h56c-4 -70 -51 -110 -123 -110c-82 0 -84 71 -139 71c-45 0 -53 -31 -55 -51h-56c3 70 50 110 122 110c82 0 85 -71 140 -71z" />
    <glyph glyph-name="aring" unicode="&#xe5;" horiz-adv-x="535" 
d="M501 500l-61 -500h-39l-10 41c-57 -33 -109 -51 -163 -51c-161 0 -190 116 -173 260c18 144 76 260 237 260c53 0 107 -17 150 -52l20 42h39zM236 52c65 0 102 11 144 32l41 332c-37 21 -71 32 -136 32c-120 0 -148 -99 -160 -198s-9 -198 111 -198zM321 702
c-31 0 -56 -15 -61 -52c-4 -37 17 -52 48 -52s56 15 60 52c5 37 -16 52 -47 52zM302 549c-60 0 -100 32 -92 101c9 69 57 101 117 101s100 -32 91 -101c-8 -69 -56 -101 -116 -101z" />
    <glyph glyph-name="acaron" unicode="&#x1ce;" horiz-adv-x="535" 
d="M501 500l-61 -500h-39l-10 41c-57 -33 -109 -51 -163 -51c-161 0 -190 116 -173 260c18 144 76 260 237 260c53 0 107 -17 150 -52l20 42h39zM236 52c65 0 102 11 144 32l41 332c-37 21 -71 32 -136 32c-120 0 -148 -99 -160 -198s-9 -198 111 -198zM457 750h55
l-170 -200h-80l-120 200h55l112 -141z" />
    <glyph glyph-name="amacron" unicode="&#x101;" horiz-adv-x="535" 
d="M501 500l-61 -500h-39l-10 41c-57 -33 -109 -51 -163 -51c-161 0 -190 116 -173 260c18 144 76 260 237 260c53 0 107 -17 150 -52l20 42h39zM236 52c65 0 102 11 144 32l41 332c-37 21 -71 32 -136 32c-120 0 -148 -99 -160 -198s-9 -198 111 -198zM174 620l7 60h274
l-7 -60h-274z" />
    <glyph glyph-name="abreve" unicode="&#x103;" horiz-adv-x="535" 
d="M501 500l-61 -500h-39l-10 41c-57 -33 -109 -51 -163 -51c-161 0 -190 116 -173 260c18 144 76 260 237 260c53 0 107 -17 150 -52l20 42h39zM236 52c65 0 102 11 144 32l41 332c-37 21 -71 32 -136 32c-120 0 -148 -99 -160 -198s-9 -198 111 -198zM302 550
c-115 0 -164 66 -150 200h51c-10 -91 9 -140 106 -140s128 49 142 140h51c-20 -134 -85 -200 -200 -200z" />
    <glyph glyph-name="ainvertedbreve" unicode="&#x203;" horiz-adv-x="535" 
d="M501 500l-61 -500h-39l-10 41c-57 -33 -109 -51 -163 -51c-161 0 -190 116 -173 260c18 144 76 260 237 260c53 0 107 -17 150 -52l20 42h39zM236 52c65 0 102 11 144 32l41 332c-37 21 -71 32 -136 32c-120 0 -148 -99 -160 -198s-9 -198 111 -198zM327 750
c115 0 163 -66 150 -200h-51c9 91 -10 140 -107 140s-128 -49 -141 -140h-51c19 134 85 200 200 200z" />
    <glyph glyph-name="adoublegrave" unicode="&#xe025;" horiz-adv-x="535" 
d="M501 500l-61 -500h-39l-10 41c-57 -33 -109 -51 -163 -51c-161 0 -190 116 -173 260c18 144 76 260 237 260c53 0 107 -17 150 -52l20 42h39zM236 52c65 0 102 11 144 32l41 332c-37 21 -71 32 -136 32c-120 0 -148 -99 -160 -198s-9 -198 111 -198zM267 550h-50l-55 200
h80zM387 550h-50l-55 200h80z" />
    <glyph glyph-name="adotabove" unicode="&#xe026;" horiz-adv-x="535" 
d="M501 500l-61 -500h-39l-10 41c-57 -33 -109 -51 -163 -51c-161 0 -190 116 -173 260c18 144 76 260 237 260c53 0 107 -17 150 -52l20 42h39zM236 52c65 0 102 11 144 32l41 332c-37 21 -71 32 -136 32c-120 0 -148 -99 -160 -198s-9 -198 111 -198zM264 650
c0 28 22 50 50 50s50 -22 50 -50s-22 -50 -50 -50s-50 22 -50 50z" />
    <glyph glyph-name="aringacute" unicode="&#x1fb;" horiz-adv-x="535" 
d="M501 500l-61 -500h-39l-10 41c-57 -33 -109 -51 -163 -51c-161 0 -190 116 -173 260c18 144 76 260 237 260c53 0 107 -17 150 -52l20 42h39zM236 52c65 0 102 11 144 32l41 332c-37 21 -71 32 -136 32c-120 0 -148 -99 -160 -198s-9 -198 111 -198zM302 549
c-60 0 -100 32 -92 101c2 15 6 31 13 43l74 145h70l-55 -87h15c60 0 100 -32 91 -101c-8 -69 -56 -101 -116 -101zM321 702c-31 0 -56 -15 -61 -52c-4 -37 17 -52 48 -52s56 15 60 52c5 37 -16 52 -47 52z" />
    <glyph glyph-name="adieresismacron" unicode="&#x1df;" horiz-adv-x="535" 
d="M501 500l-61 -500h-39l-10 41c-57 -33 -109 -51 -163 -51c-161 0 -190 116 -173 260c18 144 76 260 237 260c53 0 107 -17 150 -52l20 42h39zM236 52c65 0 102 11 144 32l41 332c-37 21 -71 32 -136 32c-120 0 -148 -99 -160 -198s-9 -198 111 -198zM185 710l7 60h274
l-7 -60h-274zM165 615c0 28 22 50 50 50s50 -22 50 -50s-22 -50 -50 -50s-50 22 -50 50zM355 615c0 28 22 50 50 50s50 -22 50 -50s-22 -50 -50 -50s-50 22 -50 50z" />
    <glyph glyph-name="aogonek" unicode="&#x105;" horiz-adv-x="535" 
d="M501 500l-61 -500c-70 -36 -118 -90 -124 -142c-4 -31 8 -57 47 -57c22 0 44 4 58 8l-6 -48c-18 -6 -43 -11 -72 -11c-60 0 -97 36 -90 95c9 68 59 133 142 176l-4 20c-57 -33 -109 -51 -163 -51c-161 0 -190 116 -173 260c18 144 76 260 237 260c53 0 107 -17 150 -52
l20 42h39zM236 52c65 0 102 11 144 32l41 332c-37 21 -71 32 -136 32c-120 0 -148 -99 -160 -198s-9 -198 111 -198z" />
    <glyph glyph-name="ae" unicode="&#xe6;" horiz-adv-x="835" 
d="M377 224h-151c-85 0 -112 -34 -118 -83c-6 -46 11 -89 109 -89c56 0 112 19 146 45l19 15c-7 33 -8 70 -5 111v1zM453 275h140c99 0 125 38 131 87s-10 86 -109 86c-116 0 -148 -83 -162 -173zM558 -10c-80 0 -128 26 -154 68l-34 -24c-49 -33 -112 -44 -163 -44
c-135 0 -181 66 -170 151c9 77 53 140 201 140h146l8 62c9 73 -22 105 -118 105c-69 0 -121 -12 -162 -25l8 60c46 19 112 27 161 27c95 0 147 -26 169 -69c37 43 91 69 172 69c141 0 177 -77 168 -148s-63 -144 -204 -144h-140c-6 -87 7 -166 120 -166c72 0 117 7 168 28
l-7 -60c-59 -25 -120 -30 -169 -30z" />
    <glyph glyph-name="aeacute" unicode="&#x1fd;" horiz-adv-x="835" 
d="M482 550h-50l75 200h100zM377 224h-151c-85 0 -112 -34 -118 -83c-6 -46 11 -89 109 -89c56 0 112 19 146 45l19 15c-7 33 -8 70 -5 111v1zM453 275h140c99 0 125 38 131 87s-10 86 -109 86c-116 0 -148 -83 -162 -173zM558 -10c-80 0 -128 26 -154 68l-34 -24
c-49 -33 -112 -44 -163 -44c-135 0 -181 66 -170 151c9 77 53 140 201 140h146l8 62c9 73 -22 105 -118 105c-69 0 -121 -12 -162 -25l8 60c46 19 112 27 161 27c95 0 147 -26 169 -69c37 43 91 69 172 69c141 0 177 -77 168 -148s-63 -144 -204 -144h-140
c-6 -87 7 -166 120 -166c72 0 117 7 168 28l-7 -60c-59 -25 -120 -30 -169 -30z" />
    <glyph glyph-name="aemacron" unicode="&#x1e3;" horiz-adv-x="835" 
d="M329 620l7 60h274l-7 -60h-274zM377 224h-151c-85 0 -112 -34 -118 -83c-6 -46 11 -89 109 -89c56 0 112 19 146 45l19 15c-7 33 -8 70 -5 111v1zM453 275h140c99 0 125 38 131 87s-10 86 -109 86c-116 0 -148 -83 -162 -173zM558 -10c-80 0 -128 26 -154 68l-34 -24
c-49 -33 -112 -44 -163 -44c-135 0 -181 66 -170 151c9 77 53 140 201 140h146l8 62c9 73 -22 105 -118 105c-69 0 -121 -12 -162 -25l8 60c46 19 112 27 161 27c95 0 147 -26 169 -69c37 43 91 69 172 69c141 0 177 -77 168 -148s-63 -144 -204 -144h-140
c-6 -87 7 -166 120 -166c72 0 117 7 168 28l-7 -60c-59 -25 -120 -30 -169 -30z" />
    <glyph glyph-name="cacute" unicode="&#x107;" horiz-adv-x="460" 
d="M55 250c18 144 74 260 243 260c49 0 104 -6 146 -25l-7 -60c-38 13 -76 23 -147 23c-126 0 -153 -99 -165 -198s-10 -198 116 -198c71 0 112 10 153 23l-8 -60c-46 -19 -103 -25 -152 -25c-169 0 -196 116 -179 260zM328 550h-50l75 200h80z" />
    <glyph glyph-name="ccircumflex" unicode="&#x109;" horiz-adv-x="460" 
d="M55 250c18 144 74 260 243 260c49 0 104 -6 146 -25l-7 -60c-38 13 -76 23 -147 23c-126 0 -153 -99 -165 -198s-10 -198 116 -198c71 0 112 10 153 23l-8 -60c-46 -19 -103 -25 -152 -25c-169 0 -196 116 -179 260zM488 550h-55l-113 141l-147 -141h-55l170 200h80z" />
    <glyph glyph-name="ccaron" unicode="&#x10d;" horiz-adv-x="460" 
d="M55 250c18 144 74 260 243 260c49 0 104 -6 146 -25l-7 -60c-38 13 -76 23 -147 23c-126 0 -153 -99 -165 -198s-10 -198 116 -198c71 0 112 10 153 23l-8 -60c-46 -19 -103 -25 -152 -25c-169 0 -196 116 -179 260zM458 750h55l-170 -200h-80l-120 200h55l112 -141z" />
    <glyph glyph-name="cdotaccent" unicode="&#x10b;" horiz-adv-x="460" 
d="M55 250c18 144 74 260 243 260c49 0 104 -6 146 -25l-7 -60c-38 13 -76 23 -147 23c-126 0 -153 -99 -165 -198s-10 -198 116 -198c71 0 112 10 153 23l-8 -60c-46 -19 -103 -25 -152 -25c-169 0 -196 116 -179 260zM265 650c0 28 22 50 50 50s50 -22 50 -50
s-22 -50 -50 -50s-50 22 -50 50z" />
    <glyph glyph-name="ccedilla" unicode="&#xe7;" horiz-adv-x="460" 
d="M55 250c18 144 74 260 243 260c49 0 104 -6 146 -25l-7 -60c-38 13 -76 23 -147 23c-126 0 -153 -99 -165 -198s-10 -198 116 -198c71 0 112 10 153 23l-8 -60c-43 -17 -95 -24 -141 -25l-2 -54c38 -10 90 -35 83 -97c-7 -54 -52 -89 -122 -89c-54 0 -82 12 -92 18l6 46
s34 -13 75 -13s68 11 71 36c6 43 -35 57 -81 63l21 92c-142 13 -165 123 -149 258z" />
    <glyph glyph-name="dcaron" unicode="&#x10f;" horiz-adv-x="555" 
d="M292 510c46 0 96 -13 135 -41l35 281h70l-92 -750h-39l-10 41c-57 -33 -109 -51 -163 -51c-161 0 -190 116 -173 260c18 144 76 260 237 260zM285 448c-120 0 -148 -99 -160 -198s-9 -198 111 -198c65 0 102 11 144 32l41 332c-37 21 -71 32 -136 32zM598 750h78
l-73 -200h-46z" />
    <glyph glyph-name="dcedilla" unicode="&#x1e11;" horiz-adv-x="535" 
d="M292 510c46 0 96 -13 135 -41l35 281h70l-92 -750h-39l-10 41c-57 -33 -109 -51 -163 -51c-161 0 -190 116 -173 260c18 144 76 260 237 260zM285 448c-120 0 -148 -99 -160 -198s-9 -198 111 -198c65 0 102 11 144 32l41 332c-37 21 -71 32 -136 32zM188 -95l10 45
c93 -10 139 -51 132 -111c-7 -54 -52 -89 -122 -89c-54 0 -82 12 -92 18l6 46s34 -13 75 -13s68 11 71 36c6 43 -34 62 -80 68z" />
    <glyph glyph-name="ddotbelow" unicode="&#x1e0d;" horiz-adv-x="535" 
d="M292 510c46 0 96 -13 135 -41l35 281h70l-92 -750h-39l-10 41c-57 -33 -109 -51 -163 -51c-161 0 -190 116 -173 260c18 144 76 260 237 260zM285 448c-120 0 -148 -99 -160 -198s-9 -198 111 -198c65 0 102 11 144 32l41 332c-37 21 -71 32 -136 32zM171 -150
c0 28 22 50 50 50s50 -22 50 -50s-22 -50 -50 -50s-50 22 -50 50z" />
    <glyph glyph-name="dcroat" unicode="&#x111;" horiz-adv-x="535" 
d="M292 510c47 0 91 -14 135 -41l17 134h-135l6 51h135l12 96h70l-12 -96h90l-6 -51h-90l-74 -603h-39l-10 41c-57 -33 -109 -51 -163 -51c-161 0 -190 116 -173 260c18 144 76 260 237 260zM236 52c65 0 102 11 144 32l41 332c-37 21 -71 32 -136 32
c-120 0 -148 -99 -160 -198s-9 -198 111 -198z" />
    <glyph glyph-name="eacute" unicode="&#xe9;" horiz-adv-x="510" 
d="M327 550h-50l75 200h80zM128 275h140c99 0 125 38 131 87s-10 86 -109 86c-116 0 -148 -83 -162 -173zM261 218h-140c-6 -87 7 -166 120 -166c72 0 117 7 168 28l-7 -60c-59 -25 -120 -30 -169 -30c-169 0 -195 116 -178 260c18 144 73 260 242 260
c141 0 177 -77 168 -148s-63 -144 -204 -144z" />
    <glyph glyph-name="egrave" unicode="&#xe8;" horiz-adv-x="510" 
d="M327 550h-50l-55 200h80zM128 275h140c99 0 125 38 131 87s-10 86 -109 86c-116 0 -148 -83 -162 -173zM261 218h-140c-6 -87 7 -166 120 -166c72 0 117 7 168 28l-7 -60c-59 -25 -120 -30 -169 -30c-169 0 -195 116 -178 260c18 144 73 260 242 260
c141 0 177 -77 168 -148s-63 -144 -204 -144z" />
    <glyph glyph-name="ecircumflex" unicode="&#xea;" horiz-adv-x="510" 
d="M487 550h-55l-113 141l-147 -141h-55l170 200h80zM128 275h140c99 0 125 38 131 87s-10 86 -109 86c-116 0 -148 -83 -162 -173zM261 218h-140c-6 -87 7 -166 120 -166c72 0 117 7 168 28l-7 -60c-59 -25 -120 -30 -169 -30c-169 0 -195 116 -178 260
c18 144 73 260 242 260c141 0 177 -77 168 -148s-63 -144 -204 -144z" />
    <glyph glyph-name="edieresis" unicode="&#xeb;" horiz-adv-x="510" 
d="M128 275h140c99 0 125 38 131 87s-10 86 -109 86c-116 0 -148 -83 -162 -173zM261 218h-140c-6 -87 7 -166 120 -166c72 0 117 7 168 28l-7 -60c-59 -25 -120 -30 -169 -30c-169 0 -195 116 -178 260c18 144 73 260 242 260c141 0 177 -77 168 -148s-63 -144 -204 -144z
M169 650c0 28 22 50 50 50s50 -22 50 -50s-22 -50 -50 -50s-50 22 -50 50zM359 650c0 28 22 50 50 50s50 -22 50 -50s-22 -50 -50 -50s-50 22 -50 50z" />
    <glyph glyph-name="ecaron" unicode="&#x11b;" horiz-adv-x="510" 
d="M457 750h55l-170 -200h-80l-120 200h55l112 -141zM128 275h140c99 0 125 38 131 87s-10 86 -109 86c-116 0 -148 -83 -162 -173zM261 218h-140c-6 -87 7 -166 120 -166c72 0 117 7 168 28l-7 -60c-59 -25 -120 -30 -169 -30c-169 0 -195 116 -178 260
c18 144 73 260 242 260c141 0 177 -77 168 -148s-63 -144 -204 -144z" />
    <glyph glyph-name="emacron" unicode="&#x113;" horiz-adv-x="510" 
d="M174 620l7 60h274l-7 -60h-274zM128 275h140c99 0 125 38 131 87s-10 86 -109 86c-116 0 -148 -83 -162 -173zM261 218h-140c-6 -87 7 -166 120 -166c72 0 117 7 168 28l-7 -60c-59 -25 -120 -30 -169 -30c-169 0 -195 116 -178 260c18 144 73 260 242 260
c141 0 177 -77 168 -148s-63 -144 -204 -144z" />
    <glyph glyph-name="ebreve" unicode="&#x115;" horiz-adv-x="510" 
d="M302 550c-115 0 -164 66 -150 200h51c-10 -91 9 -140 106 -140s128 49 142 140h51c-20 -134 -85 -200 -200 -200zM128 275h140c99 0 125 38 131 87s-10 86 -109 86c-116 0 -148 -83 -162 -173zM261 218h-140c-6 -87 7 -166 120 -166c72 0 117 7 168 28l-7 -60
c-59 -25 -120 -30 -169 -30c-169 0 -195 116 -178 260c18 144 73 260 242 260c141 0 177 -77 168 -148s-63 -144 -204 -144z" />
    <glyph glyph-name="einvertedbreve" unicode="&#x207;" horiz-adv-x="510" 
d="M327 750c115 0 163 -66 150 -200h-51c9 91 -10 140 -107 140s-128 -49 -141 -140h-51c19 134 85 200 200 200zM128 275h140c99 0 125 38 131 87s-10 86 -109 86c-116 0 -148 -83 -162 -173zM261 218h-140c-6 -87 7 -166 120 -166c72 0 117 7 168 28l-7 -60
c-59 -25 -120 -30 -169 -30c-169 0 -195 116 -178 260c18 144 73 260 242 260c141 0 177 -77 168 -148s-63 -144 -204 -144z" />
    <glyph glyph-name="edoublegrave" unicode="&#xe027;" horiz-adv-x="510" 
d="M267 550h-50l-55 200h80zM387 550h-50l-55 200h80zM128 275h140c99 0 125 38 131 87s-10 86 -109 86c-116 0 -148 -83 -162 -173zM261 218h-140c-6 -87 7 -166 120 -166c72 0 117 7 168 28l-7 -60c-59 -25 -120 -30 -169 -30c-169 0 -195 116 -178 260
c18 144 73 260 242 260c141 0 177 -77 168 -148s-63 -144 -204 -144z" />
    <glyph glyph-name="edotaccent" unicode="&#x117;" horiz-adv-x="510" 
d="M128 275h140c99 0 125 38 131 87s-10 86 -109 86c-116 0 -148 -83 -162 -173zM261 218h-140c-6 -87 7 -166 120 -166c72 0 117 7 168 28l-7 -60c-59 -25 -120 -30 -169 -30c-169 0 -195 116 -178 260c18 144 73 260 242 260c141 0 177 -77 168 -148s-63 -144 -204 -144z
M264 650c0 28 22 50 50 50s50 -22 50 -50s-22 -50 -50 -50s-50 22 -50 50z" />
    <glyph glyph-name="eacutedotbelow" unicode="&#xe028;" horiz-adv-x="510" 
d="M327 550h-50l75 200h80zM128 275h140c99 0 125 38 131 87s-10 86 -109 86c-116 0 -148 -83 -162 -173zM261 218h-140c-6 -87 7 -166 120 -166c72 0 117 7 168 28l-7 -60c-59 -25 -120 -30 -169 -30c-169 0 -195 116 -178 260c18 144 73 260 242 260
c141 0 177 -77 168 -148s-63 -144 -204 -144zM166 -150c0 28 22 50 50 50s50 -22 50 -50s-22 -50 -50 -50s-50 22 -50 50z" />
    <glyph glyph-name="egravedotbelow" unicode="&#xe029;" horiz-adv-x="510" 
d="M327 550h-50l-55 200h80zM128 275h140c99 0 125 38 131 87s-10 86 -109 86c-116 0 -148 -83 -162 -173zM261 218h-140c-6 -87 7 -166 120 -166c72 0 117 7 168 28l-7 -60c-59 -25 -120 -30 -169 -30c-169 0 -195 116 -178 260c18 144 73 260 242 260
c141 0 177 -77 168 -148s-63 -144 -204 -144zM166 -150c0 28 22 50 50 50s50 -22 50 -50s-22 -50 -50 -50s-50 22 -50 50z" />
    <glyph glyph-name="eogonek" unicode="&#x119;" horiz-adv-x="510" 
d="M128 275h140c99 0 125 38 131 87s-10 86 -109 86c-116 0 -148 -83 -162 -173zM409 80l-7 -60c-22 -9 -43 -16 -64 -20c-70 -36 -118 -90 -124 -142c-4 -31 8 -57 47 -57c22 0 44 4 58 8l-6 -48c-18 -6 -43 -11 -72 -11c-60 0 -97 36 -90 95c7 53 39 105 93 145h-11
c-169 0 -195 116 -178 260c18 144 73 260 242 260c141 0 177 -77 168 -148s-63 -144 -204 -144h-140c-6 -87 7 -166 120 -166c72 0 117 7 168 28z" />
    <glyph glyph-name="gacute" unicode="&#x1f5;" horiz-adv-x="535" 
d="M228 -10c-161 0 -190 116 -173 260c18 144 76 260 237 260c53 0 107 -17 150 -52l20 42h39l-66 -540c-16 -124 -53 -221 -233 -221c-93 0 -148 16 -190 40l9 69c49 -28 110 -50 189 -50c134 0 145 92 155 162l8 71c-50 -27 -98 -41 -145 -41zM236 52c65 0 102 11 144 32
l41 332c-37 21 -71 32 -136 32c-120 0 -148 -99 -160 -198s-9 -198 111 -198zM322 550h-50l75 200h80z" />
    <glyph glyph-name="gcircumflex" unicode="&#x11d;" horiz-adv-x="535" 
d="M228 -10c-161 0 -190 116 -173 260c18 144 76 260 237 260c53 0 107 -17 150 -52l20 42h39l-66 -540c-16 -124 -53 -221 -233 -221c-93 0 -148 16 -190 40l9 69c49 -28 110 -50 189 -50c134 0 145 92 155 162l8 71c-50 -27 -98 -41 -145 -41zM236 52c65 0 102 11 144 32
l41 332c-37 21 -71 32 -136 32c-120 0 -148 -99 -160 -198s-9 -198 111 -198zM482 550h-55l-113 141l-147 -141h-55l170 200h80z" />
    <glyph glyph-name="gtilde" unicode="&#xe02a;" horiz-adv-x="535" 
d="M228 -10c-161 0 -190 116 -173 260c18 144 76 260 237 260c53 0 107 -17 150 -52l20 42h39l-66 -540c-16 -124 -53 -221 -233 -221c-93 0 -148 16 -190 40l9 69c49 -28 110 -50 189 -50c134 0 145 92 155 162l8 71c-50 -27 -98 -41 -145 -41zM236 52c65 0 102 11 144 32
l41 332c-37 21 -71 32 -136 32c-120 0 -148 -99 -160 -198s-9 -198 111 -198zM385 644c45 0 52 31 55 51h56c-4 -70 -51 -110 -123 -110c-82 0 -84 71 -139 71c-45 0 -53 -31 -55 -51h-56c3 70 50 110 122 110c82 0 85 -71 140 -71z" />
    <glyph glyph-name="gcaron" unicode="&#x1e7;" horiz-adv-x="535" 
d="M228 -10c-161 0 -190 116 -173 260c18 144 76 260 237 260c53 0 107 -17 150 -52l20 42h39l-66 -540c-16 -124 -53 -221 -233 -221c-93 0 -148 16 -190 40l9 69c49 -28 110 -50 189 -50c134 0 145 92 155 162l8 71c-50 -27 -98 -41 -145 -41zM236 52c65 0 102 11 144 32
l41 332c-37 21 -71 32 -136 32c-120 0 -148 -99 -160 -198s-9 -198 111 -198zM452 750h55l-170 -200h-80l-120 200h55l112 -141z" />
    <glyph glyph-name="gbreve" unicode="&#x11f;" horiz-adv-x="535" 
d="M228 -10c-161 0 -190 116 -173 260c18 144 76 260 237 260c53 0 107 -17 150 -52l20 42h39l-66 -540c-16 -124 -53 -221 -233 -221c-93 0 -148 16 -190 40l9 69c49 -28 110 -50 189 -50c134 0 145 92 155 162l8 71c-50 -27 -98 -41 -145 -41zM236 52c65 0 102 11 144 32
l41 332c-37 21 -71 32 -136 32c-120 0 -148 -99 -160 -198s-9 -198 111 -198zM297 550c-115 0 -164 66 -150 200h51c-10 -91 9 -140 106 -140s128 49 142 140h51c-20 -134 -85 -200 -200 -200z" />
    <glyph glyph-name="gdotaccent" unicode="&#x121;" horiz-adv-x="535" 
d="M228 -10c-161 0 -190 116 -173 260c18 144 76 260 237 260c53 0 107 -17 150 -52l20 42h39l-66 -540c-16 -124 -53 -221 -233 -221c-93 0 -148 16 -190 40l9 69c49 -28 110 -50 189 -50c134 0 145 92 155 162l8 71c-50 -27 -98 -41 -145 -41zM236 52c65 0 102 11 144 32
l41 332c-37 21 -71 32 -136 32c-120 0 -148 -99 -160 -198s-9 -198 111 -198zM259 650c0 28 22 50 50 50s50 -22 50 -50s-22 -50 -50 -50s-50 22 -50 50z" />
    <glyph glyph-name="gcommaaccent" unicode="&#x123;" horiz-adv-x="535" 
d="M228 -10c-161 0 -190 116 -173 260c18 144 76 260 237 260c53 0 107 -17 150 -52l20 42h39l-66 -540c-16 -124 -53 -221 -233 -221c-93 0 -148 16 -190 40l9 69c49 -28 110 -50 189 -50c134 0 145 92 155 162l8 71c-50 -27 -98 -41 -145 -41zM236 52c65 0 102 11 144 32
l41 332c-37 21 -71 32 -136 32c-120 0 -148 -99 -160 -198s-9 -198 111 -198zM336 550h-80l81 200h50z" />
    <glyph glyph-name="gcommaturnedabove" unicode="&#xe02b;" horiz-adv-x="535" 
d="M228 -10c-161 0 -190 116 -173 260c18 144 76 260 237 260c53 0 107 -17 150 -52l20 42h39l-66 -540c-16 -124 -53 -221 -233 -221c-93 0 -148 16 -190 40l9 69c49 -28 110 -50 189 -50c134 0 145 92 155 162l8 71c-50 -27 -98 -41 -145 -41zM236 52c65 0 102 11 144 32
l41 332c-37 21 -71 32 -136 32c-120 0 -148 -99 -160 -198s-9 -198 111 -198zM336 550h-80l81 200h50z" />
    <glyph glyph-name="gstroke" unicode="&#x1e5;" horiz-adv-x="535" 
d="M420 -116c-24 -85 -77 -145 -218 -145c-93 0 -148 16 -190 40l9 69c49 -28 110 -50 189 -50c87 0 122 40 138 86h-133l7 51h139c2 9 3 17 4 25l8 71c-50 -27 -98 -41 -145 -41c-161 0 -190 116 -173 260c18 144 76 260 237 260c53 0 107 -17 150 -52l20 42h39l-66 -540
c-1 -8 -2 -17 -4 -25h90l-7 -51h-94zM236 52c65 0 102 11 144 32l41 332c-37 21 -71 32 -136 32c-120 0 -148 -99 -160 -198s-9 -198 111 -198z" />
    <glyph glyph-name="hcircumflex" unicode="&#x125;" horiz-adv-x="500" 
d="M384 363c8 65 -27 85 -89 85c-65 0 -102 -11 -141 -32l-51 -416h-68l92 750h68l-35 -281c47 28 96 41 142 41c119 0 163 -54 152 -150l-44 -360h-70zM322 800h-56l-92 56l-106 -56h-56l127 100h80z" />
    <glyph glyph-name="hcaron" unicode="&#xe02c;" horiz-adv-x="500" 
d="M384 363c8 65 -27 85 -89 85c-65 0 -102 -11 -141 -32l-51 -416h-68l92 750h68l-35 -281c47 28 96 41 142 41c119 0 163 -54 152 -150l-44 -360h-70zM24 900h56l92 -56l106 56h56l-127 -100h-80z" />
    <glyph glyph-name="hdotbelow" unicode="&#x1e25;" horiz-adv-x="500" 
d="M384 363c8 65 -27 85 -89 85c-65 0 -102 -11 -141 -32l-51 -416h-68l92 750h68l-35 -281c47 28 96 41 142 41c119 0 163 -54 152 -150l-44 -360h-70zM154 -150c0 28 22 50 50 50s50 -22 50 -50s-22 -50 -50 -50s-50 22 -50 50z" />
    <glyph glyph-name="hmacronbelow" unicode="&#xe02d;" horiz-adv-x="500" 
d="M384 363c8 65 -27 85 -89 85c-65 0 -102 -11 -141 -32l-51 -416h-68l92 750h68l-35 -281c47 28 96 41 142 41c119 0 163 -54 152 -150l-44 -360h-70zM345 -120l-8 -60h-274l8 60h274z" />
    <glyph glyph-name="hbar" unicode="&#x127;" horiz-adv-x="500" 
d="M25 654h90l12 96h68l-12 -96h137l-6 -51h-137l-17 -134c47 28 96 41 142 41c119 0 163 -54 152 -150l-44 -360h-70l44 363c8 65 -27 85 -89 85c-65 0 -102 -11 -141 -32l-51 -416h-68l74 603h-90z" />
    <glyph glyph-name="dotlessi" unicode="&#x131;" horiz-adv-x="240" 
d="M159 -10c-72 0 -106 30 -96 110l49 400h68l-50 -408c-5 -35 5 -45 36 -45z" />
    <glyph glyph-name="iacute" unicode="&#xed;" horiz-adv-x="240" 
d="M159 -10c-72 0 -106 30 -96 110l49 400h68l-50 -408c-5 -35 5 -45 36 -45zM177 550h-50l75 200h80z" />
    <glyph glyph-name="igrave" unicode="&#xec;" horiz-adv-x="240" 
d="M159 -10c-72 0 -106 30 -96 110l49 400h68l-50 -408c-5 -35 5 -45 36 -45zM177 550h-50l-55 200h80z" />
    <glyph glyph-name="icircumflex" unicode="&#xee;" horiz-adv-x="240" 
d="M159 -10c-72 0 -106 30 -96 110l49 400h68l-50 -408c-5 -35 5 -45 36 -45zM337 550h-55l-113 141l-147 -141h-54l169 200h80z" />
    <glyph glyph-name="idieresis" unicode="&#xef;" horiz-adv-x="240" 
d="M159 -10c-72 0 -106 30 -96 110l49 400h68l-50 -408c-5 -35 5 -45 36 -45zM39 650c0 28 22 50 50 50s50 -22 50 -50s-22 -50 -50 -50s-50 22 -50 50zM189 650c0 28 22 50 50 50s50 -22 50 -50s-22 -50 -50 -50s-50 22 -50 50z" />
    <glyph glyph-name="itilde" unicode="&#x129;" horiz-adv-x="240" 
d="M159 -10c-72 0 -106 30 -96 110l49 400h68l-50 -408c-5 -35 5 -45 36 -45zM240 644c45 0 52 31 55 51h56c-4 -70 -51 -110 -123 -110c-82 0 -84 71 -139 71c-45 0 -53 -31 -55 -51h-56c3 70 50 110 122 110c82 0 85 -71 140 -71z" />
    <glyph glyph-name="icaron" unicode="&#x1d0;" horiz-adv-x="240" 
d="M159 -10c-72 0 -106 30 -96 110l49 400h68l-50 -408c-5 -35 5 -45 36 -45zM-8 750h55l112 -141l148 141h55l-170 -200h-80z" />
    <glyph glyph-name="imacron" unicode="&#x12b;" horiz-adv-x="240" 
d="M159 -10c-72 0 -106 30 -96 110l49 400h68l-50 -408c-5 -35 5 -45 36 -45zM24 620l7 60h274l-7 -60h-274z" />
    <glyph glyph-name="ibreve" unicode="&#xe02e;" horiz-adv-x="240" 
d="M159 -10c-72 0 -106 30 -96 110l49 400h68l-50 -408c-5 -35 5 -45 36 -45zM152 550c-115 0 -164 66 -150 200h51c-10 -91 9 -140 106 -140s128 49 142 140h51c-20 -134 -85 -200 -200 -200z" />
    <glyph glyph-name="iinvertedbreve" unicode="&#x20b;" horiz-adv-x="240" 
d="M159 -10c-72 0 -106 30 -96 110l49 400h68l-50 -408c-5 -35 5 -45 36 -45zM177 750c115 0 163 -66 150 -200h-51c9 91 -10 140 -107 140s-128 -49 -141 -140h-51c19 134 85 200 200 200z" />
    <glyph glyph-name="idoublegrave" unicode="&#xe02f;" horiz-adv-x="240" 
d="M159 -10c-72 0 -106 30 -96 110l49 400h68l-50 -408c-5 -35 5 -45 36 -45zM117 550h-50l-55 200h80zM237 550h-50l-55 200h80z" />
    <glyph glyph-name="idotaccent" unicode="&#xe030;" horiz-adv-x="240" 
d="M159 -10c-72 0 -106 30 -96 110l49 400h68l-50 -408c-5 -35 5 -45 36 -45zM114 650c0 28 22 50 50 50s50 -22 50 -50s-22 -50 -50 -50s-50 22 -50 50z" />
    <glyph glyph-name="idotbelow" unicode="&#x1ecb;" horiz-adv-x="240" 
d="M159 -10c-72 0 -106 30 -96 110l49 400h68l-50 -408c-5 -35 5 -45 36 -45zM21 -150c0 28 22 50 50 50s50 -22 50 -50s-22 -50 -50 -50s-50 22 -50 50zM114 650c0 28 22 50 50 50s50 -22 50 -50s-22 -50 -50 -50s-50 22 -50 50z" />
    <glyph glyph-name="iogonek" unicode="&#x12f;" horiz-adv-x="240" 
d="M159 -10c-52 -26 -105 -80 -111 -132c-4 -31 8 -57 47 -57c22 0 44 4 58 8l-6 -48c-18 -6 -43 -11 -72 -11c-60 0 -97 36 -90 95c8 59 49 115 114 156c-31 15 -43 46 -36 99l49 400h68l-50 -408c-5 -35 5 -45 36 -45zM114 650c0 28 22 50 50 50s50 -22 50 -50
s-22 -50 -50 -50s-50 22 -50 50z" />
    <glyph glyph-name="dotlessj" unicode="&#x237;" horiz-adv-x="230" 
d="M-108 -260l7 59c60 8 131 37 141 114l72 587h68l-73 -596c-13 -104 -125 -159 -215 -164z" />
    <glyph glyph-name="jcircumflex" unicode="&#x135;" horiz-adv-x="230" 
d="M-108 -260l7 59c60 8 131 37 141 114l72 587h68l-73 -596c-13 -104 -125 -159 -215 -164zM337 550h-55l-113 141l-147 -141h-54l169 200h80z" />
    <glyph glyph-name="jcaron" unicode="&#x1f0;" horiz-adv-x="230" 
d="M-108 -260l7 59c60 8 131 37 141 114l72 587h68l-73 -596c-13 -104 -125 -159 -215 -164zM-8 750h55l112 -141l148 141h55l-170 -200h-80z" />
    <glyph glyph-name="kcaron" unicode="&#x1e9;" horiz-adv-x="500" 
d="M484 500l-240 -206l206 -294h-87l-166 254l-71 -60l-23 -194h-68l92 750h68l-59 -474l254 224h94zM24 900h56l92 -56l106 56h56l-127 -100h-80z" />
    <glyph glyph-name="kcommaaccent" unicode="&#x137;" horiz-adv-x="500" 
d="M484 500l-240 -206l206 -294h-87l-166 254l-71 -60l-23 -194h-68l92 750h68l-59 -474l254 224h94zM186 -50h80l-80 -200h-50z" />
    <glyph glyph-name="kcedilla" unicode="&#xe031;" horiz-adv-x="500" 
d="M484 500l-240 -206l206 -294h-87l-166 254l-71 -60l-23 -194h-68l92 750h68l-59 -474l254 224h94zM161 -95l10 45c93 -10 139 -51 132 -111c-7 -54 -52 -89 -122 -89c-54 0 -82 12 -92 18l6 46s34 -13 75 -13s68 11 71 36c6 43 -34 62 -80 68z" />
    <glyph glyph-name="khook" unicode="&#x199;" horiz-adv-x="500" 
d="M324 760l-7 -59c-60 -8 -133 -37 -142 -114l-39 -311l254 224h94l-240 -206l206 -294h-87l-166 254l-71 -60l-23 -194h-68l73 596c12 104 124 159 216 164z" />
    <glyph glyph-name="kgreenlandic" unicode="&#x138;" horiz-adv-x="500" 
d="M484 500l-240 -206l206 -294h-87l-166 254l-71 -60l-23 -194h-68l61 500h68l-28 -224l254 224h94z" />
    <glyph glyph-name="lacute" unicode="&#x13a;" horiz-adv-x="240" 
d="M159 -10c-72 0 -106 30 -96 110l80 650h68l-81 -658c-5 -35 5 -45 36 -45zM208 800h-50l62 100h90z" />
    <glyph glyph-name="lcaron" unicode="&#x13e;" horiz-adv-x="260" 
d="M159 -10c-72 0 -106 30 -96 110l80 650h68l-81 -658c-5 -35 5 -45 36 -45zM277 750h78l-73 -200h-46z" />
    <glyph glyph-name="lcommaaccent" unicode="&#x13c;" horiz-adv-x="240" 
d="M159 -10c-72 0 -106 30 -96 110l80 650h68l-81 -658c-5 -35 5 -45 36 -45zM66 -50h80l-80 -200h-50z" />
    <glyph glyph-name="lcedilla" unicode="&#xe032;" horiz-adv-x="240" 
d="M159 -10c-72 0 -106 30 -96 110l80 650h68l-81 -658c-5 -35 5 -45 36 -45zM51 -95l10 45c93 -10 139 -51 132 -111c-7 -54 -52 -89 -122 -89c-54 0 -82 12 -92 18l6 46s34 -13 75 -13s68 11 71 36c6 43 -34 62 -80 68z" />
    <glyph glyph-name="ldotbelow" unicode="&#x1e37;" horiz-adv-x="240" 
d="M159 -10c-72 0 -106 30 -96 110l80 650h68l-81 -658c-5 -35 5 -45 36 -45zM36 -150c0 28 22 50 50 50s50 -22 50 -50s-22 -50 -50 -50s-50 22 -50 50z" />
    <glyph glyph-name="ldotbelowmacron" unicode="&#x1e39;" horiz-adv-x="240" 
d="M159 -10c-72 0 -106 30 -96 110l80 650h68l-81 -658c-5 -35 5 -45 36 -45zM48 820l8 60h274l-8 -60h-274zM36 -150c0 28 22 50 50 50s50 -22 50 -50s-22 -50 -50 -50s-50 22 -50 50z" />
    <glyph glyph-name="ldot" unicode="&#x140;" horiz-adv-x="360" 
d="M159 -10c-72 0 -106 30 -96 110l80 650h68l-81 -658c-5 -35 5 -45 36 -45zM256 300c0 28 22 50 50 50s50 -22 50 -50s-22 -50 -50 -50s-50 22 -50 50z" />
    <glyph glyph-name="lslash" unicode="&#x142;" horiz-adv-x="290" 
d="M30 288l8 64l82 48l43 350h68l-38 -306l113 66l-8 -64l-113 -66l-35 -288c-5 -35 5 -45 36 -45l-7 -57c-72 0 -106 30 -96 110l29 236z" />
    <glyph glyph-name="mmacron" unicode="&#xe033;" horiz-adv-x="785" 
d="M625 0l44 363c8 65 -27 85 -84 85c-62 0 -98 -12 -141 -33c2 -16 2 -33 0 -52l-44 -363h-70l44 363c8 65 -27 85 -84 85c-58 0 -93 -10 -134 -30l-51 -418h-70l61 500h39l10 -41c52 35 106 51 152 51c67 0 112 -19 133 -57c57 36 112 57 162 57c107 0 159 -50 147 -150
l-44 -360h-70zM301 620l7 60h274l-7 -60h-274z" />
    <glyph glyph-name="mcedilla" unicode="&#xe034;" horiz-adv-x="785" 
d="M625 0l44 363c8 65 -27 85 -84 85c-62 0 -98 -12 -141 -33c2 -16 2 -33 0 -52l-44 -363h-70l44 363c8 65 -27 85 -84 85c-58 0 -93 -10 -134 -30l-51 -418h-70l61 500h39l10 -41c52 35 106 51 152 51c67 0 112 -19 133 -57c57 36 112 57 162 57c107 0 159 -50 147 -150
l-44 -360h-70zM313 -95l10 45c93 -10 139 -51 132 -111c-7 -54 -52 -89 -122 -89c-54 0 -82 12 -92 18l6 46s34 -13 75 -13s68 11 71 36c6 43 -34 62 -80 68z" />
    <glyph glyph-name="mdotbelow" unicode="&#x1e43;" horiz-adv-x="785" 
d="M625 0l44 363c8 65 -27 85 -84 85c-62 0 -98 -12 -141 -33c2 -16 2 -33 0 -52l-44 -363h-70l44 363c8 65 -27 85 -84 85c-58 0 -93 -10 -134 -30l-51 -418h-70l61 500h39l10 -41c52 35 106 51 152 51c67 0 112 -19 133 -57c57 36 112 57 162 57c107 0 159 -50 147 -150
l-44 -360h-70zM296 -150c0 28 22 50 50 50s50 -22 50 -50s-22 -50 -50 -50s-50 22 -50 50z" />
    <glyph glyph-name="nacute" unicode="&#x144;" horiz-adv-x="500" 
d="M340 0l44 363c8 65 -27 85 -89 85c-65 0 -100 -11 -139 -32l-51 -416h-70l61 500h39l10 -42c51 35 104 52 157 52c119 0 163 -54 152 -150l-44 -360h-70zM307 550h-50l75 200h80z" />
    <glyph glyph-name="ngrave" unicode="&#xe035;" horiz-adv-x="500" 
d="M340 0l44 363c8 65 -27 85 -89 85c-65 0 -100 -11 -139 -32l-51 -416h-70l61 500h39l10 -42c51 35 104 52 157 52c119 0 163 -54 152 -150l-44 -360h-70zM317 550h-50l-55 200h80z" />
    <glyph glyph-name="ndieresis" unicode="&#xe036;" horiz-adv-x="500" 
d="M340 0l44 363c8 65 -27 85 -89 85c-65 0 -100 -11 -139 -32l-51 -416h-70l61 500h39l10 -42c51 35 104 52 157 52c119 0 163 -54 152 -150l-44 -360h-70zM159 650c0 28 22 50 50 50s50 -22 50 -50s-22 -50 -50 -50s-50 22 -50 50zM349 650c0 28 22 50 50 50
s50 -22 50 -50s-22 -50 -50 -50s-50 22 -50 50z" />
    <glyph glyph-name="ntilde" unicode="&#xf1;" horiz-adv-x="500" 
d="M340 0l44 363c8 65 -27 85 -89 85c-65 0 -100 -11 -139 -32l-51 -416h-70l61 500h39l10 -42c51 35 104 52 157 52c119 0 163 -54 152 -150l-44 -360h-70zM380 644c45 0 52 31 55 51h56c-4 -70 -51 -110 -123 -110c-82 0 -84 71 -139 71c-45 0 -53 -31 -55 -51h-56
c3 70 50 110 122 110c82 0 85 -71 140 -71z" />
    <glyph glyph-name="ncaron" unicode="&#x148;" horiz-adv-x="500" 
d="M340 0l44 363c8 65 -27 85 -89 85c-65 0 -100 -11 -139 -32l-51 -416h-70l61 500h39l10 -42c51 35 104 52 157 52c119 0 163 -54 152 -150l-44 -360h-70zM437 750h55l-170 -200h-80l-120 200h55l112 -141z" />
    <glyph glyph-name="nmacron" unicode="&#xe037;" horiz-adv-x="500" 
d="M340 0l44 363c8 65 -27 85 -89 85c-65 0 -100 -11 -139 -32l-51 -416h-70l61 500h39l10 -42c51 35 104 52 157 52c119 0 163 -54 152 -150l-44 -360h-70zM164 620l7 60h274l-7 -60h-274z" />
    <glyph glyph-name="ndotaccent" unicode="&#x1e45;" horiz-adv-x="500" 
d="M340 0l44 363c8 65 -27 85 -89 85c-65 0 -100 -11 -139 -32l-51 -416h-70l61 500h39l10 -42c51 35 104 52 157 52c119 0 163 -54 152 -150l-44 -360h-70zM254 650c0 28 22 50 50 50s50 -22 50 -50s-22 -50 -50 -50s-50 22 -50 50z" />
    <glyph glyph-name="ncommaaccent" unicode="&#x146;" horiz-adv-x="500" 
d="M340 0l44 363c8 65 -27 85 -89 85c-65 0 -100 -11 -139 -32l-51 -416h-70l61 500h39l10 -42c51 35 104 52 157 52c119 0 163 -54 152 -150l-44 -360h-70zM175 -50h80l-80 -200h-50z" />
    <glyph glyph-name="ncedilla" unicode="&#xe038;" horiz-adv-x="500" 
d="M340 0l44 363c8 65 -27 85 -89 85c-65 0 -100 -11 -139 -32l-51 -416h-70l61 500h39l10 -42c51 35 104 52 157 52c119 0 163 -54 152 -150l-44 -360h-70zM151 -95l10 45c93 -10 139 -51 132 -111c-7 -54 -52 -89 -122 -89c-54 0 -82 12 -92 18l6 46s34 -13 75 -13
s68 11 71 36c6 43 -34 62 -80 68z" />
    <glyph glyph-name="ndotbelow" unicode="&#x1e47;" horiz-adv-x="500" 
d="M340 0l44 363c8 65 -27 85 -89 85c-65 0 -100 -11 -139 -32l-51 -416h-70l61 500h39l10 -42c51 35 104 52 157 52c119 0 163 -54 152 -150l-44 -360h-70zM151 -150c0 28 22 50 50 50s50 -22 50 -50s-22 -50 -50 -50s-50 22 -50 50z" />
    <glyph glyph-name="ndescender" unicode="&#xe039;" horiz-adv-x="500" 
d="M394 -125l16 125h-70l44 363c8 65 -27 85 -89 85c-65 0 -100 -11 -139 -32l-51 -416h-70l61 500h39l10 -42c51 35 104 52 157 52c119 0 163 -54 152 -150l-37 -299h66l-23 -186h-66z" />
    <glyph glyph-name="oacute" unicode="&#xf3;" horiz-adv-x="530" 
d="M475 250c-19 -153 -70 -260 -242 -260c-171 0 -197 107 -178 260s71 260 242 260c172 0 197 -107 178 -260zM405 250c14 113 15 198 -115 198c-132 0 -151 -85 -165 -198s-16 -198 116 -198c130 0 150 85 164 198zM327 550h-50l75 200h80z" />
    <glyph glyph-name="ograve" unicode="&#xf2;" horiz-adv-x="530" 
d="M475 250c-19 -153 -70 -260 -242 -260c-171 0 -197 107 -178 260s71 260 242 260c172 0 197 -107 178 -260zM405 250c14 113 15 198 -115 198c-132 0 -151 -85 -165 -198s-16 -198 116 -198c130 0 150 85 164 198zM327 550h-50l-55 200h80z" />
    <glyph glyph-name="ocircumflex" unicode="&#xf4;" horiz-adv-x="530" 
d="M475 250c-19 -153 -70 -260 -242 -260c-171 0 -197 107 -178 260s71 260 242 260c172 0 197 -107 178 -260zM405 250c14 113 15 198 -115 198c-132 0 -151 -85 -165 -198s-16 -198 116 -198c130 0 150 85 164 198zM487 550h-55l-113 141l-147 -141h-55l170 200h80z" />
    <glyph glyph-name="odieresis" unicode="&#xf6;" horiz-adv-x="530" 
d="M475 250c-19 -153 -70 -260 -242 -260c-171 0 -197 107 -178 260s71 260 242 260c172 0 197 -107 178 -260zM405 250c14 113 15 198 -115 198c-132 0 -151 -85 -165 -198s-16 -198 116 -198c130 0 150 85 164 198zM169 650c0 28 22 50 50 50s50 -22 50 -50
s-22 -50 -50 -50s-50 22 -50 50zM359 650c0 28 22 50 50 50s50 -22 50 -50s-22 -50 -50 -50s-50 22 -50 50z" />
    <glyph glyph-name="otilde" unicode="&#xf5;" horiz-adv-x="530" 
d="M475 250c-19 -153 -70 -260 -242 -260c-171 0 -197 107 -178 260s71 260 242 260c172 0 197 -107 178 -260zM405 250c14 113 15 198 -115 198c-132 0 -151 -85 -165 -198s-16 -198 116 -198c130 0 150 85 164 198zM390 644c45 0 52 31 55 51h56
c-4 -70 -51 -110 -123 -110c-82 0 -84 71 -139 71c-45 0 -53 -31 -55 -51h-56c3 70 50 110 122 110c82 0 85 -71 140 -71z" />
    <glyph glyph-name="ocaron" unicode="&#x1d2;" horiz-adv-x="530" 
d="M475 250c-19 -153 -70 -260 -242 -260c-171 0 -197 107 -178 260s71 260 242 260c172 0 197 -107 178 -260zM405 250c14 113 15 198 -115 198c-132 0 -151 -85 -165 -198s-16 -198 116 -198c130 0 150 85 164 198zM457 750h55l-170 -200h-80l-120 200h55l112 -141z" />
    <glyph glyph-name="omacron" unicode="&#x14d;" horiz-adv-x="530" 
d="M475 250c-19 -153 -70 -260 -242 -260c-171 0 -197 107 -178 260s71 260 242 260c172 0 197 -107 178 -260zM405 250c14 113 15 198 -115 198c-132 0 -151 -85 -165 -198s-16 -198 116 -198c130 0 150 85 164 198zM174 620l7 60h274l-7 -60h-274z" />
    <glyph glyph-name="obreve" unicode="&#x14f;" horiz-adv-x="530" 
d="M475 250c-19 -153 -70 -260 -242 -260c-171 0 -197 107 -178 260s71 260 242 260c172 0 197 -107 178 -260zM405 250c14 113 15 198 -115 198c-132 0 -151 -85 -165 -198s-16 -198 116 -198c130 0 150 85 164 198zM302 550c-115 0 -164 66 -150 200h51
c-10 -91 9 -140 106 -140s128 49 142 140h51c-20 -134 -85 -200 -200 -200z" />
    <glyph glyph-name="oinvertedbreve" unicode="&#x20f;" horiz-adv-x="530" 
d="M475 250c-19 -153 -70 -260 -242 -260c-171 0 -197 107 -178 260s71 260 242 260c172 0 197 -107 178 -260zM405 250c14 113 15 198 -115 198c-132 0 -151 -85 -165 -198s-16 -198 116 -198c130 0 150 85 164 198zM327 750c115 0 163 -66 150 -200h-51
c9 91 -10 140 -107 140s-128 -49 -141 -140h-51c19 134 85 200 200 200z" />
    <glyph glyph-name="ohungarumlaut" unicode="&#x151;" horiz-adv-x="530" 
d="M475 250c-19 -153 -70 -260 -242 -260c-171 0 -197 107 -178 260s71 260 242 260c172 0 197 -107 178 -260zM405 250c14 113 15 198 -115 198c-132 0 -151 -85 -165 -198s-16 -198 116 -198c130 0 150 85 164 198zM387 550h-50l75 200h80zM267 550h-50l75 200h80z" />
    <glyph glyph-name="odoublegrave" unicode="&#xe03a;" horiz-adv-x="530" 
d="M475 250c-19 -153 -70 -260 -242 -260c-171 0 -197 107 -178 260s71 260 242 260c172 0 197 -107 178 -260zM405 250c14 113 15 198 -115 198c-132 0 -151 -85 -165 -198s-16 -198 116 -198c130 0 150 85 164 198zM267 550h-50l-55 200h80zM387 550h-50l-55 200h80z" />
    <glyph glyph-name="ocommaturnedabove" unicode="&#xe03b;" horiz-adv-x="530" 
d="M475 250c-19 -153 -70 -260 -242 -260c-171 0 -197 107 -178 260s71 260 242 260c172 0 197 -107 178 -260zM405 250c14 113 15 198 -115 198c-132 0 -151 -85 -165 -198s-16 -198 116 -198c130 0 150 85 164 198zM341 550h-80l81 200h50z" />
    <glyph glyph-name="otildemacron" unicode="&#xe03c;" horiz-adv-x="530" 
d="M475 250c-19 -153 -70 -260 -242 -260c-171 0 -197 107 -178 260s71 260 242 260c172 0 197 -107 178 -260zM405 250c14 113 15 198 -115 198c-132 0 -151 -85 -165 -198s-16 -198 116 -198c130 0 150 85 164 198zM385 609c45 0 53 31 56 51h56
c-4 -70 -51 -110 -123 -110c-82 0 -84 71 -139 71c-45 0 -53 -31 -56 -51h-56c4 70 51 110 123 110c82 0 84 -71 139 -71zM185 710l7 60h274l-7 -60h-274z" />
    <glyph glyph-name="odotabove" unicode="&#xe03d;" horiz-adv-x="530" 
d="M475 250c-19 -153 -70 -260 -242 -260c-171 0 -197 107 -178 260s71 260 242 260c172 0 197 -107 178 -260zM405 250c14 113 15 198 -115 198c-132 0 -151 -85 -165 -198s-16 -198 116 -198c130 0 150 85 164 198zM264 650c0 28 22 50 50 50s50 -22 50 -50
s-22 -50 -50 -50s-50 22 -50 50z" />
    <glyph glyph-name="odotabovemacron" unicode="&#xe03e;" horiz-adv-x="530" 
d="M475 250c-19 -153 -70 -260 -242 -260c-171 0 -197 107 -178 260s71 260 242 260c172 0 197 -107 178 -260zM405 250c14 113 15 198 -115 198c-132 0 -151 -85 -165 -198s-16 -198 116 -198c130 0 150 85 164 198zM185 710l7 60h274l-7 -60h-274zM260 615
c0 28 22 50 50 50s50 -22 50 -50s-22 -50 -50 -50s-50 22 -50 50z" />
    <glyph glyph-name="ocedilla" unicode="&#xe03f;" horiz-adv-x="530" 
d="M475 250c-19 -153 -70 -260 -242 -260c-171 0 -197 107 -178 260s71 260 242 260c172 0 197 -107 178 -260zM405 250c14 113 15 198 -115 198c-132 0 -151 -85 -165 -198s-16 -198 116 -198c130 0 150 85 164 198zM183 -95l10 45c93 -10 139 -51 132 -111
c-7 -54 -52 -89 -122 -89c-54 0 -82 12 -92 18l6 46s34 -13 75 -13s68 11 71 36c6 43 -34 62 -80 68z" />
    <glyph glyph-name="odotbelow" unicode="&#x1ecd;" horiz-adv-x="530" 
d="M475 250c-19 -153 -70 -260 -242 -260c-171 0 -197 107 -178 260s71 260 242 260c172 0 197 -107 178 -260zM405 250c14 113 15 198 -115 198c-132 0 -151 -85 -165 -198s-16 -198 116 -198c130 0 150 85 164 198zM166 -150c4 28 28 50 56 50s48 -22 44 -50
c-3 -28 -28 -50 -56 -50s-47 22 -44 50z" />
    <glyph glyph-name="oogonek" unicode="&#x1eb;" horiz-adv-x="530" 
d="M475 250c-15 -126 -53 -220 -160 -250c-70 -36 -118 -90 -124 -142c-4 -31 8 -57 47 -57c22 0 44 4 58 8l-6 -48c-18 -6 -43 -11 -72 -11c-60 0 -97 36 -90 95c7 53 39 105 93 145c-160 5 -184 110 -166 260c19 153 71 260 242 260c172 0 197 -107 178 -260zM405 250
c14 113 15 198 -115 198c-132 0 -151 -85 -165 -198s-16 -198 116 -198c130 0 150 85 164 198z" />
    <glyph glyph-name="oogonekmacron" unicode="&#x1ed;" horiz-adv-x="530" 
d="M475 250c-15 -126 -53 -220 -160 -250c-70 -36 -118 -90 -124 -142c-4 -31 8 -57 47 -57c22 0 44 4 58 8l-6 -48c-18 -6 -43 -11 -72 -11c-60 0 -97 36 -90 95c7 53 39 105 93 145c-160 5 -184 110 -166 260c19 153 71 260 242 260c172 0 197 -107 178 -260zM405 250
c14 113 15 198 -115 198c-132 0 -151 -85 -165 -198s-16 -198 116 -198c130 0 150 85 164 198zM174 620l7 60h274l-7 -60h-274z" />
    <glyph glyph-name="ounderlineaccent" unicode="&#xe040;" horiz-adv-x="530" 
d="M475 250c-19 -153 -70 -260 -242 -260c-171 0 -197 107 -178 260s71 260 242 260c172 0 197 -107 178 -260zM405 250c14 113 15 198 -115 198c-132 0 -151 -85 -165 -198s-16 -198 116 -198c130 0 150 85 164 198zM198 -50h60l-24 -200h-60z" />
    <glyph glyph-name="oslash" unicode="&#xf8;" horiz-adv-x="530" 
d="M35 0l43 54c-30 46 -33 114 -23 196c19 153 71 260 242 260c54 0 93 -11 121 -30l16 20h62l-44 -55c30 -46 33 -114 23 -195c-19 -153 -70 -260 -242 -260c-54 0 -93 10 -121 29l-15 -19h-62zM125 250c-6 -54 -11 -101 0 -136l250 312c-19 14 -46 22 -85 22
c-132 0 -151 -85 -165 -198zM405 250c7 53 10 100 -1 135l-250 -312c20 -14 47 -21 87 -21c130 0 150 85 164 198z" />
    <glyph glyph-name="oslashacute" unicode="&#x1ff;" horiz-adv-x="530" 
d="M35 0l43 54c-30 46 -33 114 -23 196c19 153 71 260 242 260c54 0 93 -11 121 -30l16 20h62l-44 -55c30 -46 33 -114 23 -195c-19 -153 -70 -260 -242 -260c-54 0 -93 10 -121 29l-15 -19h-62zM125 250c-6 -54 -11 -101 0 -136l250 312c-19 14 -46 22 -85 22
c-132 0 -151 -85 -165 -198zM405 250c7 53 10 100 -1 135l-250 -312c20 -14 47 -21 87 -21c130 0 150 85 164 198zM327 550h-50l75 200h80z" />
    <glyph glyph-name="barredo" unicode="&#xe041;" horiz-adv-x="530" 
d="M475 250c-19 -153 -70 -260 -242 -260c-171 0 -197 107 -178 260s71 260 242 260c172 0 197 -107 178 -260zM241 52c120 0 147 72 161 173h-280c-11 -101 -3 -173 119 -173zM290 448c-119 0 -147 -70 -161 -166h280c9 96 -2 166 -119 166z" />
    <glyph glyph-name="oe" unicode="&#x153;" horiz-adv-x="860" 
d="M405 250c14 113 15 198 -115 198c-132 0 -151 -85 -165 -198s-16 -198 116 -198c130 0 150 85 164 198zM478 275h140c99 0 125 38 131 87s-10 86 -109 86c-116 0 -148 -83 -162 -173zM583 -10c-90 0 -139 32 -163 84c-37 -53 -94 -84 -187 -84c-171 0 -197 107 -178 260
s71 260 242 260c93 0 142 -31 166 -84c37 52 94 84 184 84c141 0 177 -77 168 -148s-63 -144 -204 -144h-140c-6 -87 7 -166 120 -166c72 0 117 7 168 28l-7 -60c-59 -25 -120 -30 -169 -30z" />
    <glyph glyph-name="pmacron" unicode="&#xe042;" horiz-adv-x="535" 
d="M243 -10c-46 0 -95 13 -135 41l-34 -281h-70l92 750h39l10 -41c56 33 108 51 162 51c161 0 191 -116 173 -260c-17 -144 -76 -260 -237 -260zM251 52c120 0 147 99 159 198s10 198 -110 198c-65 0 -103 -11 -144 -32l-41 -332c36 -21 71 -32 136 -32zM177 620l7 60h274
l-7 -60h-274z" />
    <glyph glyph-name="racute" unicode="&#x155;" horiz-adv-x="363" 
d="M372 505l-8 -65c-15 5 -34 8 -59 8c-68 0 -110 -11 -149 -32l-51 -416h-70l61 500h39l10 -42c51 35 111 52 167 52c23 0 41 -2 60 -5zM272 550h-50l75 200h80z" />
    <glyph glyph-name="rcaron" unicode="&#x159;" horiz-adv-x="363" 
d="M372 505l-8 -65c-15 5 -34 8 -59 8c-68 0 -110 -11 -149 -32l-51 -416h-70l61 500h39l10 -42c51 35 111 52 167 52c23 0 41 -2 60 -5zM402 750h55l-170 -200h-80l-120 200h55l112 -141z" />
    <glyph glyph-name="rinvertedbreve" unicode="&#x213;" horiz-adv-x="363" 
d="M372 505l-8 -65c-15 5 -34 8 -59 8c-68 0 -110 -11 -149 -32l-51 -416h-70l61 500h39l10 -42c51 35 111 52 167 52c23 0 41 -2 60 -5zM272 750c115 0 163 -66 150 -200h-51c9 91 -10 140 -107 140s-128 -49 -141 -140h-51c19 134 85 200 200 200z" />
    <glyph glyph-name="rdoublegrave" unicode="&#xe043;" horiz-adv-x="363" 
d="M372 505l-8 -65c-15 5 -34 8 -59 8c-68 0 -110 -11 -149 -32l-51 -416h-70l61 500h39l10 -42c51 35 111 52 167 52c23 0 41 -2 60 -5zM212 550h-50l-55 200h80zM332 550h-50l-55 200h80z" />
    <glyph glyph-name="rcommaaccent" unicode="&#x157;" horiz-adv-x="363" 
d="M372 505l-8 -65c-15 5 -34 8 -59 8c-68 0 -110 -11 -149 -32l-51 -416h-70l61 500h39l10 -42c51 35 111 52 167 52c23 0 41 -2 60 -5zM25 -50h80l-80 -200h-50z" />
    <glyph glyph-name="rcedilla" unicode="&#xe044;" horiz-adv-x="363" 
d="M372 505l-8 -65c-15 5 -34 8 -59 8c-68 0 -110 -11 -149 -32l-51 -416h-70l61 500h39l10 -42c51 35 111 52 167 52c23 0 41 -2 60 -5zM18 -95l10 45c93 -10 139 -51 132 -111c-7 -54 -52 -89 -122 -89c-54 0 -81 12 -91 18l6 46s33 -13 74 -13s68 11 71 36
c6 43 -34 62 -80 68z" />
    <glyph glyph-name="rdotbelow" unicode="&#x1e5b;" horiz-adv-x="363" 
d="M372 505l-8 -65c-15 5 -34 8 -59 8c-68 0 -110 -11 -149 -32l-51 -416h-70l61 500h39l10 -42c51 35 111 52 167 52c23 0 41 -2 60 -5zM1 -150c0 28 22 50 50 50s50 -22 50 -50s-22 -50 -50 -50s-50 22 -50 50z" />
    <glyph glyph-name="rdotbelowmacron" unicode="&#x1e5d;" horiz-adv-x="363" 
d="M372 505l-8 -65c-15 5 -34 8 -59 8c-68 0 -110 -11 -149 -32l-51 -416h-70l61 500h39l10 -42c51 35 111 52 167 52c23 0 41 -2 60 -5zM119 620l7 60h274l-7 -60h-274zM1 -150c0 28 22 50 50 50s50 -22 50 -50s-22 -50 -50 -50s-50 22 -50 50z" />
    <glyph glyph-name="sacute" unicode="&#x15b;" horiz-adv-x="460" 
d="M132 362c-5 -44 10 -67 105 -75c140 -13 168 -61 158 -143c-9 -77 -68 -154 -220 -154c-48 0 -115 12 -146 25l8 60c29 -11 76 -23 147 -23c104 0 137 44 143 91c6 46 -4 78 -102 86c-144 13 -168 64 -159 133c9 71 64 148 205 148c47 0 99 -6 141 -25l-7 -60
c-38 13 -75 23 -142 23c-99 0 -125 -37 -131 -86zM301 550h-50l75 200h80z" />
    <glyph glyph-name="scircumflex" unicode="&#x15d;" horiz-adv-x="460" 
d="M132 362c-5 -44 10 -67 105 -75c140 -13 168 -61 158 -143c-9 -77 -68 -154 -220 -154c-48 0 -115 12 -146 25l8 60c29 -11 76 -23 147 -23c104 0 137 44 143 91c6 46 -4 78 -102 86c-144 13 -168 64 -159 133c9 71 64 148 205 148c47 0 99 -6 141 -25l-7 -60
c-38 13 -75 23 -142 23c-99 0 -125 -37 -131 -86zM451 550h-55l-113 141l-147 -141h-55l170 200h80z" />
    <glyph glyph-name="scaron" unicode="&#x161;" horiz-adv-x="460" 
d="M132 362c-5 -44 10 -67 105 -75c140 -13 168 -61 158 -143c-9 -77 -68 -154 -220 -154c-48 0 -115 12 -146 25l8 60c29 -11 76 -23 147 -23c104 0 137 44 143 91c6 46 -4 78 -102 86c-144 13 -168 64 -159 133c9 71 64 148 205 148c47 0 99 -6 141 -25l-7 -60
c-38 13 -75 23 -142 23c-99 0 -125 -37 -131 -86zM421 750h55l-170 -200h-80l-120 200h55l112 -141z" />
    <glyph glyph-name="scommaaccent" unicode="&#x219;" horiz-adv-x="460" 
d="M132 362c-5 -44 10 -67 105 -75c140 -13 168 -61 158 -143c-9 -77 -68 -154 -220 -154c-48 0 -115 12 -146 25l8 60c29 -11 76 -23 147 -23c104 0 137 44 143 91c6 46 -4 78 -102 86c-144 13 -168 64 -159 133c9 71 64 148 205 148c47 0 99 -6 141 -25l-7 -60
c-38 13 -75 23 -142 23c-99 0 -125 -37 -131 -86zM149 -50h80l-80 -200h-50z" />
    <glyph glyph-name="scedilla" unicode="&#x15f;" horiz-adv-x="460" 
d="M132 362c-5 -44 10 -67 105 -75c140 -13 168 -61 158 -143c-9 -73 -61 -144 -194 -153l-1 -55c38 -10 90 -35 83 -97c-7 -54 -52 -89 -122 -89c-54 0 -82 12 -92 18l6 46s34 -13 75 -13s68 11 71 36c6 43 -35 57 -81 63l20 90c-46 2 -103 13 -131 25l8 60
c29 -11 76 -23 147 -23c104 0 137 44 143 91c6 46 -4 78 -102 86c-144 13 -168 64 -159 133c9 71 64 148 205 148c47 0 99 -6 141 -25l-7 -60c-38 13 -75 23 -142 23c-99 0 -125 -37 -131 -86z" />
    <glyph glyph-name="sdotbelow" unicode="&#x1e63;" horiz-adv-x="460" 
d="M132 362c-5 -44 10 -67 105 -75c140 -13 168 -61 158 -143c-9 -77 -68 -154 -220 -154c-48 0 -115 12 -146 25l8 60c29 -11 76 -23 147 -23c104 0 137 44 143 91c6 46 -4 78 -102 86c-144 13 -168 64 -159 133c9 71 64 148 205 148c47 0 99 -6 141 -25l-7 -60
c-38 13 -75 23 -142 23c-99 0 -125 -37 -131 -86zM116 -150c0 28 22 50 50 50s50 -22 50 -50s-22 -50 -50 -50s-50 22 -50 50z" />
    <glyph glyph-name="germandbls" unicode="&#xdf;" horiz-adv-x="538" 
d="M314 -10c-43 0 -88 8 -118 27l7 60c30 -11 66 -25 119 -25c82 0 105 43 111 90c6 48 -9 68 -82 91c-99 31 -124 68 -115 139c17 140 170 115 185 238c8 65 -40 88 -102 88s-116 -23 -124 -88l-105 -860h-67l105 860c12 96 80 150 199 150s170 -54 158 -150
c-19 -155 -171 -136 -184 -238c-5 -42 10 -59 73 -80c98 -33 136 -65 126 -149c-9 -77 -63 -153 -186 -153z" />
    <glyph glyph-name="tcaron" unicode="&#x165;" horiz-adv-x="375" 
d="M301 50l-7 -56c-13 -3 -33 -4 -46 -4c-83 0 -155 38 -143 136l39 319h-100l4 31l104 29l16 135l73 20l-20 -160h155l-7 -55h-155l-38 -311c-8 -61 22 -86 85 -86c13 0 27 1 40 2zM318 750h78l-73 -200h-46z" />
    <glyph glyph-name="tcommaaccent" unicode="&#x163;" horiz-adv-x="375" 
d="M301 50l-7 -56c-13 -3 -33 -4 -46 -4c-83 0 -155 38 -143 136l39 319h-100l4 31l104 29l16 135l73 20l-20 -160h155l-7 -55h-155l-38 -311c-8 -61 22 -86 85 -86c13 0 27 1 40 2zM134 -50h80l-80 -200h-50z" />
    <glyph glyph-name="tcommaaccent" unicode="&#x21b;" horiz-adv-x="375" 
d="M301 50l-7 -56c-13 -3 -33 -4 -46 -4c-83 0 -155 38 -143 136l39 319h-100l4 31l104 29l16 135l73 20l-20 -160h155l-7 -55h-155l-38 -311c-8 -61 22 -86 85 -86c13 0 27 1 40 2zM134 -50h80l-80 -200h-50z" />
    <glyph glyph-name="tcedilla" unicode="&#xe045;" horiz-adv-x="375" 
d="M301 50l-7 -56c-13 -3 -33 -4 -46 -4c-83 0 -155 38 -143 136l39 319h-100l4 31l104 29l16 135l73 20l-20 -160h155l-7 -55h-155l-38 -311c-8 -61 22 -86 85 -86c13 0 27 1 40 2zM118 -95l10 45c93 -10 139 -51 132 -111c-7 -54 -52 -89 -122 -89c-54 0 -82 12 -92 18
l6 46s34 -13 75 -13s68 11 71 36c6 43 -34 62 -80 68z" />
    <glyph glyph-name="tdotbelow" unicode="&#x1e6d;" horiz-adv-x="375" 
d="M301 50l-7 -56c-13 -3 -33 -4 -46 -4c-83 0 -155 38 -143 136l39 319h-100l4 31l104 29l16 135l73 20l-20 -160h155l-7 -55h-155l-38 -311c-8 -61 22 -86 85 -86c13 0 27 1 40 2zM114 -150c0 28 22 50 50 50s50 -22 50 -50s-22 -50 -50 -50s-50 22 -50 50z" />
    <glyph glyph-name="tbar" unicode="&#x167;" horiz-adv-x="377" 
d="M301 50l-7 -56c-13 -3 -33 -4 -46 -4c-83 0 -155 38 -143 136l15 124h-100l7 55h100l17 140h-100l4 31l104 29l16 135l73 20l-20 -160h155l-7 -55h-155l-17 -140h125l-7 -55h-125l-14 -116c-8 -61 22 -86 85 -86c13 0 27 1 40 2z" />
    <glyph glyph-name="uacute" unicode="&#xfa;" horiz-adv-x="500" 
d="M161 500l-45 -363c-8 -65 28 -85 90 -85c65 0 99 11 139 32l51 416h70l-61 -500h-39l-10 42c-52 -35 -105 -52 -158 -52c-119 0 -163 54 -151 150l44 360h70zM309 550h-50l75 200h80z" />
    <glyph glyph-name="ugrave" unicode="&#xf9;" horiz-adv-x="500" 
d="M161 500l-45 -363c-8 -65 28 -85 90 -85c65 0 99 11 139 32l51 416h70l-61 -500h-39l-10 42c-52 -35 -105 -52 -158 -52c-119 0 -163 54 -151 150l44 360h70zM309 550h-50l-55 200h80z" />
    <glyph glyph-name="ucircumflex" unicode="&#xfb;" horiz-adv-x="500" 
d="M161 500l-45 -363c-8 -65 28 -85 90 -85c65 0 99 11 139 32l51 416h70l-61 -500h-39l-10 42c-52 -35 -105 -52 -158 -52c-119 0 -163 54 -151 150l44 360h70zM469 550h-55l-113 141l-147 -141h-55l170 200h80z" />
    <glyph glyph-name="udieresis" unicode="&#xfc;" horiz-adv-x="500" 
d="M161 500l-45 -363c-8 -65 28 -85 90 -85c65 0 99 11 139 32l51 416h70l-61 -500h-39l-10 42c-52 -35 -105 -52 -158 -52c-119 0 -163 54 -151 150l44 360h70zM151 650c0 28 22 50 50 50s50 -22 50 -50s-22 -50 -50 -50s-50 22 -50 50zM341 650c0 28 22 50 50 50
s50 -22 50 -50s-22 -50 -50 -50s-50 22 -50 50z" />
    <glyph glyph-name="utilde" unicode="&#x169;" horiz-adv-x="500" 
d="M161 500l-45 -363c-8 -65 28 -85 90 -85c65 0 99 11 139 32l51 416h70l-61 -500h-39l-10 42c-52 -35 -105 -52 -158 -52c-119 0 -163 54 -151 150l44 360h70zM372 644c45 0 52 31 55 51h56c-4 -70 -51 -110 -123 -110c-82 0 -84 71 -139 71c-45 0 -53 -31 -55 -51h-56
c3 70 50 110 122 110c82 0 85 -71 140 -71z" />
    <glyph glyph-name="uring" unicode="&#x16f;" horiz-adv-x="500" 
d="M161 500l-45 -363c-8 -65 28 -85 90 -85c65 0 99 11 139 32l51 416h70l-61 -500h-39l-10 42c-52 -35 -105 -52 -158 -52c-119 0 -163 54 -151 150l44 360h70zM303 702c-31 0 -56 -15 -61 -52c-4 -37 17 -52 48 -52s56 15 60 52c5 37 -16 52 -47 52zM284 549
c-60 0 -100 32 -92 101c9 69 57 101 117 101s100 -32 91 -101c-8 -69 -56 -101 -116 -101z" />
    <glyph glyph-name="ucaron" unicode="&#x1d4;" horiz-adv-x="500" 
d="M161 500l-45 -363c-8 -65 28 -85 90 -85c65 0 99 11 139 32l51 416h70l-61 -500h-39l-10 42c-52 -35 -105 -52 -158 -52c-119 0 -163 54 -151 150l44 360h70zM439 750h55l-170 -200h-80l-120 200h55l112 -141z" />
    <glyph glyph-name="umacron" unicode="&#x16b;" horiz-adv-x="500" 
d="M161 500l-45 -363c-8 -65 28 -85 90 -85c65 0 99 11 139 32l51 416h70l-61 -500h-39l-10 42c-52 -35 -105 -52 -158 -52c-119 0 -163 54 -151 150l44 360h70zM156 620l7 60h274l-7 -60h-274z" />
    <glyph glyph-name="ubreve" unicode="&#x16d;" horiz-adv-x="500" 
d="M161 500l-45 -363c-8 -65 28 -85 90 -85c65 0 99 11 139 32l51 416h70l-61 -500h-39l-10 42c-52 -35 -105 -52 -158 -52c-119 0 -163 54 -151 150l44 360h70zM284 550c-115 0 -164 66 -150 200h51c-10 -91 9 -140 106 -140s128 49 142 140h51
c-20 -134 -85 -200 -200 -200z" />
    <glyph glyph-name="uinvertedbreve" unicode="&#x217;" horiz-adv-x="500" 
d="M161 500l-45 -363c-8 -65 28 -85 90 -85c65 0 99 11 139 32l51 416h70l-61 -500h-39l-10 42c-52 -35 -105 -52 -158 -52c-119 0 -163 54 -151 150l44 360h70zM309 750c115 0 163 -66 150 -200h-51c9 91 -10 140 -107 140s-128 -49 -141 -140h-51c19 134 85 200 200 200z
" />
    <glyph glyph-name="uhungarumlaut" unicode="&#x171;" horiz-adv-x="500" 
d="M161 500l-45 -363c-8 -65 28 -85 90 -85c65 0 99 11 139 32l51 416h70l-61 -500h-39l-10 42c-52 -35 -105 -52 -158 -52c-119 0 -163 54 -151 150l44 360h70zM369 550h-50l75 200h80zM249 550h-50l75 200h80z" />
    <glyph glyph-name="udoublegrave" unicode="&#xe046;" horiz-adv-x="500" 
d="M161 500l-45 -363c-8 -65 28 -85 90 -85c65 0 99 11 139 32l51 416h70l-61 -500h-39l-10 42c-52 -35 -105 -52 -158 -52c-119 0 -163 54 -151 150l44 360h70zM249 550h-50l-55 200h80zM369 550h-50l-55 200h80z" />
    <glyph glyph-name="uogonek" unicode="&#x173;" horiz-adv-x="500" 
d="M161 500l-45 -363c-8 -65 28 -85 90 -85c65 0 99 11 139 32l51 416h70l-61 -500c-70 -36 -118 -90 -124 -142c-4 -31 8 -57 47 -57c22 0 44 4 58 8l-6 -48c-18 -6 -43 -11 -72 -11c-60 0 -97 36 -90 95c9 68 59 133 142 176l-4 21c-52 -35 -105 -52 -158 -52
c-119 0 -163 54 -151 150l44 360h70z" />
    <glyph glyph-name="udotbelow" unicode="&#x1ee5;" horiz-adv-x="500" 
d="M161 500l-45 -363c-8 -65 28 -85 90 -85c65 0 99 11 139 32l51 416h70l-61 -500h-39l-10 42c-52 -35 -105 -52 -158 -52c-119 0 -163 54 -151 150l44 360h70zM148 -150c0 28 22 50 50 50s50 -22 50 -50s-22 -50 -50 -50s-50 22 -50 50z" />
    <glyph glyph-name="umacronbelow" unicode="&#xe047;" horiz-adv-x="500" 
d="M161 500l-45 -363c-8 -65 28 -85 90 -85c65 0 99 11 139 32l51 416h70l-61 -500h-39l-10 42c-52 -35 -105 -52 -158 -52c-119 0 -163 54 -151 150l44 360h70zM57 -180l8 60h274l-8 -60h-274z" />
    <glyph glyph-name="wacute" unicode="&#x1e83;" horiz-adv-x="700" 
d="M636 500h75l-204 -510h-52l-83 435l-191 -435h-52l-78 510h75l46 -392l172 392h74l76 -392zM412 550h-50l75 200h80z" />
    <glyph glyph-name="wgrave" unicode="&#x1e81;" horiz-adv-x="700" 
d="M636 500h75l-204 -510h-52l-83 435l-191 -435h-52l-78 510h75l46 -392l172 392h74l76 -392zM412 550h-50l-55 200h80z" />
    <glyph glyph-name="wcircumflex" unicode="&#x175;" horiz-adv-x="700" 
d="M636 500h75l-204 -510h-52l-83 435l-191 -435h-52l-78 510h75l46 -392l172 392h74l76 -392zM572 550h-55l-113 141l-147 -141h-55l170 200h80z" />
    <glyph glyph-name="wdieresis" unicode="&#x1e85;" horiz-adv-x="700" 
d="M636 500h75l-204 -510h-52l-83 435l-191 -435h-52l-78 510h75l46 -392l172 392h74l76 -392zM254 650c0 28 22 50 50 50s50 -22 50 -50s-22 -50 -50 -50s-50 22 -50 50zM444 650c0 28 22 50 50 50s50 -22 50 -50s-22 -50 -50 -50s-50 22 -50 50z" />
    <glyph glyph-name="yacute" unicode="&#xfd;" horiz-adv-x="500" 
d="M167 -261c-48 0 -105 8 -146 27l7 60c38 -13 80 -28 147 -28c134 0 145 92 155 162l8 71c-46 -28 -93 -41 -140 -41c-119 0 -163 54 -151 150l44 360h70l-45 -363c-8 -65 28 -85 90 -85c65 0 99 11 139 32l51 416h70l-66 -540c-16 -124 -53 -221 -233 -221zM309 550h-50
l75 200h80z" />
    <glyph glyph-name="ygrave" unicode="&#x1ef3;" horiz-adv-x="500" 
d="M167 -261c-48 0 -105 8 -146 27l7 60c38 -13 80 -28 147 -28c134 0 145 92 155 162l8 71c-46 -28 -93 -41 -140 -41c-119 0 -163 54 -151 150l44 360h70l-45 -363c-8 -65 28 -85 90 -85c65 0 99 11 139 32l51 416h70l-66 -540c-16 -124 -53 -221 -233 -221zM309 550h-50
l-55 200h80z" />
    <glyph glyph-name="ycircumflex" unicode="&#x177;" horiz-adv-x="500" 
d="M167 -261c-48 0 -105 8 -146 27l7 60c38 -13 80 -28 147 -28c134 0 145 92 155 162l8 71c-46 -28 -93 -41 -140 -41c-119 0 -163 54 -151 150l44 360h70l-45 -363c-8 -65 28 -85 90 -85c65 0 99 11 139 32l51 416h70l-66 -540c-16 -124 -53 -221 -233 -221zM469 550h-55
l-113 141l-147 -141h-55l170 200h80z" />
    <glyph glyph-name="ydieresis" unicode="&#xff;" horiz-adv-x="500" 
d="M167 -261c-48 0 -105 8 -146 27l7 60c38 -13 80 -28 147 -28c134 0 145 92 155 162l8 71c-46 -28 -93 -41 -140 -41c-119 0 -163 54 -151 150l44 360h70l-45 -363c-8 -65 28 -85 90 -85c65 0 99 11 139 32l51 416h70l-66 -540c-16 -124 -53 -221 -233 -221zM151 650
c0 28 22 50 50 50s50 -22 50 -50s-22 -50 -50 -50s-50 22 -50 50zM341 650c0 28 22 50 50 50s50 -22 50 -50s-22 -50 -50 -50s-50 22 -50 50z" />
    <glyph glyph-name="ytilde" unicode="&#x1ef9;" horiz-adv-x="500" 
d="M167 -261c-48 0 -105 8 -146 27l7 60c38 -13 80 -28 147 -28c134 0 145 92 155 162l8 71c-46 -28 -93 -41 -140 -41c-119 0 -163 54 -151 150l44 360h70l-45 -363c-8 -65 28 -85 90 -85c65 0 99 11 139 32l51 416h70l-66 -540c-16 -124 -53 -221 -233 -221zM372 644
c45 0 52 31 55 51h56c-4 -70 -51 -110 -123 -110c-82 0 -84 71 -139 71c-45 0 -53 -31 -55 -51h-56c3 70 50 110 122 110c82 0 85 -71 140 -71z" />
    <glyph glyph-name="ymacron" unicode="&#xe048;" horiz-adv-x="500" 
d="M167 -261c-48 0 -105 8 -146 27l7 60c38 -13 80 -28 147 -28c134 0 145 92 155 162l8 71c-46 -28 -93 -41 -140 -41c-119 0 -163 54 -151 150l44 360h70l-45 -363c-8 -65 28 -85 90 -85c65 0 99 11 139 32l51 416h70l-66 -540c-16 -124 -53 -221 -233 -221zM156 620l7 60
h274l-7 -60h-274z" />
    <glyph glyph-name="ij" unicode="&#x133;" horiz-adv-x="420" 
d="M159 -10c-72 0 -106 30 -96 110l49 400h68l-50 -408c-5 -35 5 -45 36 -45zM81 -260l7 59c60 8 132 37 142 114l72 587h68l-73 -596c-13 -104 -125 -159 -216 -164zM114 650c0 28 22 50 50 50s50 -22 50 -50s-22 -50 -50 -50s-50 22 -50 50zM304 650c0 28 22 50 50 50
s50 -22 50 -50s-22 -50 -50 -50s-50 22 -50 50z" />
    <glyph glyph-name="zacute" unicode="&#x17a;" horiz-adv-x="450" 
d="M390 0h-390l5 45l342 396h-278l7 59h365l-6 -45l-341 -396h303zM287 550h-50l75 200h80z" />
    <glyph glyph-name="zcaron" unicode="&#x17e;" horiz-adv-x="450" 
d="M390 0h-390l5 45l342 396h-278l7 59h365l-6 -45l-341 -396h303zM417 750h55l-170 -200h-80l-120 200h55l112 -141z" />
    <glyph glyph-name="zdotaccent" unicode="&#x17c;" horiz-adv-x="450" 
d="M390 0h-390l5 45l342 396h-278l7 59h365l-6 -45l-341 -396h303zM224 650c0 28 22 50 50 50s50 -22 50 -50s-22 -50 -50 -50s-50 22 -50 50z" />
    <glyph glyph-name="eng" unicode="&#x14b;" horiz-adv-x="500" 
d="M295 448c-65 0 -100 -11 -139 -32l-51 -416h-70l61 500h39l10 -42c51 35 104 52 157 52c119 0 163 -54 152 -150l-56 -456c-13 -104 -127 -159 -218 -164l7 59c60 8 132 37 142 114l55 450c8 65 -27 85 -89 85z" />
    <glyph glyph-name="eth" unicode="&#xf0;" horiz-adv-x="550" 
d="M487 750l-8 -59l-81 -39c62 -78 117 -201 97 -402c-19 -153 -80 -260 -252 -260c-171 0 -207 107 -188 260s81 260 252 260c41 0 75 -10 103 -26c-16 53 -44 99 -76 137l-163 -78l7 59l119 57c-42 40 -88 70 -123 91h114c19 -13 47 -32 74 -60zM425 250
c14 113 5 198 -125 198c-132 0 -161 -85 -175 -198s-6 -198 126 -198c130 0 160 85 174 198z" />
    <glyph glyph-name="thorn" unicode="&#xfe;" horiz-adv-x="535" 
d="M480 250c-17 -144 -76 -260 -237 -260c-46 0 -95 13 -135 41l-34 -281h-70l123 1000h70l-35 -281c47 28 99 41 145 41c161 0 191 -116 173 -260zM300 448c-65 0 -103 -11 -144 -32l-41 -332c36 -21 71 -32 136 -32c120 0 147 99 159 198s10 198 -110 198z" />
    <glyph glyph-name="ezh" unicode="&#x292;" horiz-adv-x="500" 
d="M165 133h-68l6 49l271 259h-315l7 59h405l-6 -49l-265 -253c140 0 261 -29 238 -215c-26 -216 -191 -243 -305 -243c-73 0 -129 15 -161 32l7 62c35 -14 85 -32 162 -32c84 0 206 24 225 181c18 147 -83 150 -201 150z" />
    <glyph glyph-name="ezhcaron" unicode="&#x1ef;" horiz-adv-x="500" 
d="M165 133h-68l6 49l271 259h-315l7 59h405l-6 -49l-265 -253c140 0 261 -29 238 -215c-26 -216 -191 -243 -305 -243c-73 0 -129 15 -161 32l7 62c35 -14 85 -32 162 -32c84 0 206 24 225 181c18 147 -83 150 -201 150zM442 750h55l-170 -200h-80l-120 200h55l112 -141z
" />
    <glyph glyph-name="schwa" unicode="&#x259;" horiz-adv-x="510" 
d="M455 250c-17 -144 -73 -260 -242 -260c-170 0 -175 116 -158 260l4 32h330c7 87 -6 166 -119 166c-72 0 -117 -7 -169 -28l7 60c60 25 120 30 169 30c169 0 196 -116 178 -260zM221 52c116 0 147 83 161 173h-260c-11 -89 -16 -173 99 -173z" />
    <glyph glyph-name="ordfeminine" unicode="&#xaa;" horiz-adv-x="411" 
d="M74 563c15 128 77 198 198 198c30 0 75 -11 104 -34l10 24h42l-46 -376h-42l-5 24c-34 -23 -82 -34 -112 -34c-121 0 -165 70 -149 198zM355 679c-20 14 -53 26 -86 26c-76 0 -120 -43 -132 -142c-13 -99 21 -142 97 -142c33 0 69 12 92 26z" />
    <glyph glyph-name="ordmasculine" unicode="&#xba;" horiz-adv-x="419" 
d="M74 563c15 128 74 197 195 197s169 -69 154 -197c-16 -128 -82 -198 -203 -198s-162 70 -146 198zM136 563c-13 -99 15 -140 91 -140c78 0 123 43 135 140s-22 139 -100 139c-76 0 -114 -40 -126 -139z" />
    <glyph glyph-name="cordinal" unicode="&#xe049;" horiz-adv-x="336" 
d="M232 423c45 0 73 5 102 12l-7 -59c-35 -8 -68 -11 -102 -11c-121 0 -167 70 -151 198c15 128 79 197 200 197c34 0 65 -3 98 -11l-7 -59c-27 7 -53 12 -98 12c-76 0 -119 -40 -131 -139c-13 -99 20 -140 96 -140z" />
    <glyph glyph-name="a.school" unicode="&#xe04a;" horiz-adv-x="535" 
d="M501 500l-61 -500h-39l-10 41c-57 -33 -109 -51 -163 -51c-161 0 -190 116 -173 260c18 144 76 260 237 260c53 0 107 -17 150 -52l20 42h39zM236 52c65 0 102 11 144 32l41 332c-37 21 -71 32 -136 32c-120 0 -148 -99 -160 -198s-9 -198 111 -198z" />
    <glyph glyph-name="aacute.school" horiz-adv-x="535" 
d="M501 500l-61 -500h-39l-10 41c-57 -33 -109 -51 -163 -51c-161 0 -190 116 -173 260c18 144 76 260 237 260c53 0 107 -17 150 -52l20 42h39zM236 52c65 0 102 11 144 32l41 332c-37 21 -71 32 -136 32c-120 0 -148 -99 -160 -198s-9 -198 111 -198zM327 550h-50l75 200
h80z" />
    <glyph glyph-name="agrave.school" horiz-adv-x="535" 
d="M501 500l-61 -500h-39l-10 41c-57 -33 -109 -51 -163 -51c-161 0 -190 116 -173 260c18 144 76 260 237 260c53 0 107 -17 150 -52l20 42h39zM236 52c65 0 102 11 144 32l41 332c-37 21 -71 32 -136 32c-120 0 -148 -99 -160 -198s-9 -198 111 -198zM327 550h-50l-55 200
h80z" />
    <glyph glyph-name="acircumflex.school" horiz-adv-x="535" 
d="M501 500l-61 -500h-39l-10 41c-57 -33 -109 -51 -163 -51c-161 0 -190 116 -173 260c18 144 76 260 237 260c53 0 107 -17 150 -52l20 42h39zM236 52c65 0 102 11 144 32l41 332c-37 21 -71 32 -136 32c-120 0 -148 -99 -160 -198s-9 -198 111 -198zM487 550h-55
l-113 141l-147 -141h-55l170 200h80z" />
    <glyph glyph-name="adieresis.school" horiz-adv-x="535" 
d="M501 500l-61 -500h-39l-10 41c-57 -33 -109 -51 -163 -51c-161 0 -190 116 -173 260c18 144 76 260 237 260c53 0 107 -17 150 -52l20 42h39zM236 52c65 0 102 11 144 32l41 332c-37 21 -71 32 -136 32c-120 0 -148 -99 -160 -198s-9 -198 111 -198zM169 650
c0 28 22 50 50 50s50 -22 50 -50s-22 -50 -50 -50s-50 22 -50 50zM359 650c0 28 22 50 50 50s50 -22 50 -50s-22 -50 -50 -50s-50 22 -50 50z" />
    <glyph glyph-name="atilde.school" horiz-adv-x="535" 
d="M501 500l-61 -500h-39l-10 41c-57 -33 -109 -51 -163 -51c-161 0 -190 116 -173 260c18 144 76 260 237 260c53 0 107 -17 150 -52l20 42h39zM236 52c65 0 102 11 144 32l41 332c-37 21 -71 32 -136 32c-120 0 -148 -99 -160 -198s-9 -198 111 -198zM390 644
c45 0 52 31 55 51h56c-4 -70 -51 -110 -123 -110c-82 0 -84 71 -139 71c-45 0 -53 -31 -55 -51h-56c3 70 50 110 122 110c82 0 85 -71 140 -71z" />
    <glyph glyph-name="aring.school" horiz-adv-x="535" 
d="M501 500l-61 -500h-39l-10 41c-57 -33 -109 -51 -163 -51c-161 0 -190 116 -173 260c18 144 76 260 237 260c53 0 107 -17 150 -52l20 42h39zM236 52c65 0 102 11 144 32l41 332c-37 21 -71 32 -136 32c-120 0 -148 -99 -160 -198s-9 -198 111 -198zM321 702
c-31 0 -56 -15 -61 -52c-4 -37 17 -52 48 -52s56 15 60 52c5 37 -16 52 -47 52zM302 549c-60 0 -100 32 -92 101c9 69 57 101 117 101s100 -32 91 -101c-8 -69 -56 -101 -116 -101z" />
    <glyph glyph-name="acaron.school" horiz-adv-x="535" 
d="M501 500l-61 -500h-39l-10 41c-57 -33 -109 -51 -163 -51c-161 0 -190 116 -173 260c18 144 76 260 237 260c53 0 107 -17 150 -52l20 42h39zM236 52c65 0 102 11 144 32l41 332c-37 21 -71 32 -136 32c-120 0 -148 -99 -160 -198s-9 -198 111 -198zM457 750h55
l-170 -200h-80l-120 200h55l112 -141z" />
    <glyph glyph-name="amacron.school" horiz-adv-x="535" 
d="M501 500l-61 -500h-39l-10 41c-57 -33 -109 -51 -163 -51c-161 0 -190 116 -173 260c18 144 76 260 237 260c53 0 107 -17 150 -52l20 42h39zM236 52c65 0 102 11 144 32l41 332c-37 21 -71 32 -136 32c-120 0 -148 -99 -160 -198s-9 -198 111 -198zM174 620l7 60h274
l-7 -60h-274z" />
    <glyph glyph-name="abreve.school" horiz-adv-x="535" 
d="M501 500l-61 -500h-39l-10 41c-57 -33 -109 -51 -163 -51c-161 0 -190 116 -173 260c18 144 76 260 237 260c53 0 107 -17 150 -52l20 42h39zM236 52c65 0 102 11 144 32l41 332c-37 21 -71 32 -136 32c-120 0 -148 -99 -160 -198s-9 -198 111 -198zM302 550
c-115 0 -164 66 -150 200h51c-10 -91 9 -140 106 -140s128 49 142 140h51c-20 -134 -85 -200 -200 -200z" />
    <glyph glyph-name="ainvertedbreve.school" horiz-adv-x="535" 
d="M501 500l-61 -500h-39l-10 41c-57 -33 -109 -51 -163 -51c-161 0 -190 116 -173 260c18 144 76 260 237 260c53 0 107 -17 150 -52l20 42h39zM236 52c65 0 102 11 144 32l41 332c-37 21 -71 32 -136 32c-120 0 -148 -99 -160 -198s-9 -198 111 -198zM327 750
c115 0 163 -66 150 -200h-51c9 91 -10 140 -107 140s-128 -49 -141 -140h-51c19 134 85 200 200 200z" />
    <glyph glyph-name="adoublegrave.school" horiz-adv-x="535" 
d="M501 500l-61 -500h-39l-10 41c-57 -33 -109 -51 -163 -51c-161 0 -190 116 -173 260c18 144 76 260 237 260c53 0 107 -17 150 -52l20 42h39zM236 52c65 0 102 11 144 32l41 332c-37 21 -71 32 -136 32c-120 0 -148 -99 -160 -198s-9 -198 111 -198zM267 550h-50l-55 200
h80zM387 550h-50l-55 200h80z" />
    <glyph glyph-name="adotabove.school" horiz-adv-x="535" 
d="M501 500l-61 -500h-39l-10 41c-57 -33 -109 -51 -163 -51c-161 0 -190 116 -173 260c18 144 76 260 237 260c53 0 107 -17 150 -52l20 42h39zM236 52c65 0 102 11 144 32l41 332c-37 21 -71 32 -136 32c-120 0 -148 -99 -160 -198s-9 -198 111 -198zM264 650
c0 28 22 50 50 50s50 -22 50 -50s-22 -50 -50 -50s-50 22 -50 50z" />
    <glyph glyph-name="aringacute.school" horiz-adv-x="535" 
d="M501 500l-61 -500h-39l-10 41c-57 -33 -109 -51 -163 -51c-161 0 -190 116 -173 260c18 144 76 260 237 260c53 0 107 -17 150 -52l20 42h39zM236 52c65 0 102 11 144 32l41 332c-37 21 -71 32 -136 32c-120 0 -148 -99 -160 -198s-9 -198 111 -198zM302 549
c-60 0 -100 32 -92 101c2 15 6 31 13 43l74 145h70l-55 -87h15c60 0 100 -32 91 -101c-8 -69 -56 -101 -116 -101zM321 702c-31 0 -56 -15 -61 -52c-4 -37 17 -52 48 -52s56 15 60 52c5 37 -16 52 -47 52z" />
    <glyph glyph-name="adieresismacron.school" horiz-adv-x="535" 
d="M501 500l-61 -500h-39l-10 41c-57 -33 -109 -51 -163 -51c-161 0 -190 116 -173 260c18 144 76 260 237 260c53 0 107 -17 150 -52l20 42h39zM236 52c65 0 102 11 144 32l41 332c-37 21 -71 32 -136 32c-120 0 -148 -99 -160 -198s-9 -198 111 -198zM185 710l7 60h274
l-7 -60h-274zM165 615c0 28 22 50 50 50s50 -22 50 -50s-22 -50 -50 -50s-50 22 -50 50zM355 615c0 28 22 50 50 50s50 -22 50 -50s-22 -50 -50 -50s-50 22 -50 50z" />
    <glyph glyph-name="aogonek.school" horiz-adv-x="535" 
d="M501 500l-61 -500c-70 -36 -118 -90 -124 -142c-4 -31 8 -57 47 -57c22 0 44 4 58 8l-6 -48c-18 -6 -43 -11 -72 -11c-60 0 -97 36 -90 95c9 68 59 133 142 176l-4 20c-57 -33 -109 -51 -163 -51c-161 0 -190 116 -173 260c18 144 76 260 237 260c53 0 107 -17 150 -52
l20 42h39zM236 52c65 0 102 11 144 32l41 332c-37 21 -71 32 -136 32c-120 0 -148 -99 -160 -198s-9 -198 111 -198z" />
    <glyph glyph-name="g.school" unicode="&#xe05a;" horiz-adv-x="535" 
d="M228 -10c-161 0 -190 116 -173 260c18 144 76 260 237 260c53 0 107 -17 150 -52l20 42h39l-66 -540c-16 -124 -53 -221 -233 -221c-93 0 -148 16 -190 40l9 69c49 -28 110 -50 189 -50c134 0 145 92 155 162l8 71c-50 -27 -98 -41 -145 -41zM236 52c65 0 102 11 144 32
l41 332c-37 21 -71 32 -136 32c-120 0 -148 -99 -160 -198s-9 -198 111 -198z" />
    <glyph glyph-name="gacute.school" horiz-adv-x="535" 
d="M228 -10c-161 0 -190 116 -173 260c18 144 76 260 237 260c53 0 107 -17 150 -52l20 42h39l-66 -540c-16 -124 -53 -221 -233 -221c-93 0 -148 16 -190 40l9 69c49 -28 110 -50 189 -50c134 0 145 92 155 162l8 71c-50 -27 -98 -41 -145 -41zM236 52c65 0 102 11 144 32
l41 332c-37 21 -71 32 -136 32c-120 0 -148 -99 -160 -198s-9 -198 111 -198zM322 550h-50l75 200h80z" />
    <glyph glyph-name="gcircumflex.school" horiz-adv-x="535" 
d="M228 -10c-161 0 -190 116 -173 260c18 144 76 260 237 260c53 0 107 -17 150 -52l20 42h39l-66 -540c-16 -124 -53 -221 -233 -221c-93 0 -148 16 -190 40l9 69c49 -28 110 -50 189 -50c134 0 145 92 155 162l8 71c-50 -27 -98 -41 -145 -41zM236 52c65 0 102 11 144 32
l41 332c-37 21 -71 32 -136 32c-120 0 -148 -99 -160 -198s-9 -198 111 -198zM482 550h-55l-113 141l-147 -141h-55l170 200h80z" />
    <glyph glyph-name="gtilde.school" horiz-adv-x="535" 
d="M228 -10c-161 0 -190 116 -173 260c18 144 76 260 237 260c53 0 107 -17 150 -52l20 42h39l-66 -540c-16 -124 -53 -221 -233 -221c-93 0 -148 16 -190 40l9 69c49 -28 110 -50 189 -50c134 0 145 92 155 162l8 71c-50 -27 -98 -41 -145 -41zM236 52c65 0 102 11 144 32
l41 332c-37 21 -71 32 -136 32c-120 0 -148 -99 -160 -198s-9 -198 111 -198zM385 644c45 0 52 31 55 51h56c-4 -70 -51 -110 -123 -110c-82 0 -84 71 -139 71c-45 0 -53 -31 -55 -51h-56c3 70 50 110 122 110c82 0 85 -71 140 -71z" />
    <glyph glyph-name="gcaron.school" horiz-adv-x="535" 
d="M228 -10c-161 0 -190 116 -173 260c18 144 76 260 237 260c53 0 107 -17 150 -52l20 42h39l-66 -540c-16 -124 -53 -221 -233 -221c-93 0 -148 16 -190 40l9 69c49 -28 110 -50 189 -50c134 0 145 92 155 162l8 71c-50 -27 -98 -41 -145 -41zM236 52c65 0 102 11 144 32
l41 332c-37 21 -71 32 -136 32c-120 0 -148 -99 -160 -198s-9 -198 111 -198zM452 750h55l-170 -200h-80l-120 200h55l112 -141z" />
    <glyph glyph-name="gbreve.school" horiz-adv-x="535" 
d="M228 -10c-161 0 -190 116 -173 260c18 144 76 260 237 260c53 0 107 -17 150 -52l20 42h39l-66 -540c-16 -124 -53 -221 -233 -221c-93 0 -148 16 -190 40l9 69c49 -28 110 -50 189 -50c134 0 145 92 155 162l8 71c-50 -27 -98 -41 -145 -41zM236 52c65 0 102 11 144 32
l41 332c-37 21 -71 32 -136 32c-120 0 -148 -99 -160 -198s-9 -198 111 -198zM297 550c-115 0 -164 66 -150 200h51c-10 -91 9 -140 106 -140s128 49 142 140h51c-20 -134 -85 -200 -200 -200z" />
    <glyph glyph-name="gdotaccent.school" horiz-adv-x="535" 
d="M228 -10c-161 0 -190 116 -173 260c18 144 76 260 237 260c53 0 107 -17 150 -52l20 42h39l-66 -540c-16 -124 -53 -221 -233 -221c-93 0 -148 16 -190 40l9 69c49 -28 110 -50 189 -50c134 0 145 92 155 162l8 71c-50 -27 -98 -41 -145 -41zM236 52c65 0 102 11 144 32
l41 332c-37 21 -71 32 -136 32c-120 0 -148 -99 -160 -198s-9 -198 111 -198zM259 650c0 28 22 50 50 50s50 -22 50 -50s-22 -50 -50 -50s-50 22 -50 50z" />
    <glyph glyph-name="gcommaaccent.school" horiz-adv-x="535" 
d="M228 -10c-161 0 -190 116 -173 260c18 144 76 260 237 260c53 0 107 -17 150 -52l20 42h39l-66 -540c-16 -124 -53 -221 -233 -221c-93 0 -148 16 -190 40l9 69c49 -28 110 -50 189 -50c134 0 145 92 155 162l8 71c-50 -27 -98 -41 -145 -41zM236 52c65 0 102 11 144 32
l41 332c-37 21 -71 32 -136 32c-120 0 -148 -99 -160 -198s-9 -198 111 -198zM336 550h-80l81 200h50z" />
    <glyph glyph-name="gcommaturnedabove.school" horiz-adv-x="535" 
d="M228 -10c-161 0 -190 116 -173 260c18 144 76 260 237 260c53 0 107 -17 150 -52l20 42h39l-66 -540c-16 -124 -53 -221 -233 -221c-93 0 -148 16 -190 40l9 69c49 -28 110 -50 189 -50c134 0 145 92 155 162l8 71c-50 -27 -98 -41 -145 -41zM236 52c65 0 102 11 144 32
l41 332c-37 21 -71 32 -136 32c-120 0 -148 -99 -160 -198s-9 -198 111 -198zM336 550h-80l81 200h50z" />
    <glyph glyph-name="gstroke.school" horiz-adv-x="535" 
d="M420 -116c-24 -85 -77 -145 -218 -145c-93 0 -148 16 -190 40l9 69c49 -28 110 -50 189 -50c87 0 122 40 138 86h-133l7 51h139c2 9 3 17 4 25l8 71c-50 -27 -98 -41 -145 -41c-161 0 -190 116 -173 260c18 144 76 260 237 260c53 0 107 -17 150 -52l20 42h39l-66 -540
c-1 -8 -2 -17 -4 -25h90l-7 -51h-94zM236 52c65 0 102 11 144 32l41 332c-37 21 -71 32 -136 32c-120 0 -148 -99 -160 -198s-9 -198 111 -198z" />
    <glyph glyph-name="y.school" unicode="&#xe064;" horiz-adv-x="500" 
d="M167 -261c-48 0 -105 8 -146 27l7 60c38 -13 80 -28 147 -28c134 0 145 92 155 162l8 71c-46 -28 -93 -41 -140 -41c-119 0 -163 54 -151 150l44 360h70l-45 -363c-8 -65 28 -85 90 -85c65 0 99 11 139 32l51 416h70l-66 -540c-16 -124 -53 -221 -233 -221z" />
    <glyph glyph-name="yacute.school" horiz-adv-x="500" 
d="M167 -261c-48 0 -105 8 -146 27l7 60c38 -13 80 -28 147 -28c134 0 145 92 155 162l8 71c-46 -28 -93 -41 -140 -41c-119 0 -163 54 -151 150l44 360h70l-45 -363c-8 -65 28 -85 90 -85c65 0 99 11 139 32l51 416h70l-66 -540c-16 -124 -53 -221 -233 -221zM309 550h-50
l75 200h80z" />
    <glyph glyph-name="ygrave.school" horiz-adv-x="500" 
d="M167 -261c-48 0 -105 8 -146 27l7 60c38 -13 80 -28 147 -28c134 0 145 92 155 162l8 71c-46 -28 -93 -41 -140 -41c-119 0 -163 54 -151 150l44 360h70l-45 -363c-8 -65 28 -85 90 -85c65 0 99 11 139 32l51 416h70l-66 -540c-16 -124 -53 -221 -233 -221zM309 550h-50
l-55 200h80z" />
    <glyph glyph-name="ycircumflex.school" horiz-adv-x="500" 
d="M167 -261c-48 0 -105 8 -146 27l7 60c38 -13 80 -28 147 -28c134 0 145 92 155 162l8 71c-46 -28 -93 -41 -140 -41c-119 0 -163 54 -151 150l44 360h70l-45 -363c-8 -65 28 -85 90 -85c65 0 99 11 139 32l51 416h70l-66 -540c-16 -124 -53 -221 -233 -221zM469 550h-55
l-113 141l-147 -141h-55l170 200h80z" />
    <glyph glyph-name="ydieresis.school" horiz-adv-x="500" 
d="M167 -261c-48 0 -105 8 -146 27l7 60c38 -13 80 -28 147 -28c134 0 145 92 155 162l8 71c-46 -28 -93 -41 -140 -41c-119 0 -163 54 -151 150l44 360h70l-45 -363c-8 -65 28 -85 90 -85c65 0 99 11 139 32l51 416h70l-66 -540c-16 -124 -53 -221 -233 -221zM151 650
c0 28 22 50 50 50s50 -22 50 -50s-22 -50 -50 -50s-50 22 -50 50zM341 650c0 28 22 50 50 50s50 -22 50 -50s-22 -50 -50 -50s-50 22 -50 50z" />
    <glyph glyph-name="ytilde.school" horiz-adv-x="500" 
d="M167 -261c-48 0 -105 8 -146 27l7 60c38 -13 80 -28 147 -28c134 0 145 92 155 162l8 71c-46 -28 -93 -41 -140 -41c-119 0 -163 54 -151 150l44 360h70l-45 -363c-8 -65 28 -85 90 -85c65 0 99 11 139 32l51 416h70l-66 -540c-16 -124 -53 -221 -233 -221zM372 644
c45 0 52 31 55 51h56c-4 -70 -51 -110 -123 -110c-82 0 -84 71 -139 71c-45 0 -53 -31 -55 -51h-56c3 70 50 110 122 110c82 0 85 -71 140 -71z" />
    <glyph glyph-name="ymacron.school" horiz-adv-x="500" 
d="M167 -261c-48 0 -105 8 -146 27l7 60c38 -13 80 -28 147 -28c134 0 145 92 155 162l8 71c-46 -28 -93 -41 -140 -41c-119 0 -163 54 -151 150l44 360h70l-45 -363c-8 -65 28 -85 90 -85c65 0 99 11 139 32l51 416h70l-66 -540c-16 -124 -53 -221 -233 -221zM156 620l7 60
h274l-7 -60h-274z" />
    <glyph glyph-name="ordfeminine.school" unicode="&#xe06b;" horiz-adv-x="411" 
d="M74 563c15 128 77 198 198 198c30 0 75 -11 104 -34l10 24h42l-46 -376h-42l-5 24c-34 -23 -82 -34 -112 -34c-121 0 -165 70 -149 198zM355 679c-20 14 -53 26 -86 26c-76 0 -120 -43 -132 -142c-13 -99 21 -142 97 -142c33 0 69 12 92 26z" />
    <glyph glyph-name="a.small" unicode="&#xe06c;" horiz-adv-x="530" 
d="M470 0h-73l-32 120h-233l-59 -120h-73l272 510h50zM287 427l-128 -255h193z" />
    <glyph glyph-name="b.small" unicode="&#xe06d;" horiz-adv-x="520" 
d="M45 0l61 500h219c116 0 151 -46 141 -130c-5 -39 -31 -77 -62 -93c44 -19 66 -72 59 -126c-11 -86 -58 -151 -182 -151h-236zM392 151c6 49 -4 90 -87 90h-165l-22 -180h165c83 0 103 41 109 90zM148 302h167c65 0 79 27 84 68s-4 69 -74 69h-161z" />
    <glyph glyph-name="c.small" unicode="&#xe06e;" horiz-adv-x="505" 
d="M60 250c18 144 99 260 268 260c49 0 104 -6 146 -25l-7 -60c-38 13 -76 23 -147 23c-126 0 -178 -99 -190 -198s15 -198 141 -198c71 0 112 10 153 23l-8 -60c-46 -19 -103 -25 -152 -25c-169 0 -221 116 -204 260z" />
    <glyph glyph-name="d.small" unicode="&#xe06f;" horiz-adv-x="545" 
d="M213 0h-168l61 500h168c172 0 230 -97 211 -250s-100 -250 -272 -250zM118 61h101c133 0 182 76 196 189s-17 189 -150 189h-101z" />
    <glyph glyph-name="e.small" unicode="&#xe070;" horiz-adv-x="500" 
d="M410 287l-8 -61h-264l-20 -165h299l-7 -61h-365l61 500h365l-8 -61h-299l-18 -152h264z" />
    <glyph glyph-name="f.small" unicode="&#xe071;" horiz-adv-x="480" 
d="M400 287l-8 -61h-254l-27 -226h-66l61 500h355l-8 -61h-289l-18 -152h254z" />
    <glyph glyph-name="g.small" unicode="&#xe072;" horiz-adv-x="550" 
d="M271 52c46 0 83 5 115 11l17 135h-109l7 61h175l-29 -236c-42 -20 -122 -33 -184 -33c-169 0 -220 116 -203 260c18 144 98 260 267 260c59 0 129 -10 166 -30l-7 -60c-36 14 -85 28 -166 28c-126 0 -178 -99 -190 -198s15 -198 141 -198z" />
    <glyph glyph-name="h.small" unicode="&#xe073;" 
d="M465 0h-66l27 226h-288l-27 -226h-66l61 500h66l-26 -213h288l26 213h66z" />
    <glyph glyph-name="i.small" unicode="&#xe074;" horiz-adv-x="260" 
d="M133 0h-66l61 500h66z" />
    <glyph glyph-name="j.small" unicode="&#xe075;" horiz-adv-x="375" 
d="M4 -3l8 63c23 -6 38 -8 69 -8c65 0 111 20 119 85l45 363h66l-44 -360c-12 -96 -69 -150 -194 -150c-21 0 -49 2 -69 7z" />
    <glyph glyph-name="k.small" unicode="&#xe076;" horiz-adv-x="515" 
d="M492 500l-240 -206l206 -294h-87l-166 254l-71 -60l-23 -194h-66l61 500h66l-28 -227l254 227h94z" />
    <glyph glyph-name="l.small" unicode="&#xe077;" horiz-adv-x="480" 
d="M172 500l-54 -439h299l-7 -61h-365l61 500h66z" />
    <glyph glyph-name="m.small" unicode="&#xe078;" horiz-adv-x="670" 
d="M341 65h-58l-127 344l-46 -409h-65l61 500h85l130 -363l220 363h85l-61 -500h-65l54 409z" />
    <glyph glyph-name="n.small" unicode="&#xe079;" 
d="M465 0h-44l-265 378l-45 -378h-66l61 500h44l264 -378l46 378h66z" />
    <glyph glyph-name="o.small" unicode="&#xe07a;" horiz-adv-x="580" 
d="M523 250c-19 -153 -93 -260 -265 -260c-171 0 -220 107 -201 260s94 260 265 260c172 0 220 -107 201 -260zM453 250c14 113 -5 198 -138 198c-135 0 -174 -85 -188 -198s4 -198 139 -198c133 0 173 85 187 198z" />
    <glyph glyph-name="p.small" unicode="&#xe07b;" horiz-adv-x="490" 
d="M268 178h-136l-21 -178h-66l61 500h202c124 0 158 -75 147 -161c-10 -86 -64 -161 -187 -161zM384 339c6 48 -3 100 -86 100h-134l-24 -200h134c83 0 104 52 110 100z" />
    <glyph glyph-name="q.small" unicode="&#xe07c;" horiz-adv-x="580" 
d="M625 -124l-440 122c-111 31 -144 123 -128 252c19 153 94 260 265 260c172 0 220 -107 201 -260c-15 -120 -63 -211 -165 -245v-1l276 -56zM453 250c14 113 -5 198 -138 198c-135 0 -174 -85 -188 -198s4 -198 139 -198c133 0 173 85 187 198z" />
    <glyph glyph-name="r.small" unicode="&#xe07d;" horiz-adv-x="512" 
d="M288 198h-153l-24 -198h-66l61 500h214c124 0 157 -65 146 -151c-8 -67 -40 -121 -111 -142l94 -207h-78zM395 349c6 48 -7 90 -90 90h-141l-22 -180h141c83 0 106 42 112 90z" />
    <glyph glyph-name="s.small" unicode="&#xe07e;" horiz-adv-x="500" 
d="M135 358c-6 -50 29 -62 124 -70c140 -13 185 -51 173 -142c-10 -85 -74 -156 -235 -156c-51 0 -131 13 -160 27l7 60c28 -12 88 -25 162 -25c110 0 152 32 159 93c7 55 -20 75 -119 83c-143 13 -188 46 -178 130c12 90 75 152 225 152c50 0 114 -6 156 -25l-7 -60
c-38 13 -87 23 -157 23c-105 0 -142 -26 -150 -90z" />
    <glyph glyph-name="t.small" unicode="&#xe07f;" horiz-adv-x="485" 
d="M468 439h-167l-53 -439h-71l53 439h-167l8 61h405z" />
    <glyph glyph-name="u.small" unicode="&#xe080;" 
d="M253 -10c-149 0 -207 64 -194 170l42 340h66l-42 -341c-10 -80 49 -107 136 -107s152 27 162 107l42 341h66l-42 -340c-13 -106 -87 -170 -236 -170z" />
    <glyph glyph-name="v.small" unicode="&#xe081;" horiz-adv-x="530" 
d="M456 500h75l-271 -510h-54l-145 510h75l107 -427z" />
    <glyph glyph-name="w.small" unicode="&#xe082;" horiz-adv-x="740" 
d="M664 500h77l-209 -510h-52l-88 437l-196 -437h-52l-83 510h77l48 -397l178 397h74l80 -397z" />
    <glyph glyph-name="x.small" unicode="&#xe083;" horiz-adv-x="520" 
d="M80 0h-85l226 257l-155 243h85l116 -194l164 194h85l-215 -243l164 -257h-85l-125 208z" />
    <glyph glyph-name="y.small" unicode="&#xe084;" horiz-adv-x="542" 
d="M465 500h83l-249 -320l-22 -180h-71l22 180l-172 320h83l130 -267z" />
    <glyph glyph-name="z.small" unicode="&#xe085;" horiz-adv-x="510" 
d="M435 0h-420l5 45l365 393h-302l8 62h395l-6 -45l-365 -393h327z" />
    <glyph glyph-name="aacute.small" unicode="&#xe086;" horiz-adv-x="530" 
d="M470 0h-73l-32 120h-233l-59 -120h-73l272 510h50zM287 427l-128 -255h193zM327 550h-50l75 200h80z" />
    <glyph glyph-name="agrave.small" unicode="&#xe087;" horiz-adv-x="530" 
d="M470 0h-73l-32 120h-233l-59 -120h-73l272 510h50zM287 427l-128 -255h193zM327 550h-50l-55 200h80z" />
    <glyph glyph-name="acircumflex.small" unicode="&#xe088;" horiz-adv-x="530" 
d="M470 0h-73l-32 120h-233l-59 -120h-73l272 510h50zM287 427l-128 -255h193zM487 550h-55l-113 141l-147 -141h-55l170 200h80z" />
    <glyph glyph-name="adieresis.small" unicode="&#xe089;" horiz-adv-x="530" 
d="M470 0h-73l-32 120h-233l-59 -120h-73l272 510h50zM287 427l-128 -255h193zM169 650c0 28 22 50 50 50s50 -22 50 -50s-22 -50 -50 -50s-50 22 -50 50zM359 650c0 28 22 50 50 50s50 -22 50 -50s-22 -50 -50 -50s-50 22 -50 50z" />
    <glyph glyph-name="atilde.small" unicode="&#xe08a;" horiz-adv-x="530" 
d="M470 0h-73l-32 120h-233l-59 -120h-73l272 510h50zM287 427l-128 -255h193zM390 644c45 0 52 31 55 51h56c-4 -70 -51 -110 -123 -110c-82 0 -84 71 -139 71c-45 0 -53 -31 -55 -51h-56c3 70 50 110 122 110c82 0 85 -71 140 -71z" />
    <glyph glyph-name="aring.small" unicode="&#xe08b;" horiz-adv-x="530" 
d="M470 0h-73l-32 120h-233l-59 -120h-73l272 510h50zM287 427l-128 -255h193zM321 702c-31 0 -56 -15 -61 -52c-4 -37 17 -52 48 -52s56 15 60 52c5 37 -16 52 -47 52zM302 549c-60 0 -100 32 -92 101c9 69 57 101 117 101s100 -32 91 -101c-8 -69 -56 -101 -116 -101z" />
    <glyph glyph-name="acaron.small" unicode="&#xe08c;" horiz-adv-x="530" 
d="M470 0h-73l-32 120h-233l-59 -120h-73l272 510h50zM287 427l-128 -255h193zM457 750h55l-170 -200h-80l-120 200h55l112 -141z" />
    <glyph glyph-name="amacron.small" unicode="&#xe08d;" horiz-adv-x="530" 
d="M470 0h-73l-32 120h-233l-59 -120h-73l272 510h50zM287 427l-128 -255h193zM174 620l7 60h274l-7 -60h-274z" />
    <glyph glyph-name="abreve.small" unicode="&#xe08e;" horiz-adv-x="530" 
d="M470 0h-73l-32 120h-233l-59 -120h-73l272 510h50zM287 427l-128 -255h193zM302 550c-115 0 -164 66 -150 200h51c-10 -91 9 -140 106 -140s128 49 142 140h51c-20 -134 -85 -200 -200 -200z" />
    <glyph glyph-name="ainvertedbreve.small" unicode="&#xe08f;" horiz-adv-x="530" 
d="M470 0h-73l-32 120h-233l-59 -120h-73l272 510h50zM287 427l-128 -255h193zM327 750c115 0 163 -66 150 -200h-51c9 91 -10 140 -107 140s-128 -49 -141 -140h-51c19 134 85 200 200 200z" />
    <glyph glyph-name="adoublegrave.small" unicode="&#xe090;" horiz-adv-x="530" 
d="M470 0h-73l-32 120h-233l-59 -120h-73l272 510h50zM287 427l-128 -255h193zM267 550h-50l-55 200h80zM387 550h-50l-55 200h80z" />
    <glyph glyph-name="adotabove.small" unicode="&#xe091;" horiz-adv-x="530" 
d="M470 0h-73l-32 120h-233l-59 -120h-73l272 510h50zM287 427l-128 -255h193zM264 650c4 28 28 50 56 50s48 -22 44 -50c-3 -28 -28 -50 -56 -50s-47 22 -44 50z" />
    <glyph glyph-name="aringacute.small" unicode="&#xe092;" horiz-adv-x="530" 
d="M470 0h-73l-32 120h-233l-59 -120h-73l272 510h50zM287 427l-128 -255h193zM302 549c-60 0 -100 32 -92 101c2 15 6 31 13 43l74 145h70l-55 -87h15c60 0 100 -32 91 -101c-8 -69 -56 -101 -116 -101zM321 702c-31 0 -56 -15 -61 -52c-4 -37 17 -52 48 -52s56 15 60 52
c5 37 -16 52 -47 52z" />
    <glyph glyph-name="adieresismacron.small" unicode="&#xe093;" horiz-adv-x="530" 
d="M470 0h-73l-32 120h-233l-59 -120h-73l272 510h50zM287 427l-128 -255h193zM185 710l7 60h274l-7 -60h-274zM165 615c0 28 22 50 50 50s50 -22 50 -50s-22 -50 -50 -50s-50 22 -50 50zM355 615c0 28 22 50 50 50s50 -22 50 -50s-22 -50 -50 -50s-50 22 -50 50z" />
    <glyph glyph-name="aogonek.small" unicode="&#xe094;" horiz-adv-x="530" 
d="M470 0c-70 -36 -118 -90 -124 -142c-4 -31 8 -57 47 -57c22 0 44 4 58 8l-6 -48c-18 -6 -43 -11 -72 -11c-60 0 -97 36 -90 95c8 60 47 116 112 158l-30 117h-233l-59 -120h-73l272 510h50zM287 427l-128 -255h193z" />
    <glyph glyph-name="anocross.small" unicode="&#xe095;" horiz-adv-x="530" 
d="M73 0h-73l272 510h50l148 -510h-73l-110 427z" />
    <glyph glyph-name="ae.small" unicode="&#xe096;" horiz-adv-x="764" 
d="M674 287l-8 -61h-257l14 -165h258l-7 -61h-315l-9 120h-212l-74 -120h-74l328 500h417l-8 -61h-336l13 -152h270zM330 424l-158 -252h175z" />
    <glyph glyph-name="aeacute.small" unicode="&#xe097;" horiz-adv-x="764" 
d="M674 287l-8 -61h-257l14 -165h258l-7 -61h-315l-9 120h-212l-74 -120h-74l328 500h417l-8 -61h-336l13 -152h270zM330 424l-158 -252h175zM407 550h-50l75 200h80z" />
    <glyph glyph-name="aemacron.small" unicode="&#xe098;" horiz-adv-x="764" 
d="M674 287l-8 -61h-257l14 -165h258l-7 -61h-315l-9 120h-212l-74 -120h-74l328 500h417l-8 -61h-336l13 -152h270zM330 424l-158 -252h175zM254 620l7 60h274l-7 -60h-274z" />
    <glyph glyph-name="cacute.small" unicode="&#xe099;" horiz-adv-x="505" 
d="M60 250c18 144 99 260 268 260c49 0 104 -6 146 -25l-7 -60c-38 13 -76 23 -147 23c-126 0 -178 -99 -190 -198s15 -198 141 -198c71 0 112 10 153 23l-8 -60c-46 -19 -103 -25 -152 -25c-169 0 -221 116 -204 260zM348 550h-50l75 200h80z" />
    <glyph glyph-name="ccircumflex.small" unicode="&#xe09a;" horiz-adv-x="505" 
d="M60 250c18 144 99 260 268 260c49 0 104 -6 146 -25l-7 -60c-38 13 -76 23 -147 23c-126 0 -178 -99 -190 -198s15 -198 141 -198c71 0 112 10 153 23l-8 -60c-46 -19 -103 -25 -152 -25c-169 0 -221 116 -204 260zM508 550h-55l-113 141l-147 -141h-55l170 200h80z" />
    <glyph glyph-name="ccaron.small" unicode="&#xe09b;" horiz-adv-x="505" 
d="M60 250c18 144 99 260 268 260c49 0 104 -6 146 -25l-7 -60c-38 13 -76 23 -147 23c-126 0 -178 -99 -190 -198s15 -198 141 -198c71 0 112 10 153 23l-8 -60c-46 -19 -103 -25 -152 -25c-169 0 -221 116 -204 260zM478 750h55l-170 -200h-80l-120 200h55l112 -141z" />
    <glyph glyph-name="cdotaccent.small" unicode="&#xe09c;" horiz-adv-x="505" 
d="M60 250c18 144 99 260 268 260c49 0 104 -6 146 -25l-7 -60c-38 13 -76 23 -147 23c-126 0 -178 -99 -190 -198s15 -198 141 -198c71 0 112 10 153 23l-8 -60c-46 -19 -103 -25 -152 -25c-169 0 -221 116 -204 260zM284 650c0 28 22 50 50 50s50 -22 50 -50
s-22 -50 -50 -50s-50 22 -50 50z" />
    <glyph glyph-name="ccedilla.small" unicode="&#xe09d;" horiz-adv-x="505" 
d="M60 250c18 144 99 260 268 260c49 0 104 -6 146 -25l-7 -60c-38 13 -76 23 -147 23c-126 0 -178 -99 -190 -198s15 -198 141 -198c71 0 112 10 153 23l-8 -60c-43 -17 -95 -24 -141 -25l-2 -54c38 -10 90 -35 83 -97c-7 -54 -52 -89 -122 -89c-54 0 -82 12 -92 18l6 46
s34 -13 75 -13s68 11 71 36c6 43 -35 57 -81 63l21 92c-146 13 -190 123 -174 258z" />
    <glyph glyph-name="dcaron.small" unicode="&#xe09e;" horiz-adv-x="545" 
d="M442 750h55l-170 -200h-80l-120 200h55l112 -141zM213 0h-168l61 500h168c172 0 230 -97 211 -250s-100 -250 -272 -250zM118 61h101c133 0 182 76 196 189s-17 189 -150 189h-101z" />
    <glyph glyph-name="dcedilla.small" unicode="&#xe09f;" horiz-adv-x="545" 
d="M168 -95l10 45c93 -10 139 -51 132 -111c-7 -54 -52 -89 -122 -89c-54 0 -82 12 -92 18l6 46s34 -13 75 -13s68 11 71 36c6 43 -34 62 -80 68zM213 0h-168l61 500h168c172 0 230 -97 211 -250s-100 -250 -272 -250zM118 61h101c133 0 182 76 196 189s-17 189 -150 189
h-101z" />
    <glyph glyph-name="ddotbelow.small" unicode="&#xe0a0;" horiz-adv-x="545" 
d="M213 0h-168l61 500h168c172 0 230 -97 211 -250s-100 -250 -272 -250zM118 61h101c133 0 182 76 196 189s-17 189 -150 189h-101zM161 -150c0 28 22 50 50 50s50 -22 50 -50s-22 -50 -50 -50s-50 22 -50 50z" />
    <glyph glyph-name="dcroat.small" unicode="&#xe0a1;" horiz-adv-x="585" 
d="M29 277h90l27 223h168c172 0 230 -97 211 -250s-100 -250 -272 -250h-168l27 222h-90zM158 61h101c133 0 182 76 196 189s-17 189 -150 189h-101l-19 -162h120l-7 -55h-120z" />
    <glyph glyph-name="eacute.small" unicode="&#xe0a2;" horiz-adv-x="500" 
d="M410 287l-8 -61h-264l-20 -165h299l-7 -61h-365l61 500h365l-8 -61h-299l-18 -152h264zM327 550h-50l75 200h80z" />
    <glyph glyph-name="egrave.small" unicode="&#xe0a3;" horiz-adv-x="500" 
d="M410 287l-8 -61h-264l-20 -165h299l-7 -61h-365l61 500h365l-8 -61h-299l-18 -152h264zM327 550h-50l-55 200h80z" />
    <glyph glyph-name="ecircumflex.small" unicode="&#xe0a4;" horiz-adv-x="500" 
d="M410 287l-8 -61h-264l-20 -165h299l-7 -61h-365l61 500h365l-8 -61h-299l-18 -152h264zM487 550h-55l-113 141l-147 -141h-55l170 200h80z" />
    <glyph glyph-name="edieresis.small" unicode="&#xe0a5;" horiz-adv-x="500" 
d="M410 287l-8 -61h-264l-20 -165h299l-7 -61h-365l61 500h365l-8 -61h-299l-18 -152h264zM169 650c0 28 22 50 50 50s50 -22 50 -50s-22 -50 -50 -50s-50 22 -50 50zM359 650c0 28 22 50 50 50s50 -22 50 -50s-22 -50 -50 -50s-50 22 -50 50z" />
    <glyph glyph-name="ecaron.small" unicode="&#xe0a6;" horiz-adv-x="500" 
d="M410 287l-8 -61h-264l-20 -165h299l-7 -61h-365l61 500h365l-8 -61h-299l-18 -152h264zM457 750h55l-170 -200h-80l-120 200h55l112 -141z" />
    <glyph glyph-name="emacron.small" unicode="&#xe0a7;" horiz-adv-x="500" 
d="M410 287l-8 -61h-264l-20 -165h299l-7 -61h-365l61 500h365l-8 -61h-299l-18 -152h264zM174 620l7 60h274l-7 -60h-274z" />
    <glyph glyph-name="ebreve.small" unicode="&#xe0a8;" horiz-adv-x="500" 
d="M410 287l-8 -61h-264l-20 -165h299l-7 -61h-365l61 500h365l-8 -61h-299l-18 -152h264zM302 550c-115 0 -164 66 -150 200h51c-10 -91 9 -140 106 -140s128 49 142 140h51c-20 -134 -85 -200 -200 -200z" />
    <glyph glyph-name="einvertedbreve.small" unicode="&#xe0a9;" horiz-adv-x="500" 
d="M410 287l-8 -61h-264l-20 -165h299l-7 -61h-365l61 500h365l-8 -61h-299l-18 -152h264zM327 750c115 0 163 -66 150 -200h-51c9 91 -10 140 -107 140s-128 -49 -141 -140h-51c19 134 85 200 200 200z" />
    <glyph glyph-name="edoublegrave.small" unicode="&#xe0aa;" horiz-adv-x="500" 
d="M410 287l-8 -61h-264l-20 -165h299l-7 -61h-365l61 500h365l-8 -61h-299l-18 -152h264zM267 550h-50l-55 200h80zM387 550h-50l-55 200h80z" />
    <glyph glyph-name="edotaccent.small" unicode="&#xe0ab;" horiz-adv-x="500" 
d="M410 287l-8 -61h-264l-20 -165h299l-7 -61h-365l61 500h365l-8 -61h-299l-18 -152h264zM264 650c0 28 22 50 50 50s50 -22 50 -50s-22 -50 -50 -50s-50 22 -50 50z" />
    <glyph glyph-name="eacutedotbelow.small" unicode="&#xe0ac;" horiz-adv-x="500" 
d="M410 287l-8 -61h-264l-20 -165h299l-7 -61h-365l61 500h365l-8 -61h-299l-18 -152h264zM327 550h-50l75 200h80zM166 -150c0 28 22 50 50 50s50 -22 50 -50s-22 -50 -50 -50s-50 22 -50 50z" />
    <glyph glyph-name="egravedotbelow.small" unicode="&#xe0ad;" horiz-adv-x="500" 
d="M410 287l-8 -61h-264l-20 -165h299l-7 -61h-365l61 500h365l-8 -61h-299l-18 -152h264zM327 550h-50l-55 200h80zM166 -150c0 28 22 50 50 50s50 -22 50 -50s-22 -50 -50 -50s-50 22 -50 50z" />
    <glyph glyph-name="eogonek.small" unicode="&#xe0ae;" horiz-adv-x="500" 
d="M410 287l-8 -61h-264l-20 -165h299l-7 -61c-70 -36 -118 -90 -124 -142c-4 -31 8 -57 47 -57c22 0 44 4 58 8l-6 -48c-18 -6 -43 -11 -72 -11c-60 0 -97 36 -90 95c8 58 44 113 107 155h-285l61 500h365l-8 -61h-299l-18 -152h264z" />
    <glyph glyph-name="gacute.small" unicode="&#xe0af;" horiz-adv-x="550" 
d="M271 52c46 0 83 5 115 11l17 135h-109l7 61h175l-29 -236c-42 -20 -122 -33 -184 -33c-169 0 -220 116 -203 260c18 144 98 260 267 260c59 0 129 -10 166 -30l-7 -60c-36 14 -85 28 -166 28c-126 0 -178 -99 -190 -198s15 -198 141 -198zM357 550h-50l75 200h80z" />
    <glyph glyph-name="gcircumflex.small" unicode="&#xe0b0;" horiz-adv-x="550" 
d="M271 52c46 0 83 5 115 11l17 135h-109l7 61h175l-29 -236c-42 -20 -122 -33 -184 -33c-169 0 -220 116 -203 260c18 144 98 260 267 260c59 0 129 -10 166 -30l-7 -60c-36 14 -85 28 -166 28c-126 0 -178 -99 -190 -198s15 -198 141 -198zM517 550h-55l-113 141
l-147 -141h-55l170 200h80z" />
    <glyph glyph-name="gtilde.small" unicode="&#xe0b1;" horiz-adv-x="550" 
d="M271 52c46 0 83 5 115 11l17 135h-109l7 61h175l-29 -236c-42 -20 -122 -33 -184 -33c-169 0 -220 116 -203 260c18 144 98 260 267 260c59 0 129 -10 166 -30l-7 -60c-36 14 -85 28 -166 28c-126 0 -178 -99 -190 -198s15 -198 141 -198zM420 644c45 0 52 31 55 51h56
c-4 -70 -51 -110 -123 -110c-82 0 -84 71 -139 71c-45 0 -53 -31 -55 -51h-56c3 70 50 110 122 110c82 0 85 -71 140 -71z" />
    <glyph glyph-name="gcaron.small" unicode="&#xe0b2;" horiz-adv-x="550" 
d="M271 52c46 0 83 5 115 11l17 135h-109l7 61h175l-29 -236c-42 -20 -122 -33 -184 -33c-169 0 -220 116 -203 260c18 144 98 260 267 260c59 0 129 -10 166 -30l-7 -60c-36 14 -85 28 -166 28c-126 0 -178 -99 -190 -198s15 -198 141 -198zM487 750h55l-170 -200h-80
l-120 200h55l112 -141z" />
    <glyph glyph-name="gbreve.small" unicode="&#xe0b3;" horiz-adv-x="550" 
d="M271 52c46 0 83 5 115 11l17 135h-109l7 61h175l-29 -236c-42 -20 -122 -33 -184 -33c-169 0 -220 116 -203 260c18 144 98 260 267 260c59 0 129 -10 166 -30l-7 -60c-36 14 -85 28 -166 28c-126 0 -178 -99 -190 -198s15 -198 141 -198zM332 550
c-115 0 -164 66 -150 200h51c-10 -91 9 -140 106 -140s128 49 142 140h51c-20 -134 -85 -200 -200 -200z" />
    <glyph glyph-name="gdotaccent.small" unicode="&#xe0b4;" horiz-adv-x="550" 
d="M271 52c46 0 83 5 115 11l17 135h-109l7 61h175l-29 -236c-42 -20 -122 -33 -184 -33c-169 0 -220 116 -203 260c18 144 98 260 267 260c59 0 129 -10 166 -30l-7 -60c-36 14 -85 28 -166 28c-126 0 -178 -99 -190 -198s15 -198 141 -198zM294 650c0 28 22 50 50 50
s50 -22 50 -50s-22 -50 -50 -50s-50 22 -50 50z" />
    <glyph glyph-name="gcommaaccent.small" unicode="&#xe0b5;" horiz-adv-x="550" 
d="M271 52c46 0 83 5 115 11l17 135h-109l7 61h175l-29 -236c-42 -20 -122 -33 -184 -33c-169 0 -220 116 -203 260c18 144 98 260 267 260c59 0 129 -10 166 -30l-7 -60c-36 14 -85 28 -166 28c-126 0 -178 -99 -190 -198s15 -198 141 -198zM225 -50h80l-80 -200h-50z" />
    <glyph glyph-name="gcommaturnedabove.small" unicode="&#xe0b6;" horiz-adv-x="550" 
d="M271 52c46 0 83 5 115 11l17 135h-109l7 61h175l-29 -236c-42 -20 -122 -33 -184 -33c-169 0 -220 116 -203 260c18 144 98 260 267 260c59 0 129 -10 166 -30l-7 -60c-36 14 -85 28 -166 28c-126 0 -178 -99 -190 -198s15 -198 141 -198zM365 550h-80l81 200h50z" />
    <glyph glyph-name="gstroke.small" unicode="&#xe0b7;" horiz-adv-x="550" 
d="M457 103l-10 -80c-42 -20 -122 -33 -184 -33c-169 0 -220 116 -203 260c18 144 98 260 267 260c59 0 129 -10 166 -30l-7 -60c-36 14 -85 28 -166 28c-126 0 -178 -99 -190 -198s15 -198 141 -198c46 0 83 5 115 11l5 40h-88l7 55h88l5 40h-109l7 61h175l-12 -101h51
l-7 -55h-51z" />
    <glyph glyph-name="hcircumflex.small" unicode="&#xe0b8;" 
d="M465 0h-66l27 226h-288l-27 -226h-66l61 500h66l-26 -213h288l26 213h66zM507 550h-55l-113 141l-147 -141h-55l170 200h80z" />
    <glyph glyph-name="hcaron.small" unicode="&#xe0b9;" 
d="M465 0h-66l27 226h-288l-27 -226h-66l61 500h66l-26 -213h288l26 213h66zM477 750h55l-170 -200h-80l-120 200h55l112 -141z" />
    <glyph glyph-name="hdotbelow.small" unicode="&#xe0ba;" 
d="M465 0h-66l27 226h-288l-27 -226h-66l61 500h66l-26 -213h288l26 213h66zM186 -150c0 28 22 50 50 50s50 -22 50 -50s-22 -50 -50 -50s-50 22 -50 50z" />
    <glyph glyph-name="hmacronbelow.small" unicode="&#xe0bb;" 
d="M465 0h-66l27 226h-288l-27 -226h-66l61 500h66l-26 -213h288l26 213h66zM377 -120l-8 -60h-274l8 60h274z" />
    <glyph glyph-name="hbar.small" unicode="&#xe0bc;" 
d="M465 0h-66l27 226h-288l-27 -226h-66l61 500h66l-10 -80h288l10 80h66zM146 287h288l9 72h-288z" />
    <glyph glyph-name="iacute.small" unicode="&#xe0bd;" horiz-adv-x="260" 
d="M133 0h-66l61 500h66zM192 550h-50l75 200h80z" />
    <glyph glyph-name="igrave.small" unicode="&#xe0be;" horiz-adv-x="260" 
d="M133 0h-66l61 500h66zM192 550h-50l-55 200h80z" />
    <glyph glyph-name="icircumflex.small" unicode="&#xe0bf;" horiz-adv-x="260" 
d="M133 0h-66l61 500h66zM352 550h-55l-113 141l-147 -141h-55l170 200h80z" />
    <glyph glyph-name="idieresis.small" unicode="&#xe0c0;" horiz-adv-x="260" 
d="M133 0h-66l61 500h66zM54 650c0 28 22 50 50 50s50 -22 50 -50s-22 -50 -50 -50s-50 22 -50 50zM204 650c0 28 22 50 50 50s50 -22 50 -50s-22 -50 -50 -50s-50 22 -50 50z" />
    <glyph glyph-name="itilde.small" unicode="&#xe0c1;" horiz-adv-x="260" 
d="M133 0h-66l61 500h66zM255 644c45 0 52 31 55 51h56c-4 -70 -51 -110 -123 -110c-82 0 -84 71 -139 71c-45 0 -53 -31 -55 -51h-56c3 70 50 110 122 110c82 0 85 -71 140 -71z" />
    <glyph glyph-name="icaron.small" unicode="&#xe0c2;" horiz-adv-x="260" 
d="M133 0h-66l61 500h66zM322 750h55l-170 -200h-80l-120 200h55l112 -141z" />
    <glyph glyph-name="imacron.small" unicode="&#xe0c3;" horiz-adv-x="260" 
d="M133 0h-66l61 500h66zM39 620l7 60h274l-7 -60h-274z" />
    <glyph glyph-name="ibreve.small" unicode="&#xe0c4;" horiz-adv-x="260" 
d="M133 0h-66l61 500h66zM167 550c-115 0 -164 66 -150 200h51c-10 -91 9 -140 106 -140s128 49 142 140h51c-20 -134 -85 -200 -200 -200z" />
    <glyph glyph-name="iinvertedbreve.small" unicode="&#xe0c5;" horiz-adv-x="260" 
d="M133 0h-66l61 500h66zM192 750c115 0 163 -66 150 -200h-51c9 91 -10 140 -107 140s-128 -49 -141 -140h-51c19 134 85 200 200 200z" />
    <glyph glyph-name="idoublegrave.small" unicode="&#xe0c6;" horiz-adv-x="260" 
d="M133 0h-66l61 500h66zM132 550h-50l-55 200h80zM252 550h-50l-55 200h80z" />
    <glyph glyph-name="idotaccent.small" unicode="&#xe0c7;" horiz-adv-x="260" 
d="M133 0h-66l61 500h66zM129 650c0 28 22 50 50 50s50 -22 50 -50s-22 -50 -50 -50s-50 22 -50 50z" />
    <glyph glyph-name="idotbelow.small" unicode="&#xe0c8;" horiz-adv-x="260" 
d="M133 0h-66l61 500h66zM31 -150c0 28 22 50 50 50s50 -22 50 -50s-22 -50 -50 -50s-50 22 -50 50z" />
    <glyph glyph-name="iogonek.small" unicode="&#xe0c9;" horiz-adv-x="260" 
d="M133 0c-71 -46 -98 -90 -104 -142c-4 -31 12 -57 51 -57c22 0 44 4 58 8l-6 -48c-18 -6 -43 -11 -72 -11c-60 0 -100 36 -93 95c7 62 34 114 100 159l61 496h66z" />
    <glyph glyph-name="jcircumflex.small" unicode="&#xe0ca;" horiz-adv-x="375" 
d="M469 550h-55l-113 141l-147 -141h-55l170 200h80zM4 -3l8 63c23 -6 38 -8 69 -8c65 0 111 20 119 85l45 363h66l-44 -360c-12 -96 -69 -150 -194 -150c-21 0 -49 2 -69 7z" />
    <glyph glyph-name="jcaron.small" unicode="&#xe0cb;" horiz-adv-x="375" 
d="M439 750h55l-170 -200h-80l-120 200h55l112 -141zM4 -3l8 63c23 -6 38 -8 69 -8c65 0 111 20 119 85l45 363h66l-44 -360c-12 -96 -69 -150 -194 -150c-21 0 -49 2 -69 7z" />
    <glyph glyph-name="kcaron.small" unicode="&#xe0cc;" horiz-adv-x="515" 
d="M492 500l-240 -206l206 -294h-87l-166 254l-71 -60l-23 -194h-66l61 500h66l-28 -227l254 227h94zM442 750h55l-170 -200h-80l-120 200h55l112 -141z" />
    <glyph glyph-name="kcommaaccent.small" unicode="&#xe0cd;" horiz-adv-x="515" 
d="M492 500l-240 -206l206 -294h-87l-166 254l-71 -60l-23 -194h-66l61 500h66l-28 -227l254 227h94zM180 -50h80l-80 -200h-50z" />
    <glyph glyph-name="kcedilla.small" unicode="&#xe0ce;" horiz-adv-x="515" 
d="M492 500l-240 -206l206 -294h-87l-166 254l-71 -60l-23 -194h-66l61 500h66l-28 -227l254 227h94zM168 -95l10 45c93 -10 139 -51 132 -111c-7 -54 -52 -89 -122 -89c-54 0 -82 12 -92 18l6 46s34 -13 75 -13s68 11 71 36c6 43 -34 62 -80 68z" />
    <glyph glyph-name="khook.small" unicode="&#xe0cf;" horiz-adv-x="515" 
d="M111 0h-66l61 500h66l-29 -234c32 9 63 39 92 84c62 94 126 155 256 150l-8 -61c-83 2 -141 -26 -203 -126c-6 -10 -13 -19 -22 -29l200 -284h-87l-159 242c-25 -20 -52 -37 -77 -44z" />
    <glyph glyph-name="lacute.small" unicode="&#xe0d0;" horiz-adv-x="480" 
d="M172 500l-54 -439h299l-7 -61h-365l61 500h66zM170 550h-50l75 200h80z" />
    <glyph glyph-name="lcaron.small" unicode="&#xe0d1;" horiz-adv-x="480" 
d="M172 500l-54 -439h299l-7 -61h-365l61 500h66zM303 625h78l-72 -200h-46z" />
    <glyph glyph-name="lcommaaccent.small" unicode="&#xe0d2;" horiz-adv-x="480" 
d="M172 500l-54 -439h299l-7 -61h-365l61 500h66zM195 -50h80l-80 -200h-50z" />
    <glyph glyph-name="lcedilla.small" unicode="&#xe0d3;" horiz-adv-x="480" 
d="M172 500l-54 -439h299l-7 -61h-365l61 500h66zM183 -95l10 45c93 -10 139 -51 132 -111c-7 -54 -52 -89 -122 -89c-54 0 -82 12 -92 18l6 46s34 -13 75 -13s68 11 71 36c6 43 -34 62 -80 68z" />
    <glyph glyph-name="ldotbelow.small" unicode="&#xe0d4;" horiz-adv-x="480" 
d="M172 500l-54 -439h299l-7 -61h-365l61 500h66zM166 -150c0 28 22 50 50 50s50 -22 50 -50s-22 -50 -50 -50s-50 22 -50 50z" />
    <glyph glyph-name="ldotbelowmacron.small" unicode="&#xe0d5;" horiz-adv-x="480" 
d="M172 500l-54 -439h299l-7 -61h-365l61 500h66zM17 620l7 60h274l-7 -60h-274zM166 -150c0 28 22 50 50 50s50 -22 50 -50s-22 -50 -50 -50s-50 22 -50 50z" />
    <glyph glyph-name="ldot.small" unicode="&#xe0d6;" horiz-adv-x="480" 
d="M172 500l-54 -439h299l-7 -61h-365l61 500h66zM308 275c0 28 22 50 50 50s50 -22 50 -50s-22 -50 -50 -50s-50 22 -50 50z" />
    <glyph glyph-name="lslash.small" unicode="&#xe0d7;" horiz-adv-x="520" 
d="M368 292l-194 -103l-16 -128h299l-7 -61h-365l18 152l-96 -51l8 63l96 51l35 285h66l-31 -248l195 103z" />
    <glyph glyph-name="mmacron.small" unicode="&#xe0d8;" horiz-adv-x="670" 
d="M341 65h-58l-127 344l-46 -409h-65l61 500h85l130 -363l220 363h85l-61 -500h-65l54 409zM244 620l7 60h274l-7 -60h-274z" />
    <glyph glyph-name="mcedilla.small" unicode="&#xe0d9;" horiz-adv-x="670" 
d="M341 65h-58l-127 344l-46 -409h-65l61 500h85l130 -363l220 363h85l-61 -500h-65l54 409zM253 -95l10 45c93 -10 139 -51 132 -111c-7 -54 -52 -89 -122 -89c-54 0 -82 12 -92 18l6 46s34 -13 75 -13s68 11 71 36c6 43 -34 62 -80 68z" />
    <glyph glyph-name="mdotbelow.small" unicode="&#xe0da;" horiz-adv-x="670" 
d="M341 65h-58l-127 344l-46 -409h-65l61 500h85l130 -363l220 363h85l-61 -500h-65l54 409zM236 -150c0 28 22 50 50 50s50 -22 50 -50s-22 -50 -50 -50s-50 22 -50 50z" />
    <glyph glyph-name="nacute.small" unicode="&#xe0db;" 
d="M347 550h-50l75 200h80zM465 0h-44l-265 378l-45 -378h-66l61 500h44l264 -378l46 378h66z" />
    <glyph glyph-name="ngrave.small" unicode="&#xe0dc;" 
d="M347 550h-50l-55 200h80zM465 0h-44l-265 378l-45 -378h-66l61 500h44l264 -378l46 378h66z" />
    <glyph glyph-name="ndieresis.small" unicode="&#xe0dd;" 
d="M465 0h-44l-265 378l-45 -378h-66l61 500h44l264 -378l46 378h66zM189 650c0 28 22 50 50 50s50 -22 50 -50s-22 -50 -50 -50s-50 22 -50 50zM379 650c0 28 22 50 50 50s50 -22 50 -50s-22 -50 -50 -50s-50 22 -50 50z" />
    <glyph glyph-name="ntilde.small" unicode="&#xe0de;" 
d="M410 644c45 0 52 31 55 51h56c-4 -70 -51 -110 -123 -110c-82 0 -84 71 -139 71c-45 0 -53 -31 -55 -51h-56c3 70 50 110 122 110c82 0 85 -71 140 -71zM465 0h-44l-265 378l-45 -378h-66l61 500h44l264 -378l46 378h66z" />
    <glyph glyph-name="ncaron.small" unicode="&#xe0df;" 
d="M477 750h55l-170 -200h-80l-120 200h55l112 -141zM465 0h-44l-265 378l-45 -378h-66l61 500h44l264 -378l46 378h66z" />
    <glyph glyph-name="nmacron.small" unicode="&#xe0e0;" 
d="M194 620l7 60h274l-7 -60h-274zM465 0h-44l-265 378l-45 -378h-66l61 500h44l264 -378l46 378h66z" />
    <glyph glyph-name="ndotaccent.small" unicode="&#xe0e1;" 
d="M465 0h-44l-265 378l-45 -378h-66l61 500h44l264 -378l46 378h66zM284 650c0 28 22 50 50 50s50 -22 50 -50s-22 -50 -50 -50s-50 22 -50 50z" />
    <glyph glyph-name="ncommaaccent.small" unicode="&#xe0e2;" 
d="M465 0h-44l-265 378l-45 -378h-66l61 500h44l264 -378l46 378h66zM215 -50h80l-80 -200h-50z" />
    <glyph glyph-name="ncedilla.small" unicode="&#xe0e3;" 
d="M203 -95l10 45c93 -10 139 -51 132 -111c-7 -54 -52 -89 -122 -89c-54 0 -82 12 -92 18l6 46s34 -13 75 -13s68 11 71 36c6 43 -34 62 -80 68zM465 0h-44l-265 378l-45 -378h-66l61 500h44l264 -378l46 378h66z" />
    <glyph glyph-name="ndotbelow.small" unicode="&#xe0e4;" 
d="M465 0h-44l-265 378l-45 -378h-66l61 500h44l264 -378l46 378h66zM186 -150c0 28 22 50 50 50s50 -22 50 -50s-22 -50 -50 -50s-50 22 -50 50z" />
    <glyph glyph-name="ndescender.small" unicode="&#xe0e5;" 
d="M465 0h-44l-265 378l-45 -378h-66l61 500h44l264 -378l46 378h66l-54 -439h66l-23 -186h-66z" />
    <glyph glyph-name="oacute.small" unicode="&#xe0e6;" horiz-adv-x="580" 
d="M352 550h-50l75 200h80zM523 250c-19 -153 -93 -260 -265 -260c-171 0 -220 107 -201 260s94 260 265 260c172 0 220 -107 201 -260zM453 250c14 113 -5 198 -138 198c-135 0 -174 -85 -188 -198s4 -198 139 -198c133 0 173 85 187 198z" />
    <glyph glyph-name="ograve.small" unicode="&#xe0e7;" horiz-adv-x="580" 
d="M352 550h-50l-55 200h80zM523 250c-19 -153 -93 -260 -265 -260c-171 0 -220 107 -201 260s94 260 265 260c172 0 220 -107 201 -260zM453 250c14 113 -5 198 -138 198c-135 0 -174 -85 -188 -198s4 -198 139 -198c133 0 173 85 187 198z" />
    <glyph glyph-name="ocircumflex.small" unicode="&#xe0e8;" horiz-adv-x="580" 
d="M512 550h-55l-113 141l-147 -141h-55l170 200h80zM523 250c-19 -153 -93 -260 -265 -260c-171 0 -220 107 -201 260s94 260 265 260c172 0 220 -107 201 -260zM453 250c14 113 -5 198 -138 198c-135 0 -174 -85 -188 -198s4 -198 139 -198c133 0 173 85 187 198z" />
    <glyph glyph-name="odieresis.small" unicode="&#xe0e9;" horiz-adv-x="580" 
d="M523 250c-19 -153 -93 -260 -265 -260c-171 0 -220 107 -201 260s94 260 265 260c172 0 220 -107 201 -260zM453 250c14 113 -5 198 -138 198c-135 0 -174 -85 -188 -198s4 -198 139 -198c133 0 173 85 187 198zM194 650c0 28 22 50 50 50s50 -22 50 -50s-22 -50 -50 -50
s-50 22 -50 50zM384 650c0 28 22 50 50 50s50 -22 50 -50s-22 -50 -50 -50s-50 22 -50 50z" />
    <glyph glyph-name="otilde.small" unicode="&#xe0ea;" horiz-adv-x="580" 
d="M415 644c45 0 52 31 55 51h56c-4 -70 -51 -110 -123 -110c-82 0 -84 71 -139 71c-45 0 -53 -31 -55 -51h-56c3 70 50 110 122 110c82 0 85 -71 140 -71zM523 250c-19 -153 -93 -260 -265 -260c-171 0 -220 107 -201 260s94 260 265 260c172 0 220 -107 201 -260zM453 250
c14 113 -5 198 -138 198c-135 0 -174 -85 -188 -198s4 -198 139 -198c133 0 173 85 187 198z" />
    <glyph glyph-name="ocaron.small" unicode="&#xe0eb;" horiz-adv-x="580" 
d="M482 750h55l-170 -200h-80l-120 200h55l112 -141zM523 250c-19 -153 -93 -260 -265 -260c-171 0 -220 107 -201 260s94 260 265 260c172 0 220 -107 201 -260zM453 250c14 113 -5 198 -138 198c-135 0 -174 -85 -188 -198s4 -198 139 -198c133 0 173 85 187 198z" />
    <glyph glyph-name="omacron.small" unicode="&#xe0ec;" horiz-adv-x="580" 
d="M199 620l7 60h274l-7 -60h-274zM523 250c-19 -153 -93 -260 -265 -260c-171 0 -220 107 -201 260s94 260 265 260c172 0 220 -107 201 -260zM453 250c14 113 -5 198 -138 198c-135 0 -174 -85 -188 -198s4 -198 139 -198c133 0 173 85 187 198z" />
    <glyph glyph-name="obreve.small" unicode="&#xe0ed;" horiz-adv-x="580" 
d="M327 550c-115 0 -164 66 -150 200h51c-10 -91 9 -140 106 -140s128 49 142 140h51c-20 -134 -85 -200 -200 -200zM523 250c-19 -153 -93 -260 -265 -260c-171 0 -220 107 -201 260s94 260 265 260c172 0 220 -107 201 -260zM453 250c14 113 -5 198 -138 198
c-135 0 -174 -85 -188 -198s4 -198 139 -198c133 0 173 85 187 198z" />
    <glyph glyph-name="oinvertedbreve.small" unicode="&#xe0ee;" horiz-adv-x="580" 
d="M352 750c115 0 163 -66 150 -200h-51c9 91 -10 140 -107 140s-128 -49 -141 -140h-51c19 134 85 200 200 200zM523 250c-19 -153 -93 -260 -265 -260c-171 0 -220 107 -201 260s94 260 265 260c172 0 220 -107 201 -260zM453 250c14 113 -5 198 -138 198
c-135 0 -174 -85 -188 -198s4 -198 139 -198c133 0 173 85 187 198z" />
    <glyph glyph-name="ohungarumlaut.small" unicode="&#xe0ef;" horiz-adv-x="580" 
d="M523 250c-19 -153 -93 -260 -265 -260c-171 0 -220 107 -201 260s94 260 265 260c172 0 220 -107 201 -260zM453 250c14 113 -5 198 -138 198c-135 0 -174 -85 -188 -198s4 -198 139 -198c133 0 173 85 187 198zM412 550h-50l75 200h80zM292 550h-50l75 200h80z" />
    <glyph glyph-name="odoublegrave.small" unicode="&#xe0f0;" horiz-adv-x="580" 
d="M523 250c-19 -153 -93 -260 -265 -260c-171 0 -220 107 -201 260s94 260 265 260c172 0 220 -107 201 -260zM453 250c14 113 -5 198 -138 198c-135 0 -174 -85 -188 -198s4 -198 139 -198c133 0 173 85 187 198zM292 550h-50l-55 200h80zM412 550h-50l-55 200h80z" />
    <glyph glyph-name="ocommaturnedabove.small" unicode="&#xe0f1;" horiz-adv-x="580" 
d="M523 250c-19 -153 -93 -260 -265 -260c-171 0 -220 107 -201 260s94 260 265 260c172 0 220 -107 201 -260zM453 250c14 113 -5 198 -138 198c-135 0 -174 -85 -188 -198s4 -198 139 -198c133 0 173 85 187 198zM366 550h-80l81 200h50z" />
    <glyph glyph-name="otildemacron.small" unicode="&#xe0f2;" horiz-adv-x="580" 
d="M410 609c45 0 53 31 56 51h56c-4 -70 -51 -110 -123 -110c-82 0 -84 71 -139 71c-45 0 -53 -31 -56 -51h-56c4 70 51 110 123 110c82 0 84 -71 139 -71zM210 710l7 60h274l-7 -60h-274zM523 250c-19 -153 -93 -260 -265 -260c-171 0 -220 107 -201 260s94 260 265 260
c172 0 220 -107 201 -260zM453 250c14 113 -5 198 -138 198c-135 0 -174 -85 -188 -198s4 -198 139 -198c133 0 173 85 187 198z" />
    <glyph glyph-name="odotabove.small" unicode="&#xe0f3;" horiz-adv-x="580" 
d="M523 250c-19 -153 -93 -260 -265 -260c-171 0 -220 107 -201 260s94 260 265 260c172 0 220 -107 201 -260zM453 250c14 113 -5 198 -138 198c-135 0 -174 -85 -188 -198s4 -198 139 -198c133 0 173 85 187 198zM289 650c0 28 22 50 50 50s50 -22 50 -50s-22 -50 -50 -50
s-50 22 -50 50z" />
    <glyph glyph-name="odotabovemacron.small" unicode="&#xe0f4;" horiz-adv-x="580" 
d="M210 710l7 60h274l-7 -60h-274zM523 250c-19 -153 -93 -260 -265 -260c-171 0 -220 107 -201 260s94 260 265 260c172 0 220 -107 201 -260zM453 250c14 113 -5 198 -138 198c-135 0 -174 -85 -188 -198s4 -198 139 -198c133 0 173 85 187 198zM285 615c0 28 22 50 50 50
s50 -22 50 -50s-22 -50 -50 -50s-50 22 -50 50z" />
    <glyph glyph-name="ocedilla.small" unicode="&#xe0f5;" horiz-adv-x="580" 
d="M201 -95l10 45c93 -10 139 -51 132 -111c-7 -54 -52 -89 -122 -89c-54 0 -82 12 -92 18l6 46s34 -13 75 -13s68 11 71 36c6 43 -34 62 -80 68zM523 250c-19 -153 -93 -260 -265 -260c-171 0 -220 107 -201 260s94 260 265 260c172 0 220 -107 201 -260zM453 250
c14 113 -5 198 -138 198c-135 0 -174 -85 -188 -198s4 -198 139 -198c133 0 173 85 187 198z" />
    <glyph glyph-name="odotbelow.small" unicode="&#xe0f6;" horiz-adv-x="580" 
d="M523 250c-19 -153 -93 -260 -265 -260c-171 0 -220 107 -201 260s94 260 265 260c172 0 220 -107 201 -260zM453 250c14 113 -5 198 -138 198c-135 0 -174 -85 -188 -198s4 -198 139 -198c133 0 173 85 187 198zM191 -150c0 28 22 50 50 50s50 -22 50 -50
s-22 -50 -50 -50s-50 22 -50 50z" />
    <glyph glyph-name="oogonek.small" unicode="&#xe0f7;" horiz-adv-x="580" 
d="M523 250c-15 -126 -68 -220 -181 -250c-70 -36 -118 -90 -124 -142c-4 -31 8 -57 47 -57c22 0 44 4 58 8l-6 -48c-18 -6 -43 -11 -72 -11c-60 0 -97 36 -90 95c7 53 39 105 93 145c-163 4 -209 110 -191 260c19 153 94 260 265 260c172 0 220 -107 201 -260zM453 250
c14 113 -5 198 -138 198c-135 0 -174 -85 -188 -198s4 -198 139 -198c133 0 173 85 187 198z" />
    <glyph glyph-name="oogonekmacron.small" unicode="&#xe0f8;" horiz-adv-x="580" 
d="M523 250c-15 -126 -68 -220 -181 -250c-70 -36 -118 -90 -124 -142c-4 -31 8 -57 47 -57c22 0 44 4 58 8l-6 -48c-18 -6 -43 -11 -72 -11c-60 0 -97 36 -90 95c7 53 39 105 93 145c-163 4 -209 110 -191 260c19 153 94 260 265 260c172 0 220 -107 201 -260zM453 250
c14 113 -5 198 -138 198c-135 0 -174 -85 -188 -198s4 -198 139 -198c133 0 173 85 187 198zM199 620l7 60h274l-7 -60h-274z" />
    <glyph glyph-name="ounderlineaccent.small" unicode="&#xe0f9;" horiz-adv-x="580" 
d="M223 -50h60l-24 -200h-60zM523 250c-19 -153 -93 -260 -265 -260c-171 0 -220 107 -201 260s94 260 265 260c172 0 220 -107 201 -260zM453 250c14 113 -5 198 -138 198c-135 0 -174 -85 -188 -198s4 -198 139 -198c133 0 173 85 187 198z" />
    <glyph glyph-name="oslash.small" unicode="&#xe0fa;" horiz-adv-x="580" 
d="M523 250c-19 -153 -93 -260 -265 -260c-52 0 -91 10 -122 27l-14 -17h-62l37 48c-40 46 -50 117 -40 202c19 153 94 260 265 260c52 0 92 -10 123 -27l14 17h62l-39 -48c41 -46 52 -117 41 -202zM127 250c-7 -59 -6 -110 15 -146l260 325c-21 12 -50 19 -87 19
c-135 0 -174 -85 -188 -198zM453 250c7 58 6 109 -16 145l-259 -324c22 -12 50 -19 88 -19c133 0 173 85 187 198z" />
    <glyph glyph-name="oslashacute.small" unicode="&#xe0fb;" horiz-adv-x="580" 
d="M523 250c-19 -153 -93 -260 -265 -260c-52 0 -91 10 -122 27l-14 -17h-62l37 48c-40 46 -50 117 -40 202c19 153 94 260 265 260c52 0 92 -10 123 -27l14 17h62l-39 -48c41 -46 52 -117 41 -202zM127 250c-7 -59 -6 -110 15 -146l260 325c-21 12 -50 19 -87 19
c-135 0 -174 -85 -188 -198zM453 250c7 58 6 109 -16 145l-259 -324c22 -12 50 -19 88 -19c133 0 173 85 187 198zM352 550h-50l75 200h80z" />
    <glyph glyph-name="barredo.small" unicode="&#xe0fc;" horiz-adv-x="580" 
d="M523 250c-19 -153 -93 -260 -265 -260c-171 0 -220 107 -201 260s94 260 265 260c172 0 220 -107 201 -260zM266 52c123 0 167 73 183 174h-325c-8 -101 16 -174 142 -174zM315 448c-120 0 -164 -67 -182 -161h324c4 94 -24 161 -142 161z" />
    <glyph glyph-name="oe.small" unicode="&#xe0fd;" horiz-adv-x="765" 
d="M675 287l-8 -61h-234l-20 -165h269l-7 -61h-403c-172 0 -231 97 -212 250s101 250 273 250h403l-8 -61h-269l-18 -152h234zM280 61h67l46 378h-67c-133 0 -182 -76 -196 -189s17 -189 150 -189z" />
    <glyph glyph-name="pmacron.small" unicode="&#xe0fe;" horiz-adv-x="490" 
d="M268 178h-136l-21 -178h-66l61 500h202c124 0 158 -75 147 -161c-10 -86 -64 -161 -187 -161zM384 339c6 48 -3 100 -86 100h-134l-24 -200h134c83 0 104 52 110 100zM154 620l7 60h274l-7 -60h-274z" />
    <glyph glyph-name="racute.small" unicode="&#xe0ff;" horiz-adv-x="512" 
d="M288 198h-153l-24 -198h-66l61 500h214c124 0 157 -65 146 -151c-8 -67 -40 -121 -111 -142l94 -207h-78zM395 349c6 48 -7 90 -90 90h-141l-22 -180h141c83 0 106 42 112 90zM307 550h-50l75 200h80z" />
    <glyph glyph-name="rcaron.small" unicode="&#xe100;" horiz-adv-x="512" 
d="M288 198h-153l-24 -198h-66l61 500h214c124 0 157 -65 146 -151c-8 -67 -40 -121 -111 -142l94 -207h-78zM395 349c6 48 -7 90 -90 90h-141l-22 -180h141c83 0 106 42 112 90zM442 750h55l-170 -200h-80l-120 200h55l112 -141z" />
    <glyph glyph-name="rinvertedbreve.small" unicode="&#xe101;" horiz-adv-x="512" 
d="M288 198h-153l-24 -198h-66l61 500h214c124 0 157 -65 146 -151c-8 -67 -40 -121 -111 -142l94 -207h-78zM395 349c6 48 -7 90 -90 90h-141l-22 -180h141c83 0 106 42 112 90zM312 750c115 0 163 -66 150 -200h-51c9 91 -10 140 -107 140s-128 -49 -141 -140h-51
c19 134 85 200 200 200z" />
    <glyph glyph-name="rdoublegrave.small" unicode="&#xe102;" horiz-adv-x="512" 
d="M288 198h-153l-24 -198h-66l61 500h214c124 0 157 -65 146 -151c-8 -67 -40 -121 -111 -142l94 -207h-78zM395 349c6 48 -7 90 -90 90h-141l-22 -180h141c83 0 106 42 112 90zM262 550h-50l-55 200h80zM382 550h-50l-55 200h80z" />
    <glyph glyph-name="rcommaaccent.small" unicode="&#xe103;" horiz-adv-x="512" 
d="M288 198h-153l-24 -198h-66l61 500h214c124 0 157 -65 146 -151c-8 -67 -40 -121 -111 -142l94 -207h-78zM395 349c6 48 -7 90 -90 90h-141l-22 -180h141c83 0 106 42 112 90zM196 -50h80l-80 -200h-50z" />
    <glyph glyph-name="rcedilla.small" unicode="&#xe104;" horiz-adv-x="512" 
d="M288 198h-153l-24 -198h-66l61 500h214c124 0 157 -65 146 -151c-8 -67 -40 -121 -111 -142l94 -207h-78zM395 349c6 48 -7 90 -90 90h-141l-22 -180h141c83 0 106 42 112 90zM171 -95l10 45c93 -10 139 -51 132 -111c-7 -54 -52 -89 -122 -89c-54 0 -82 12 -92 18l6 46
s34 -13 75 -13s68 11 71 36c6 43 -34 62 -80 68z" />
    <glyph glyph-name="rdotbelow.small" unicode="&#xe105;" horiz-adv-x="512" 
d="M288 198h-153l-24 -198h-66l61 500h214c124 0 157 -65 146 -151c-8 -67 -40 -121 -111 -142l94 -207h-78zM395 349c6 48 -7 90 -90 90h-141l-22 -180h141c83 0 106 42 112 90zM161 -150c0 28 22 50 50 50s50 -22 50 -50s-22 -50 -50 -50s-50 22 -50 50z" />
    <glyph glyph-name="rdotbelowmacron.small" unicode="&#xe106;" horiz-adv-x="512" 
d="M288 198h-153l-24 -198h-66l61 500h214c124 0 157 -65 146 -151c-8 -67 -40 -121 -111 -142l94 -207h-78zM395 349c6 48 -7 90 -90 90h-141l-22 -180h141c83 0 106 42 112 90zM159 620l7 60h274l-7 -60h-274zM161 -150c0 28 22 50 50 50s50 -22 50 -50s-22 -50 -50 -50
s-50 22 -50 50z" />
    <glyph glyph-name="sacute.small" unicode="&#xe107;" horiz-adv-x="500" 
d="M312 550h-50l75 200h80zM135 358c-6 -50 29 -62 124 -70c140 -13 185 -51 173 -142c-10 -85 -74 -156 -235 -156c-51 0 -131 13 -160 27l7 60c28 -12 88 -25 162 -25c110 0 152 32 159 93c7 55 -20 75 -119 83c-143 13 -188 46 -178 130c12 90 75 152 225 152
c50 0 114 -6 156 -25l-7 -60c-38 13 -87 23 -157 23c-105 0 -142 -26 -150 -90z" />
    <glyph glyph-name="scircumflex.small" unicode="&#xe108;" horiz-adv-x="500" 
d="M472 550h-55l-113 141l-147 -141h-55l170 200h80zM135 358c-6 -50 29 -62 124 -70c140 -13 185 -51 173 -142c-10 -85 -74 -156 -235 -156c-51 0 -131 13 -160 27l7 60c28 -12 88 -25 162 -25c110 0 152 32 159 93c7 55 -20 75 -119 83c-143 13 -188 46 -178 130
c12 90 75 152 225 152c50 0 114 -6 156 -25l-7 -60c-38 13 -87 23 -157 23c-105 0 -142 -26 -150 -90z" />
    <glyph glyph-name="scaron.small" unicode="&#xe109;" horiz-adv-x="500" 
d="M442 750h55l-170 -200h-80l-120 200h55l112 -141zM135 358c-6 -50 29 -62 124 -70c140 -13 185 -51 173 -142c-10 -85 -74 -156 -235 -156c-51 0 -131 13 -160 27l7 60c28 -12 88 -25 162 -25c110 0 152 32 159 93c7 55 -20 75 -119 83c-143 13 -188 46 -178 130
c12 90 75 152 225 152c50 0 114 -6 156 -25l-7 -60c-38 13 -87 23 -157 23c-105 0 -142 -26 -150 -90z" />
    <glyph glyph-name="scommaaccent.small" unicode="&#xe10a;" horiz-adv-x="500" 
d="M135 358c-6 -50 29 -62 124 -70c140 -13 185 -51 173 -142c-10 -85 -74 -156 -235 -156c-51 0 -131 13 -160 27l7 60c28 -12 88 -25 162 -25c110 0 152 32 159 93c7 55 -20 75 -119 83c-143 13 -188 46 -178 130c12 90 75 152 225 152c50 0 114 -6 156 -25l-7 -60
c-38 13 -87 23 -157 23c-105 0 -142 -26 -150 -90zM166 -50h80l-80 -200h-50z" />
    <glyph glyph-name="scedilla.small" unicode="&#xe10b;" horiz-adv-x="500" 
d="M135 358c-6 -50 29 -62 124 -70c140 -13 185 -51 173 -142c-9 -79 -64 -146 -201 -155l-1 -55c38 -10 90 -35 83 -97c-7 -54 -52 -89 -122 -89c-54 0 -82 12 -92 18l6 46s34 -13 75 -13s68 11 71 36c6 43 -35 57 -81 63l20 90c-51 1 -126 13 -153 27l7 60
c28 -12 88 -25 162 -25c110 0 152 32 159 93c7 55 -20 75 -119 83c-143 13 -188 46 -178 130c12 90 75 152 225 152c50 0 114 -6 156 -25l-7 -60c-38 13 -87 23 -157 23c-105 0 -142 -26 -150 -90z" />
    <glyph glyph-name="sdotbelow.small" unicode="&#xe10c;" horiz-adv-x="500" 
d="M135 358c-6 -50 29 -62 124 -70c140 -13 185 -51 173 -142c-10 -85 -74 -156 -235 -156c-51 0 -131 13 -160 27l7 60c28 -12 88 -25 162 -25c110 0 152 32 159 93c7 55 -20 75 -119 83c-143 13 -188 46 -178 130c12 90 75 152 225 152c50 0 114 -6 156 -25l-7 -60
c-38 13 -87 23 -157 23c-105 0 -142 -26 -150 -90zM141 -150c0 28 22 50 50 50s50 -22 50 -50s-22 -50 -50 -50s-50 22 -50 50z" />
    <glyph glyph-name="germandbls.small" unicode="&#xe10d;" horiz-adv-x="1000" 
d="M135 358c-6 -50 29 -62 124 -70c140 -13 185 -51 173 -142c-10 -85 -74 -156 -235 -156c-51 0 -131 13 -160 27l7 60c28 -12 88 -25 162 -25c110 0 152 32 159 93c7 55 -20 75 -119 83c-143 13 -188 46 -178 130c12 90 75 152 225 152c50 0 114 -6 156 -25l-7 -60
c-38 13 -87 23 -157 23c-105 0 -142 -26 -150 -90zM635 358c-6 -50 29 -62 124 -70c140 -13 185 -51 173 -142c-10 -85 -74 -156 -235 -156c-51 0 -131 13 -160 27l7 60c28 -12 88 -25 162 -25c110 0 152 32 159 93c7 55 -20 75 -119 83c-143 13 -188 46 -178 130
c12 90 75 152 225 152c50 0 114 -6 156 -25l-7 -60c-38 13 -87 23 -157 23c-105 0 -142 -26 -150 -90z" />
    <glyph glyph-name="tcaron.small" unicode="&#xe10e;" horiz-adv-x="485" 
d="M468 439h-167l-53 -439h-71l53 439h-167l8 61h405zM435 750h55l-170 -200h-80l-120 200h55l112 -141z" />
    <glyph glyph-name="tcommaaccent.small" unicode="&#xe10f;" horiz-adv-x="485" 
d="M468 439h-167l-53 -439h-71l53 439h-167l8 61h405zM166 -50h80l-80 -200h-50z" />
    <glyph glyph-name="tcedilla.small" unicode="&#xe110;" horiz-adv-x="485" 
d="M468 439h-167l-53 -439h-71l53 439h-167l8 61h405zM155 -95l10 45c93 -10 139 -51 132 -111c-7 -54 -52 -89 -122 -89c-54 0 -82 12 -92 18l6 46s34 -13 75 -13s68 11 71 36c6 43 -34 62 -80 68z" />
    <glyph glyph-name="tdotbelow.small" unicode="&#xe111;" horiz-adv-x="485" 
d="M468 439h-167l-53 -439h-71l53 439h-167l8 61h405zM144 -150c0 28 22 50 50 50s50 -22 50 -50s-22 -50 -50 -50s-50 22 -50 50z" />
    <glyph glyph-name="tbar.small" unicode="&#xe112;" horiz-adv-x="485" 
d="M468 439h-167l-19 -155h125l-6 -55h-125l-28 -229h-71l28 229h-125l6 55h125l19 155h-167l8 61h405z" />
    <glyph glyph-name="uacute.small" unicode="&#xe113;" 
d="M347 550h-50l75 200h80zM253 -10c-149 0 -207 64 -194 170l42 340h66l-42 -341c-10 -80 49 -107 136 -107s152 27 162 107l42 341h66l-42 -340c-13 -106 -87 -170 -236 -170z" />
    <glyph glyph-name="ugrave.small" unicode="&#xe114;" 
d="M347 550h-50l-55 200h80zM253 -10c-149 0 -207 64 -194 170l42 340h66l-42 -341c-10 -80 49 -107 136 -107s152 27 162 107l42 341h66l-42 -340c-13 -106 -87 -170 -236 -170z" />
    <glyph glyph-name="ucircumflex.small" unicode="&#xe115;" 
d="M507 550h-55l-113 141l-147 -141h-55l170 200h80zM253 -10c-149 0 -207 64 -194 170l42 340h66l-42 -341c-10 -80 49 -107 136 -107s152 27 162 107l42 341h66l-42 -340c-13 -106 -87 -170 -236 -170z" />
    <glyph glyph-name="udieresis.small" unicode="&#xe116;" 
d="M253 -10c-149 0 -207 64 -194 170l42 340h66l-42 -341c-10 -80 49 -107 136 -107s152 27 162 107l42 341h66l-42 -340c-13 -106 -87 -170 -236 -170zM189 650c0 28 22 50 50 50s50 -22 50 -50s-22 -50 -50 -50s-50 22 -50 50zM379 650c0 28 22 50 50 50s50 -22 50 -50
s-22 -50 -50 -50s-50 22 -50 50z" />
    <glyph glyph-name="utilde.small" unicode="&#xe117;" 
d="M410 644c45 0 52 31 55 51h56c-4 -70 -51 -110 -123 -110c-82 0 -84 71 -139 71c-45 0 -53 -31 -55 -51h-56c3 70 50 110 122 110c82 0 85 -71 140 -71zM253 -10c-149 0 -207 64 -194 170l42 340h66l-42 -341c-10 -80 49 -107 136 -107s152 27 162 107l42 341h66
l-42 -340c-13 -106 -87 -170 -236 -170z" />
    <glyph glyph-name="uring.small" unicode="&#xe118;" 
d="M341 702c-31 0 -56 -15 -61 -52c-4 -37 17 -52 48 -52s56 15 60 52c5 37 -16 52 -47 52zM322 549c-60 0 -100 32 -92 101c9 69 57 101 117 101s100 -32 91 -101c-8 -69 -56 -101 -116 -101zM253 -10c-149 0 -207 64 -194 170l42 340h66l-42 -341
c-10 -80 49 -107 136 -107s152 27 162 107l42 341h66l-42 -340c-13 -106 -87 -170 -236 -170z" />
    <glyph glyph-name="ucaron.small" unicode="&#xe119;" 
d="M477 750h55l-170 -200h-80l-120 200h55l112 -141zM253 -10c-149 0 -207 64 -194 170l42 340h66l-42 -341c-10 -80 49 -107 136 -107s152 27 162 107l42 341h66l-42 -340c-13 -106 -87 -170 -236 -170z" />
    <glyph glyph-name="umacron.small" unicode="&#xe11a;" 
d="M194 620l7 60h274l-7 -60h-274zM253 -10c-149 0 -207 64 -194 170l42 340h66l-42 -341c-10 -80 49 -107 136 -107s152 27 162 107l42 341h66l-42 -340c-13 -106 -87 -170 -236 -170z" />
    <glyph glyph-name="ubreve.small" unicode="&#xe11b;" 
d="M322 550c-115 0 -164 66 -150 200h51c-10 -91 9 -140 106 -140s128 49 142 140h51c-20 -134 -85 -200 -200 -200zM253 -10c-149 0 -207 64 -194 170l42 340h66l-42 -341c-10 -80 49 -107 136 -107s152 27 162 107l42 341h66l-42 -340c-13 -106 -87 -170 -236 -170z" />
    <glyph glyph-name="uinvertedbreve.small" unicode="&#xe11c;" 
d="M347 750c115 0 163 -66 150 -200h-51c9 91 -10 140 -107 140s-128 -49 -141 -140h-51c19 134 85 200 200 200zM253 -10c-149 0 -207 64 -194 170l42 340h66l-42 -341c-10 -80 49 -107 136 -107s152 27 162 107l42 341h66l-42 -340c-13 -106 -87 -170 -236 -170z" />
    <glyph glyph-name="uhungarumlaut.small" unicode="&#xe11d;" 
d="M253 -10c-149 0 -207 64 -194 170l42 340h66l-42 -341c-10 -80 49 -107 136 -107s152 27 162 107l42 341h66l-42 -340c-13 -106 -87 -170 -236 -170zM407 550h-50l75 200h80zM287 550h-50l75 200h80z" />
    <glyph glyph-name="udoublegrave.small" unicode="&#xe11e;" 
d="M253 -10c-149 0 -207 64 -194 170l42 340h66l-42 -341c-10 -80 49 -107 136 -107s152 27 162 107l42 341h66l-42 -340c-13 -106 -87 -170 -236 -170zM287 550h-50l-55 200h80zM407 550h-50l-55 200h80z" />
    <glyph glyph-name="udotbelow.small" unicode="&#xe11f;" 
d="M253 -10c-149 0 -207 64 -194 170l42 340h66l-42 -341c-10 -80 49 -107 136 -107s152 27 162 107l42 341h66l-42 -340c-13 -106 -87 -170 -236 -170zM186 -150c0 28 22 50 50 50s50 -22 50 -50s-22 -50 -50 -50s-50 22 -50 50z" />
    <glyph glyph-name="uogonek.small" unicode="&#xe120;" 
d="M489 160c-10 -82 -56 -138 -144 -160c-70 -36 -118 -90 -124 -142c-4 -31 8 -57 47 -57c22 0 44 4 58 8l-6 -48c-18 -6 -43 -11 -72 -11c-60 0 -97 36 -90 95c7 53 39 105 93 145c-148 1 -205 64 -192 170l42 340h66l-42 -341c-10 -80 49 -107 136 -107s152 27 162 107
l42 341h66z" />
    <glyph glyph-name="umacronbelow.small" unicode="&#xe121;" 
d="M95 -180l8 60h274l-8 -60h-274zM253 -10c-149 0 -207 64 -194 170l42 340h66l-42 -341c-10 -80 49 -107 136 -107s152 27 162 107l42 341h66l-42 -340c-13 -106 -87 -170 -236 -170z" />
    <glyph glyph-name="wacute.small" unicode="&#xe122;" horiz-adv-x="740" 
d="M664 500h77l-209 -510h-52l-88 437l-196 -437h-52l-83 510h77l48 -397l178 397h74l80 -397zM432 550h-50l75 200h80z" />
    <glyph glyph-name="wgrave.small" unicode="&#xe123;" horiz-adv-x="740" 
d="M664 500h77l-209 -510h-52l-88 437l-196 -437h-52l-83 510h77l48 -397l178 397h74l80 -397zM432 550h-50l-45 200h70z" />
    <glyph glyph-name="wcircumflex.small" unicode="&#xe124;" horiz-adv-x="740" 
d="M664 500h77l-209 -510h-52l-88 437l-196 -437h-52l-83 510h77l48 -397l178 397h74l80 -397zM592 550h-55l-113 141l-147 -141h-55l170 200h80z" />
    <glyph glyph-name="wdieresis.small" unicode="&#xe125;" horiz-adv-x="740" 
d="M664 500h77l-209 -510h-52l-88 437l-196 -437h-52l-83 510h77l48 -397l178 397h74l80 -397zM274 650c0 28 22 50 50 50s50 -22 50 -50s-22 -50 -50 -50s-50 22 -50 50zM464 650c0 28 22 50 50 50s50 -22 50 -50s-22 -50 -50 -50s-50 22 -50 50z" />
    <glyph glyph-name="yacute.small" unicode="&#xe126;" horiz-adv-x="542" 
d="M333 550h-50l75 200h80zM465 500h83l-249 -320l-22 -180h-71l22 180l-172 320h83l130 -267z" />
    <glyph glyph-name="ygrave.small" unicode="&#xe127;" horiz-adv-x="542" 
d="M333 550h-50l-55 200h80zM465 500h83l-249 -320l-22 -180h-71l22 180l-172 320h83l130 -267z" />
    <glyph glyph-name="ycircumflex.small" unicode="&#xe128;" horiz-adv-x="542" 
d="M493 550h-55l-113 141l-147 -141h-55l170 200h80zM465 500h83l-249 -320l-22 -180h-71l22 180l-172 320h83l130 -267z" />
    <glyph glyph-name="ydieresis.small" unicode="&#xe129;" horiz-adv-x="542" 
d="M465 500h83l-249 -320l-22 -180h-71l22 180l-172 320h83l130 -267zM174 650c0 28 22 50 50 50s50 -22 50 -50s-22 -50 -50 -50s-50 22 -50 50zM364 650c0 28 22 50 50 50s50 -22 50 -50s-22 -50 -50 -50s-50 22 -50 50z" />
    <glyph glyph-name="ytilde.small" unicode="&#xe12a;" horiz-adv-x="542" 
d="M396 644c45 0 52 31 55 51h56c-4 -70 -51 -110 -123 -110c-82 0 -84 71 -139 71c-45 0 -53 -31 -55 -51h-56c3 70 50 110 122 110c82 0 85 -71 140 -71zM465 500h83l-249 -320l-22 -180h-71l22 180l-172 320h83l130 -267z" />
    <glyph glyph-name="ymacron.small" unicode="&#xe12b;" horiz-adv-x="542" 
d="M180 620l7 60h274l-7 -60h-274zM465 500h83l-249 -320l-22 -180h-71l22 180l-172 320h83l130 -267z" />
    <glyph glyph-name="ij.small" unicode="&#xe12c;" horiz-adv-x="635" 
d="M133 0h-66l61 500h66zM264 -3l8 63c23 -6 38 -8 69 -8c65 0 111 20 119 85l45 363h66l-44 -360c-12 -96 -69 -150 -194 -150c-21 0 -49 2 -69 7z" />
    <glyph glyph-name="zacute.small" unicode="&#xe12d;" horiz-adv-x="510" 
d="M317 550h-50l75 200h80zM435 0h-420l5 45l365 393h-302l8 62h395l-6 -45l-365 -393h327z" />
    <glyph glyph-name="zcaron.small" unicode="&#xe12e;" horiz-adv-x="510" 
d="M447 750h55l-170 -200h-80l-120 200h55l112 -141zM435 0h-420l5 45l365 393h-302l8 62h395l-6 -45l-365 -393h327z" />
    <glyph glyph-name="zdotaccent.small" unicode="&#xe12f;" horiz-adv-x="510" 
d="M435 0h-420l5 45l365 393h-302l8 62h395l-6 -45l-365 -393h327zM254 650c0 28 22 50 50 50s50 -22 50 -50s-22 -50 -50 -50s-50 22 -50 50z" />
    <glyph glyph-name="eng.small" unicode="&#xe130;" 
d="M453 -97c-13 -104 -127 -159 -219 -164l8 61c60 8 139 35 149 112l13 111l-248 355l-45 -378h-66l61 500h44l264 -378l46 378h66z" />
    <glyph glyph-name="eth.small" unicode="&#xe131;" horiz-adv-x="585" 
d="M29 277h90l27 223h168c172 0 230 -97 211 -250s-100 -250 -272 -250h-168l27 222h-90zM158 61h101c133 0 182 76 196 189s-17 189 -150 189h-101l-19 -162h120l-7 -55h-120z" />
    <glyph glyph-name="thorn.small" unicode="&#xe132;" horiz-adv-x="490" 
d="M257 89h-136l-10 -89h-66l61 500h66l-11 -89h136c124 0 158 -75 147 -161c-10 -86 -64 -161 -187 -161zM373 250c6 48 -3 100 -86 100h-134l-24 -200h134c83 0 104 52 110 100z" />
    <glyph glyph-name="ezh.small" unicode="&#xe133;" horiz-adv-x="500" 
d="M165 133h-68l6 49l265 256h-315l8 62h410l-6 -49l-260 -250c140 0 264 -32 241 -218c-26 -216 -199 -243 -313 -243c-73 0 -134 15 -165 32l6 65c36 -14 91 -32 168 -32c84 0 210 21 229 178c18 147 -88 150 -206 150z" />
    <glyph glyph-name="ezhcaron.small" unicode="&#xe134;" horiz-adv-x="500" 
d="M165 133h-68l6 49l265 256h-315l8 62h410l-6 -49l-260 -250c140 0 264 -32 241 -218c-26 -216 -199 -243 -313 -243c-73 0 -134 15 -165 32l6 65c36 -14 91 -32 168 -32c84 0 210 21 229 178c18 147 -88 150 -206 150zM428 750h55l-170 -200h-80l-120 200h55l112 -141z
" />
    <glyph glyph-name="schwa.small" unicode="&#xe135;" 
d="M510 250c-17 -144 -99 -260 -268 -260c-170 0 -200 116 -183 260l4 32h379c7 87 -21 165 -144 165c-75 0 -144 -15 -194 -35l8 63c49 19 101 35 194 35c169 0 222 -116 204 -260zM250 53c121 0 171 82 185 172h-307c-11 -89 2 -172 122 -172z" />
    <glyph glyph-name="ordfeminine.small" unicode="&#xe136;" horiz-adv-x="370" 
d="M387 378h-73l-27 103h-146l-53 -103h-73l208 382h50zM238 677l-71 -144h106z" />
    <glyph glyph-name="ordmasculine.small" unicode="&#xe137;" horiz-adv-x="439" 
d="M84 565c16 128 74 195 195 195s170 -67 154 -195s-81 -195 -202 -195s-163 67 -147 195zM148 565c-12 -99 14 -135 90 -135c78 0 120 38 132 135s-21 135 -99 135c-76 0 -111 -36 -123 -135z" />
    <glyph glyph-name="cordinal.small" unicode="&#xe138;" horiz-adv-x="366" 
d="M238 430c45 0 78 5 107 12l-8 -61c-35 -8 -72 -11 -106 -11c-121 0 -163 67 -147 195s74 195 195 195c34 0 70 -3 103 -11l-7 -61c-27 7 -59 12 -104 12c-76 0 -111 -36 -123 -135s14 -135 90 -135z" />
    <glyph glyph-name="a.superior" horiz-adv-x="293" 
d="M180 551c-46 0 -61 -39 -66 -85c-6 -46 -1 -84 45 -84c26 0 44 7 55 13l18 143c-10 5 -26 13 -52 13zM295 591l-31 -250h-33l-6 19c-22 -16 -52 -26 -77 -26c-78 0 -101 50 -91 132s45 132 123 132c25 0 53 -10 71 -26l11 19h33z" />
    <glyph glyph-name="b.superior" horiz-adv-x="293" 
d="M199 598c78 0 101 -50 91 -132s-45 -132 -123 -132c-25 0 -53 10 -71 26l-12 -19h-33l46 375h57l-16 -135c16 10 39 17 61 17zM187 551c-26 0 -44 -8 -54 -13l-18 -143c9 -6 25 -13 51 -13c46 0 61 38 67 84c5 46 0 85 -46 85z" />
    <glyph glyph-name="c.superior" horiz-adv-x="235" 
d="M114 466c-6 -48 6 -82 53 -82c29 0 47 6 66 12l-6 -49c-20 -9 -44 -13 -70 -13c-86 0 -110 54 -100 132c9 79 46 132 132 132c26 0 49 -4 67 -13l-6 -49c-17 7 -34 12 -63 12c-47 0 -67 -33 -73 -82z" />
    <glyph glyph-name="d.superior" horiz-adv-x="293" 
d="M180 598c22 0 43 -7 57 -17l16 135h57l-46 -375h-33l-6 19c-22 -16 -52 -26 -77 -26c-78 0 -101 50 -91 132s45 132 123 132zM180 551c-46 0 -61 -39 -66 -85c-6 -46 -1 -84 45 -84c26 0 44 7 55 13l18 143c-10 5 -26 13 -52 13z" />
    <glyph glyph-name="e.superior" horiz-adv-x="273" 
d="M116 485h54c36 0 50 14 52 32s-8 32 -44 32c-39 0 -56 -27 -62 -64zM167 446h-56c-2 -38 11 -63 58 -63c34 0 60 7 81 15l-6 -48c-30 -12 -62 -16 -90 -16c-79 0 -107 51 -97 132s49 132 127 132c76 0 100 -35 94 -78c-5 -43 -37 -74 -111 -74z" />
    <glyph glyph-name="f.superior" horiz-adv-x="194" 
d="M247 717l-6 -49c-9 3 -19 6 -37 6c-25 0 -46 -9 -49 -37l-6 -46h72l-6 -48h-72l-40 -327h-57l40 327h-45l4 35l47 13l6 51c7 53 40 81 108 81c11 0 29 -1 41 -6z" />
    <glyph glyph-name="g.superior" horiz-adv-x="293" 
d="M295 591l-37 -300c-5 -45 -52 -82 -132 -82c-36 0 -73 8 -87 15l6 49c25 -8 52 -16 86 -16c38 0 68 12 70 32l7 60c-19 -10 -41 -15 -60 -15c-78 0 -101 50 -91 132s45 132 123 132c25 0 53 -10 71 -26l11 19h33zM180 551c-46 0 -61 -39 -66 -85c-6 -46 -1 -84 45 -84
c26 0 44 7 55 13l18 143c-10 5 -26 13 -52 13z" />
    <glyph glyph-name="h.superior" horiz-adv-x="285" 
d="M97 716h57l-16 -135c20 11 43 17 66 17c66 0 85 -32 79 -80l-22 -177h-58l22 173c3 25 -8 36 -35 36c-26 0 -44 -6 -58 -14l-24 -195h-57z" />
    <glyph glyph-name="i.superior" horiz-adv-x="140" 
d="M127 336h-12c-39 0 -64 19 -59 63l24 192h57l-23 -188c-2 -14 3 -19 19 -19zM80 665c0 20 17 37 38 37c20 0 37 -17 37 -37c0 -21 -17 -38 -37 -38c-21 0 -38 17 -38 38z" />
    <glyph glyph-name="j.superior" horiz-adv-x="138" 
d="M-20 209l6 48c37 2 60 19 64 50l35 284h57l-36 -291c-7 -62 -70 -90 -126 -91zM85 665c0 20 17 37 38 37c20 0 37 -17 37 -37c0 -21 -17 -38 -37 -38c-21 0 -38 17 -38 38z" />
    <glyph glyph-name="k.superior" horiz-adv-x="273" 
d="M153 716l-27 -221l100 96h74l-115 -102l94 -148h-71l-64 111l-26 -24l-11 -87h-56l46 375h56z" />
    <glyph glyph-name="l.superior" horiz-adv-x="140" 
d="M127 336h-12c-39 0 -64 19 -59 63l39 317h57l-38 -313c-2 -14 3 -19 19 -19z" />
    <glyph glyph-name="m.superior" horiz-adv-x="419" 
d="M338 341l22 178c3 23 -9 31 -31 31c-24 0 -41 -7 -55 -14c0 -9 0 -19 -1 -28l-21 -167h-58l22 178c3 23 -9 31 -31 31c-23 0 -39 -6 -53 -14l-24 -195h-57l31 250h33l7 -19c23 16 52 26 77 26c36 0 54 -10 63 -25c24 15 52 25 80 25c62 0 81 -33 75 -80l-22 -177h-57z
" />
    <glyph glyph-name="n.superior" unicode="&#x207f;" horiz-adv-x="285" 
d="M82 591h33l7 -19c24 16 53 26 82 26c66 0 85 -32 79 -80l-22 -177h-58l22 173c3 25 -8 36 -35 36c-26 0 -44 -6 -58 -14l-24 -195h-57z" />
    <glyph glyph-name="o.superior" horiz-adv-x="282" 
d="M279 466c-10 -77 -41 -132 -127 -132c-85 0 -105 55 -95 132c9 78 42 132 127 132c86 0 104 -54 95 -132zM157 382c46 0 58 31 65 84c6 53 2 85 -44 85c-47 0 -58 -32 -64 -85c-7 -53 -4 -84 43 -84z" />
    <glyph glyph-name="p.superior" horiz-adv-x="293" 
d="M167 334c-22 0 -44 7 -57 18l-17 -136h-57l46 375h33l7 -19c22 16 52 26 77 26c78 0 101 -50 91 -132s-45 -132 -123 -132zM166 382c46 0 61 38 67 84c5 47 0 85 -46 85c-26 0 -44 -8 -54 -13l-18 -143c9 -6 25 -13 51 -13z" />
    <glyph glyph-name="q.superior" horiz-adv-x="293" 
d="M148 334c-78 0 -101 50 -91 132s45 132 123 132c25 0 53 -10 71 -26l11 19h33l-46 -375h-57l17 136c-17 -11 -39 -18 -61 -18zM159 382c26 0 44 7 55 13l18 143c-10 5 -26 13 -52 13c-46 0 -61 -38 -66 -85c-6 -46 -1 -84 45 -84z" />
    </font>
</defs>
</svg>
