<?xml version="1.0" standalone="no"?>
<!DOCTYPE svg PUBLIC "-//W3C//DTD SVG 1.1//EN" "http://www.w3.org/Graphics/SVG/1.1/DTD/svg11.dtd" >
<svg xmlns="http://www.w3.org/2000/svg" xmlns:xlink="http://www.w3.org/1999/xlink" version="1.1">
<metadata>
Created by FontForge 20181107 at Wed Jan 18 14:38:48 2006
 By convertio
Copyright (c) Village Type &#38; Design LLC. All rights reserved.
</metadata>
<defs>
<font id="ApexNew-Medium" horiz-adv-x="526" >
  <font-face 
    font-family="Apex New Medium"
    font-weight="550"
    font-stretch="normal"
    units-per-em="1000"
    panose-1="2 1 6 0 4 5 1 1 1 3"
    ascent="750"
    descent="-250"
    x-height="500"
    cap-height="750"
    bbox="-147 -270 1455 1034"
    underline-thickness="25"
    underline-position="-100"
    unicode-range="U+0020-FF3F"
  />
<missing-glyph horiz-adv-x="649" 
d="M403 293h-156v242h156v-242zM325 47c-107 0 -201 -25 -275 -57v166c74 31 167 52 275 52s201 -21 275 -52v-166c-74 32 -168 57 -275 57zM515 760c54 0 95 -41 95 -95c0 -53 -41 -95 -95 -95c-53 0 -95 42 -95 95c0 54 42 95 95 95zM135 760c53 0 95 -41 95 -95
c0 -53 -42 -95 -95 -95c-54 0 -95 42 -95 95c0 54 41 95 95 95z" />
    <glyph glyph-name="f_b" unicode="fb" horiz-adv-x="923" 
d="M682 512c146 0 200 -99 200 -262c0 -164 -54 -262 -200 -262c-67 0 -118 20 -162 52l-18 -40h-66v664c-12 1 -25 1 -39 1c-98 0 -179 -25 -179 -105v-60h141v-95h-141v-405h-112v405h-91v69l91 26v61c0 145 128 201 284 201c51 0 114 -5 158 -15v-274c36 23 84 39 134 39
zM656 417c-53 0 -88 -18 -108 -29v-276c20 -11 55 -29 108 -29c98 0 113 74 113 167c0 92 -15 167 -113 167z" />
    <glyph glyph-name="f_f_b" unicode="ffb" horiz-adv-x="1253" 
d="M689 405h-141v-405h-112v405h-218v-405h-112v405h-91v69l91 26v99c0 107 60 163 194 163c33 0 63 -5 82 -12v-95c-18 6 -39 10 -74 10c-50 0 -90 -19 -90 -76v-89h218v61c0 145 128 201 284 201c51 0 114 -5 158 -15v-274c36 23 84 39 134 39c146 0 200 -99 200 -262
c0 -164 -54 -262 -200 -262c-67 0 -118 20 -162 52l-18 -40h-66v664c-12 1 -25 1 -39 1c-98 0 -179 -25 -179 -105v-60h141v-95zM986 417c-53 0 -88 -18 -108 -29v-276c20 -11 55 -29 108 -29c98 0 113 74 113 167c0 92 -15 167 -113 167z" />
    <glyph glyph-name="ff" unicode="ff" horiz-adv-x="712" 
d="M712 750v-95c-18 6 -39 10 -74 10c-50 0 -90 -19 -90 -76v-89h141v-95h-141v-405h-112v405h-218v-405h-112v405h-91v69l91 26v99c0 107 60 163 194 163c33 0 63 -5 82 -12v-95c-18 6 -39 10 -74 10c-50 0 -90 -19 -90 -76v-89h218v99c0 107 60 163 194 163
c33 0 63 -5 82 -12z" />
    <glyph glyph-name="f_h" unicode="fh" horiz-adv-x="905" 
d="M742 343c0 51 -26 74 -79 74c-52 0 -88 -14 -115 -29v-388h-112v664c-12 1 -25 1 -39 1c-98 0 -179 -25 -179 -105v-60h141v-95h-141v-405h-112v405h-91v69l91 26v61c0 145 128 201 284 201c51 0 114 -5 158 -15v-272c39 23 83 37 134 37c127 0 172 -63 172 -159v-353
h-112v343z" />
    <glyph glyph-name="f_f_h" unicode="ffh" horiz-adv-x="1235" 
d="M689 405h-141v-405h-112v405h-218v-405h-112v405h-91v69l91 26v99c0 107 60 163 194 163c33 0 63 -5 82 -12v-95c-18 6 -39 10 -74 10c-50 0 -90 -19 -90 -76v-89h218v61c0 145 128 201 284 201c51 0 114 -5 158 -15v-272c39 23 83 37 134 37c127 0 172 -63 172 -159
v-353h-112v343c0 51 -26 74 -79 74c-52 0 -88 -14 -115 -29v-388h-112v664c-12 1 -25 1 -39 1c-98 0 -179 -25 -179 -105v-60h141v-95z" />
    <glyph glyph-name="fi" unicode="fi" horiz-adv-x="628" 
d="M568 -7c-91 0 -132 44 -132 130v282h-218v-405h-112v405h-91v69l91 26v61c0 145 128 201 284 201c51 0 114 -5 158 -15v-98c-44 10 -86 16 -151 16c-98 0 -179 -25 -179 -105v-60h330v-376c0 -28 10 -38 42 -38v-91s-10 -2 -22 -2z" />
    <glyph glyph-name="ffi" unicode="ffi" horiz-adv-x="958" 
d="M898 -7c-91 0 -132 44 -132 130v282h-218v-405h-112v405h-218v-405h-112v405h-91v69l91 26v99c0 107 60 163 194 163c33 0 63 -5 82 -12v-95c-18 6 -39 10 -74 10c-50 0 -90 -19 -90 -76v-89h218v61c0 145 128 201 284 201c51 0 114 -5 158 -15v-98
c-44 10 -86 16 -151 16c-98 0 -179 -25 -179 -105v-60h330v-376c0 -28 10 -38 42 -38v-91s-10 -2 -22 -2z" />
    <glyph glyph-name="f_j" unicode="fj" horiz-adv-x="613" 
d="M320 -262v104c71 0 116 38 116 100v463h-218v-405h-112v405h-91v69l91 26v61c0 145 128 201 284 201c51 0 114 -5 158 -15v-98c-44 10 -86 16 -151 16c-98 0 -179 -25 -179 -105v-60h330v-580c0 -123 -117 -182 -228 -182z" />
    <glyph glyph-name="f_f_j" unicode="ffj" horiz-adv-x="943" 
d="M650 -262v104c71 0 116 38 116 100v463h-218v-405h-112v405h-218v-405h-112v405h-91v69l91 26v99c0 107 60 163 194 163c33 0 63 -5 82 -12v-95c-18 6 -39 10 -74 10c-50 0 -90 -19 -90 -76v-89h218v61c0 145 128 201 284 201c51 0 114 -5 158 -15v-98
c-44 10 -86 16 -151 16c-98 0 -179 -25 -179 -105v-60h330v-580c0 -123 -117 -182 -228 -182z" />
    <glyph glyph-name="f_k" unicode="fk" horiz-adv-x="903" 
d="M870 500l-203 -206l224 -294h-139l-156 222l-48 -49v-173h-112v664c-12 1 -25 1 -39 1c-98 0 -179 -25 -179 -105v-60h141v-95h-141v-405h-112v405h-91v69l91 26v61c0 145 128 201 284 201c51 0 114 -5 158 -15v-441l177 194h145z" />
    <glyph glyph-name="f_f_k" unicode="ffk" horiz-adv-x="1233" 
d="M689 405h-141v-405h-112v405h-218v-405h-112v405h-91v69l91 26v99c0 107 60 163 194 163c33 0 63 -5 82 -12v-95c-18 6 -39 10 -74 10c-50 0 -90 -19 -90 -76v-89h218v61c0 145 128 201 284 201c51 0 114 -5 158 -15v-441l177 194h145l-203 -206l224 -294h-139l-156 222
l-48 -49v-173h-112v664c-12 1 -25 1 -39 1c-98 0 -179 -25 -179 -105v-60h141v-95z" />
    <glyph glyph-name="fl" unicode="fl" horiz-adv-x="628" 
d="M568 -7c-91 0 -132 44 -132 130v541c-12 1 -25 1 -39 1c-98 0 -179 -25 -179 -105v-60h141v-95h-141v-405h-112v405h-91v69l91 26v61c0 145 128 201 284 201c51 0 114 -5 158 -15v-623c0 -28 10 -38 42 -38v-91s-10 -2 -22 -2z" />
    <glyph glyph-name="ffl" unicode="ffl" horiz-adv-x="958" 
d="M689 405h-141v-405h-112v405h-218v-405h-112v405h-91v69l91 26v99c0 107 60 163 194 163c33 0 63 -5 82 -12v-95c-18 6 -39 10 -74 10c-50 0 -90 -19 -90 -76v-89h218v61c0 145 128 201 284 201c51 0 114 -5 158 -15v-623c0 -28 10 -38 42 -38v-91s-10 -2 -22 -2
c-91 0 -132 44 -132 130v541c-12 1 -25 1 -39 1c-98 0 -179 -25 -179 -105v-60h141v-95z" />
    <glyph glyph-name="f_t" unicode="ft" horiz-adv-x="712" 
d="M674 87v-92c-17 -4 -45 -7 -62 -7c-111 0 -176 48 -176 156v261h-218v-405h-112v405h-91v69l91 26v99c0 107 60 163 194 163c33 0 63 -5 82 -12v-95c-18 6 -39 10 -74 10c-50 0 -90 -19 -90 -76v-89h218v119l112 32v-151h141v-95h-141v-248c0 -50 25 -74 82 -74
c17 0 32 2 44 4z" />
    <glyph glyph-name="f_f_t" unicode="fft" horiz-adv-x="1044" 
d="M1004 87v-92c-17 -4 -45 -7 -62 -7c-111 0 -176 48 -176 156v261h-218v-405h-112v405h-218v-405h-112v405h-91v69l91 26v99c0 107 60 163 194 163c33 0 63 -5 82 -12v-95c-18 6 -39 10 -74 10c-50 0 -90 -19 -90 -76v-89h218v99c0 107 60 163 194 163c33 0 63 -5 82 -12
v-95c-18 6 -39 10 -74 10c-50 0 -90 -19 -90 -76v-89h218v119l112 32v-151h141v-95h-141v-248c0 -50 25 -74 82 -74c17 0 32 2 44 4z" />
    <glyph glyph-name="f_dotlessi" unicode="f&#x131;" horiz-adv-x="628" 
d="M568 -7c-91 0 -132 44 -132 130v282h-218v-405h-112v405h-91v69l91 26v99c0 107 60 163 194 163c33 0 63 -5 82 -12v-95c-18 6 -39 10 -74 10c-50 0 -90 -19 -90 -76v-89h330v-376c0 -28 10 -38 42 -38v-91s-10 -2 -22 -2z" />
    <glyph glyph-name="f_f_dotlessi" unicode="ff&#x131;" horiz-adv-x="958" 
d="M898 -7c-91 0 -132 44 -132 130v282h-218v-405h-112v405h-218v-405h-112v405h-91v69l91 26v99c0 107 60 163 194 163c33 0 63 -5 82 -12v-95c-18 6 -39 10 -74 10c-50 0 -90 -19 -90 -76v-89h218v99c0 107 60 163 194 163c33 0 63 -5 82 -12v-95c-18 6 -39 10 -74 10
c-50 0 -90 -19 -90 -76v-89h330v-376c0 -28 10 -38 42 -38v-91s-10 -2 -22 -2z" />
    <glyph glyph-name="f_t_t" unicode="ftt" horiz-adv-x="1042" 
d="M674 87v-92c-17 -4 -45 -7 -62 -7c-111 0 -176 48 -176 156v261h-218v-405h-112v405h-91v69l91 26v99c0 107 60 163 194 163c33 0 63 -5 82 -12v-95c-18 6 -39 10 -74 10c-50 0 -90 -19 -90 -76v-89h218v119l112 32v-151h218v119l112 32v-151h141v-95h-141v-248
c0 -50 25 -74 82 -74c17 0 32 2 44 4v-92c-17 -4 -45 -7 -62 -7c-111 0 -176 48 -176 156v261h-218v-248c0 -50 25 -74 82 -74c17 0 32 2 44 4z" />
    <glyph glyph-name="t_t" unicode="tt" horiz-adv-x="710" 
d="M672 87v-92c-17 -4 -45 -7 -62 -7c-111 0 -176 48 -176 156v261h-218v-248c0 -50 25 -74 82 -74c17 0 32 2 44 4v-92c-17 -4 -45 -7 -62 -7c-111 0 -176 48 -176 156v261h-91v69l91 26v119l112 32v-151h218v119l112 32v-151h141v-95h-141v-248c0 -50 25 -74 82 -74
c17 0 32 2 44 4z" />
    <glyph glyph-name="interrobang" unicode="&#x21;&#x3f;" horiz-adv-x="475" 
d="M217 210h-76l-27 441c-37 -5 -70 -13 -91 -21v107c32 13 101 25 167 25c213 0 254 -97 254 -209c0 -132 -88 -169 -182 -203c-17 -6 -29 -11 -38 -16zM106 61c0 40 33 73 73 73s73 -33 73 -73s-33 -73 -73 -73s-73 33 -73 73zM331 550c0 53 -20 89 -87 101l-14 -224
c58 25 101 47 101 123z" />
    <glyph glyph-name="interrobangdown" unicode="&#xa1;&#xbf;" horiz-adv-x="475" 
d="M258 290h76l27 -441c36 5 70 13 91 21v-107c-32 -13 -101 -25 -167 -25c-213 0 -254 97 -254 209c0 132 88 169 182 203c16 6 28 11 37 16zM369 439c0 -40 -33 -73 -73 -73s-73 33 -73 73s33 73 73 73s73 -33 73 -73zM144 -50c0 -53 19 -89 87 -101l13 223
c-58 -24 -100 -47 -100 -122z" />
    <glyph glyph-name=".notdef" horiz-adv-x="649" 
d="M403 293h-156v242h156v-242zM325 47c-107 0 -201 -25 -275 -57v166c74 31 167 52 275 52s201 -21 275 -52v-166c-74 32 -168 57 -275 57zM515 760c54 0 95 -41 95 -95c0 -53 -41 -95 -95 -95c-53 0 -95 42 -95 95c0 54 42 95 95 95zM135 760c53 0 95 -41 95 -95
c0 -53 -42 -95 -95 -95c-54 0 -95 42 -95 95c0 54 41 95 95 95z" />
    <glyph glyph-name="space" unicode=" " horiz-adv-x="200" 
 />
    <glyph glyph-name="A" unicode="A" horiz-adv-x="640" 
d="M493 0l-53 183h-240l-53 -183h-122l238 759h114l238 -759h-122zM416 275l-96 332l-96 -332h192z" />
    <glyph glyph-name="B" unicode="B" horiz-adv-x="608" 
d="M61 0v750h252c183 0 238 -89 238 -205c0 -64 -33 -122 -90 -149c72 -21 113 -90 113 -176c0 -124 -61 -220 -255 -220h-258zM173 342v-239h150c105 0 131 58 131 120c0 77 -35 119 -130 119h-151zM431 540c0 50 -17 107 -115 107h-143v-210h147c90 0 111 55 111 103z" />
    <glyph glyph-name="C" unicode="C" horiz-adv-x="587" 
d="M51 375c0 246 87 387 309 387c89 0 140 -17 176 -32v-107c-57 23 -101 34 -169 34c-143 0 -201 -97 -201 -282s58 -282 201 -282c68 0 112 11 169 34v-107c-36 -15 -87 -32 -176 -32c-222 0 -309 141 -309 387z" />
    <glyph glyph-name="D" unicode="D" horiz-adv-x="650" 
d="M284 0h-223v750h223c249 0 318 -162 318 -375s-69 -375 -318 -375zM173 647v-544h114c150 0 198 109 198 272s-48 272 -198 272h-114z" />
    <glyph glyph-name="E" unicode="E" horiz-adv-x="565" 
d="M485 440v-103h-312v-234h344v-103h-456v750h456v-103h-344v-207h312z" />
    <glyph glyph-name="F" unicode="F" horiz-adv-x="544" 
d="M477 436v-103h-304v-333h-112v750h448v-103h-336v-211h304z" />
    <glyph glyph-name="G" unicode="G" horiz-adv-x="651" 
d="M356 -12c-223 0 -305 151 -305 387s82 387 308 387c103 0 172 -18 215 -39v-110c-70 29 -129 44 -201 44c-154 0 -207 -104 -207 -282c0 -184 55 -282 207 -282c46 0 85 6 107 14v205h-133v101h245v-379c-39 -21 -129 -46 -236 -46z" />
    <glyph glyph-name="H" unicode="H" horiz-adv-x="650" 
d="M589 0h-112v337h-304v-337h-112v750h112v-310h304v310h112v-750z" />
    <glyph glyph-name="I" unicode="I" horiz-adv-x="266" 
d="M189 0h-112v750h112v-750z" />
    <glyph glyph-name="J" unicode="J" horiz-adv-x="374" 
d="M22 0v107c20 -6 45 -12 78 -12c54 0 92 21 92 77v578h112v-595c0 -109 -60 -167 -198 -167c-22 0 -60 4 -84 12z" />
    <glyph glyph-name="K" unicode="K" horiz-adv-x="623" 
d="M463 0l-231 330l-60 -72l1 -258h-112v750h112l-1 -348l270 348h138l-276 -332l301 -418h-142z" />
    <glyph glyph-name="L" unicode="L" horiz-adv-x="524" 
d="M173 750v-647h326v-103h-438v750h112z" />
    <glyph glyph-name="M" unicode="M" horiz-adv-x="816" 
d="M648 564l-187 -461h-106l-187 461l5 -564h-112v750h144l203 -511l203 511h144v-750h-112z" />
    <glyph glyph-name="N" unicode="N" horiz-adv-x="658" 
d="M597 0h-102l-326 533l3 -533h-111v750h102l326 -533l-3 533h111v-750z" />
    <glyph glyph-name="O" unicode="O" horiz-adv-x="680" 
d="M340 -12c-241 0 -289 175 -289 387s48 387 289 387s289 -175 289 -387s-48 -387 -289 -387zM340 660c-142 0 -174 -107 -174 -285s32 -285 174 -285s174 107 174 285s-32 285 -174 285z" />
    <glyph glyph-name="P" unicode="P" horiz-adv-x="580" 
d="M173 281v-281h-112v750h241c193 0 260 -112 260 -235s-67 -234 -260 -234h-129zM173 647v-264h134c112 0 133 76 133 132s-21 132 -133 132h-134z" />
    <glyph glyph-name="Q" unicode="Q" horiz-adv-x="680" 
d="M471 21v-1l234 -48v-114l-467 142c-155 47 -187 193 -187 375c0 221 50 387 289 387c240 0 289 -166 289 -387c0 -170 -25 -306 -158 -354zM340 660c-142 0 -174 -107 -174 -285s32 -285 174 -285s174 107 174 285s-32 285 -174 285z" />
    <glyph glyph-name="R" unicode="R" horiz-adv-x="621" 
d="M173 305v-305h-112v750h244c194 0 256 -87 256 -223c0 -97 -30 -168 -122 -200l157 -327h-131l-136 305h-156zM173 647v-240h148c104 0 118 59 118 120c0 62 -14 120 -118 120h-148z" />
    <glyph glyph-name="S" unicode="S" horiz-adv-x="595" 
d="M305 436c156 -21 247 -56 247 -209c0 -142 -84 -239 -285 -239c-75 0 -171 17 -222 43v112c41 -18 113 -49 215 -49c135 0 175 55 175 126c0 83 -35 103 -136 116c-183 23 -254 72 -254 209c0 110 62 217 266 217c97 0 165 -17 203 -36v-109c-55 24 -123 39 -197 39
c-117 0 -157 -48 -157 -112c0 -81 46 -95 145 -108z" />
    <glyph glyph-name="T" unicode="T" horiz-adv-x="556" 
d="M529 647h-195v-647h-112v647h-195v103h502v-103z" />
    <glyph glyph-name="U" unicode="U" horiz-adv-x="656" 
d="M328 -12c-102 0 -272 38 -272 248v514h112v-504c0 -141 98 -156 160 -156s160 15 160 156v504h112v-514c0 -210 -170 -248 -272 -248z" />
    <glyph glyph-name="V" unicode="V" horiz-adv-x="640" 
d="M493 750h122l-238 -759h-114l-238 759h122l173 -610z" />
    <glyph glyph-name="W" unicode="W" horiz-adv-x="884" 
d="M245 159l127 591h140l127 -591l98 591h119l-141 -759h-137l-136 625l-136 -625h-137l-141 759h119z" />
    <glyph glyph-name="X" unicode="X" horiz-adv-x="653" 
d="M318 451l162 299h133l-218 -366l227 -384h-136l-168 302l-168 -302h-136l227 384l-218 366h133z" />
    <glyph glyph-name="Y" unicode="Y" horiz-adv-x="670" 
d="M647 750l-255 -449v-301h-114v301l-255 449h127l185 -350l185 350h127z" />
    <glyph glyph-name="Z" unicode="Z" horiz-adv-x="610" 
d="M580 0h-550v75l384 569l-359 -2v108h510v-75l-384 -569l399 2v-108z" />
    <glyph glyph-name="Aacute" unicode="&#xc1;" horiz-adv-x="640" 
d="M493 0l-53 183h-240l-53 -183h-122l238 759h114l238 -759h-122zM416 275l-96 332l-96 -332h192zM367 795h-94l58 110h135z" />
    <glyph glyph-name="Agrave" unicode="&#xc0;" horiz-adv-x="640" 
d="M493 0l-53 183h-240l-53 -183h-122l238 759h114l238 -759h-122zM416 275l-96 332l-96 -332h192zM367 795h-94l-99 110h135z" />
    <glyph glyph-name="Acircumflex" unicode="&#xc2;" horiz-adv-x="640" 
d="M493 0l-53 183h-240l-53 -183h-122l238 759h114l238 -759h-122zM416 275l-96 332l-96 -332h192zM504 795h-98l-86 50l-86 -50h-98l127 110h114z" />
    <glyph glyph-name="Adieresis" unicode="&#xc4;" horiz-adv-x="640" 
d="M493 0l-53 183h-240l-53 -183h-122l238 759h114l238 -759h-122zM416 275l-96 332l-96 -332h192zM141 850c0 40 33 73 73 73s73 -33 73 -73s-33 -73 -73 -73s-73 33 -73 73zM353 850c0 40 33 73 73 73s73 -33 73 -73s-33 -73 -73 -73s-73 33 -73 73z" />
    <glyph glyph-name="Atilde" unicode="&#xc3;" horiz-adv-x="640" 
d="M493 0l-53 183h-240l-53 -183h-122l238 759h114l238 -759h-122zM447 905h71c0 -83 -39 -128 -119 -128c-73 0 -111 63 -161 63c-38 0 -45 -25 -45 -45h-71c0 83 39 128 119 128c73 0 111 -63 161 -63c38 0 45 25 45 45zM416 275l-96 332l-96 -332h192z" />
    <glyph glyph-name="Aring" unicode="&#xc5;" horiz-adv-x="640" 
d="M493 0l-53 183h-240l-53 -183h-122l238 759h114l238 -759h-122zM416 275l-96 332l-96 -332h192zM220 850c0 63 44 82 100 82s100 -19 100 -82s-44 -82 -100 -82s-100 19 -100 82zM354 850c0 11 -11 17 -34 17s-34 -6 -34 -17s11 -17 34 -17s34 6 34 17z" />
    <glyph glyph-name="Acaron" unicode="&#x1cd;" horiz-adv-x="640" 
d="M493 0l-53 183h-240l-53 -183h-122l238 759h114l238 -759h-122zM416 275l-96 332l-96 -332h192zM136 905h98l86 -50l86 50h98l-127 -110h-114z" />
    <glyph glyph-name="Amacron" unicode="&#x100;" horiz-adv-x="640" 
d="M493 0l-53 183h-240l-53 -183h-122l238 759h114l238 -759h-122zM416 275l-96 332l-96 -332h192zM174 805v89h292v-89h-292z" />
    <glyph glyph-name="Abreve" unicode="&#x102;" horiz-adv-x="640" 
d="M493 0l-53 183h-240l-53 -183h-122l238 759h114l238 -759h-122zM416 275l-96 332l-96 -332h192zM320 777c-123 0 -165 36 -162 128h85c-1 -42 23 -55 77 -55s78 13 77 55h85c3 -92 -39 -128 -162 -128z" />
    <glyph glyph-name="Ainvertedbreve" unicode="&#x202;" horiz-adv-x="640" 
d="M493 0l-53 183h-240l-53 -183h-122l238 759h114l238 -759h-122zM416 275l-96 332l-96 -332h192zM320 923c123 0 165 -36 162 -128h-85c1 42 -23 55 -77 55s-78 -13 -77 -55h-85c-3 92 39 128 162 128z" />
    <glyph glyph-name="Adoublegrave" unicode="&#xe000;" horiz-adv-x="640" 
d="M493 0l-53 183h-240l-53 -183h-122l238 759h114l238 -759h-122zM416 275l-96 332l-96 -332h192zM282 795h-94l-99 110h135zM452 795h-94l-99 110h135z" />
    <glyph glyph-name="Adotabove" unicode="&#xe001;" horiz-adv-x="640" 
d="M493 0l-53 183h-240l-53 -183h-122l238 759h114l238 -759h-122zM416 275l-96 332l-96 -332h192zM247 850c0 40 33 73 73 73s73 -33 73 -73s-33 -73 -73 -73s-73 33 -73 73z" />
    <glyph glyph-name="Aringacute" unicode="&#x1fa;" horiz-adv-x="640" 
d="M440 183h-240l-53 -183h-122l238 759h114l238 -759h-122zM220 850c0 16 3 29 8 40l48 100h100l-39 -59c52 -2 83 -29 83 -81c0 -63 -44 -82 -100 -82s-100 19 -100 82zM416 275l-96 332l-96 -332h192zM354 850c0 11 -11 17 -34 17s-34 -6 -34 -17s11 -17 34 -17
s34 6 34 17z" />
    <glyph glyph-name="Adieresismacron" unicode="&#x1de;" horiz-adv-x="640" 
d="M493 0l-53 183h-240l-53 -183h-122l238 759h114l238 -759h-122zM416 275l-96 332l-96 -332h192zM174 945v89h292v-89h-292zM141 850c0 40 33 73 73 73s73 -33 73 -73s-33 -73 -73 -73s-73 33 -73 73zM353 850c0 40 33 73 73 73s73 -33 73 -73s-33 -73 -73 -73
s-73 33 -73 73z" />
    <glyph glyph-name="Aogonek" unicode="&#x104;" horiz-adv-x="640" 
d="M440 183h-240l-53 -183h-122l238 759h114l238 -759c-55 -25 -106 -64 -106 -125c0 -30 20 -51 56 -51c28 0 51 5 63 9v-68c-16 -6 -42 -15 -85 -15c-67 0 -123 37 -123 109c0 41 18 90 75 133zM416 275l-96 332l-96 -332h192z" />
    <glyph glyph-name="Anocross" unicode="&#xe002;" horiz-adv-x="640" 
d="M493 0l-173 607l-173 -607h-122l238 759h114l238 -759h-122z" />
    <glyph glyph-name="AE" unicode="&#xc6;" horiz-adv-x="944" 
d="M884 440v-103h-304l36 -234h300v-103h-407l-26 183h-256l-83 -183h-129c121 250 243 500 365 750h536v-103h-384l32 -207h320zM422 614l-154 -339h202z" />
    <glyph glyph-name="AEacute" unicode="&#x1fc;" horiz-adv-x="944" 
d="M884 440v-103h-304l36 -234h300v-103h-407l-26 183h-256l-83 -183h-129c121 250 243 500 365 750h536v-103h-384l32 -207h320zM422 614l-154 -339h202zM505 795h-94l58 110h135z" />
    <glyph glyph-name="AEmacron" unicode="&#x1e2;" horiz-adv-x="944" 
d="M884 440v-103h-304l36 -234h300v-103h-407l-26 183h-256l-83 -183h-129c121 250 243 500 365 750h536v-103h-384l32 -207h320zM422 614l-154 -339h202zM312 805v89h292v-89h-292z" />
    <glyph glyph-name="Cacute" unicode="&#x106;" horiz-adv-x="587" 
d="M51 375c0 246 87 387 309 387c89 0 140 -17 176 -32v-107c-57 23 -101 34 -169 34c-143 0 -201 -97 -201 -282s58 -282 201 -282c68 0 112 11 169 34v-107c-36 -15 -87 -32 -176 -32c-222 0 -309 141 -309 387zM390 795h-94l58 110h135z" />
    <glyph glyph-name="Ccircumflex" unicode="&#x108;" horiz-adv-x="587" 
d="M51 375c0 246 87 387 309 387c89 0 140 -17 176 -32v-107c-57 23 -101 34 -169 34c-143 0 -201 -97 -201 -282s58 -282 201 -282c68 0 112 11 169 34v-107c-36 -15 -87 -32 -176 -32c-222 0 -309 141 -309 387zM527 795h-98l-86 50l-86 -50h-98l127 110h114z" />
    <glyph glyph-name="Ccaron" unicode="&#x10c;" horiz-adv-x="587" 
d="M51 375c0 246 87 387 309 387c89 0 140 -17 176 -32v-107c-57 23 -101 34 -169 34c-143 0 -201 -97 -201 -282s58 -282 201 -282c68 0 112 11 169 34v-107c-36 -15 -87 -32 -176 -32c-222 0 -309 141 -309 387zM159 905h98l86 -50l86 50h98l-127 -110h-114z" />
    <glyph glyph-name="Cdotaccent" unicode="&#x10a;" horiz-adv-x="587" 
d="M51 375c0 246 87 387 309 387c89 0 140 -17 176 -32v-107c-57 23 -101 34 -169 34c-143 0 -201 -97 -201 -282s58 -282 201 -282c68 0 112 11 169 34v-107c-36 -15 -87 -32 -176 -32c-222 0 -309 141 -309 387zM270 850c0 40 33 73 73 73s73 -33 73 -73s-33 -73 -73 -73
s-73 33 -73 73z" />
    <glyph glyph-name="Ccedilla" unicode="&#xc7;" horiz-adv-x="587" 
d="M295 -94l9 86c-181 22 -253 159 -253 383c0 246 87 387 309 387c89 0 140 -17 176 -32v-107c-57 23 -101 34 -169 34c-143 0 -201 -97 -201 -282s58 -282 201 -282c68 0 112 11 169 34v-107c-36 -15 -87 -32 -176 -32l3 -48c51 -12 93 -38 93 -93c0 -64 -49 -97 -119 -97
c-49 0 -83 12 -97 19v76c10 -4 44 -18 82 -18c34 0 54 8 54 30c0 31 -26 42 -81 49z" />
    <glyph glyph-name="Dcaron" unicode="&#x10e;" horiz-adv-x="650" 
d="M284 0h-223v750h223c249 0 318 -162 318 -375s-69 -375 -318 -375zM173 647v-544h114c150 0 198 109 198 272s-48 272 -198 272h-114zM113 905h98l86 -50l86 50h98l-127 -110h-114z" />
    <glyph glyph-name="Dcedilla" unicode="&#x1e10;" horiz-adv-x="650" 
d="M284 0h-223v750h223c249 0 318 -162 318 -375s-69 -375 -318 -375zM173 647v-544h114c150 0 198 109 198 272s-48 272 -198 272h-114zM247 -94l5 50c116 -10 156 -55 156 -109c0 -64 -49 -97 -119 -97c-49 0 -83 12 -97 19v76c10 -4 44 -18 82 -18c34 0 54 8 54 30
c0 31 -26 42 -81 49z" />
    <glyph glyph-name="Ddotbelow" unicode="&#x1e0c;" horiz-adv-x="650" 
d="M284 0h-223v750h223c249 0 318 -162 318 -375s-69 -375 -318 -375zM173 647v-544h114c150 0 198 109 198 272s-48 272 -198 272h-114zM372 -148c0 -40 -33 -73 -73 -73s-73 33 -73 73s33 73 73 73s73 -33 73 -73z" />
    <glyph glyph-name="Dcroat" unicode="&#x110;" horiz-adv-x="695" 
d="M329 0h-223v335h-87v95h87v320h223c249 0 318 -162 318 -375s-69 -375 -318 -375zM218 647v-217h158v-95h-158v-232h114c150 0 198 109 198 272s-48 272 -198 272h-114z" />
    <glyph glyph-name="Eacute" unicode="&#xc9;" horiz-adv-x="565" 
d="M485 440v-103h-312v-234h344v-103h-456v750h456v-103h-344v-207h312zM344 795h-94l58 110h135z" />
    <glyph glyph-name="Egrave" unicode="&#xc8;" horiz-adv-x="565" 
d="M485 440v-103h-312v-234h344v-103h-456v750h456v-103h-344v-207h312zM344 795h-94l-99 110h135z" />
    <glyph glyph-name="Ecircumflex" unicode="&#xca;" horiz-adv-x="565" 
d="M485 440v-103h-312v-234h344v-103h-456v750h456v-103h-344v-207h312zM481 795h-98l-86 50l-86 -50h-98l127 110h114z" />
    <glyph glyph-name="Edieresis" unicode="&#xcb;" horiz-adv-x="565" 
d="M485 440v-103h-312v-234h344v-103h-456v750h456v-103h-344v-207h312zM118 850c0 40 33 73 73 73s73 -33 73 -73s-33 -73 -73 -73s-73 33 -73 73zM330 850c0 40 33 73 73 73s73 -33 73 -73s-33 -73 -73 -73s-73 33 -73 73z" />
    <glyph glyph-name="Ecaron" unicode="&#x11a;" horiz-adv-x="565" 
d="M485 440v-103h-312v-234h344v-103h-456v750h456v-103h-344v-207h312zM113 905h98l86 -50l86 50h98l-127 -110h-114z" />
    <glyph glyph-name="Emacron" unicode="&#x112;" horiz-adv-x="565" 
d="M485 440v-103h-312v-234h344v-103h-456v750h456v-103h-344v-207h312zM151 805v89h292v-89h-292z" />
    <glyph glyph-name="Ebreve" unicode="&#x114;" horiz-adv-x="565" 
d="M485 440v-103h-312v-234h344v-103h-456v750h456v-103h-344v-207h312zM297 777c-123 0 -165 36 -162 128h85c-1 -42 23 -55 77 -55s78 13 77 55h85c3 -92 -39 -128 -162 -128z" />
    <glyph glyph-name="Einvertedbreve" unicode="&#x206;" horiz-adv-x="565" 
d="M485 440v-103h-312v-234h344v-103h-456v750h456v-103h-344v-207h312zM297 923c123 0 165 -36 162 -128h-85c1 42 -23 55 -77 55s-78 -13 -77 -55h-85c-3 92 39 128 162 128z" />
    <glyph glyph-name="Edoublegrave" unicode="&#xe003;" horiz-adv-x="565" 
d="M485 440v-103h-312v-234h344v-103h-456v750h456v-103h-344v-207h312zM429 795h-94l-99 110h135zM259 795h-94l-99 110h135z" />
    <glyph glyph-name="Edotaccent" unicode="&#x116;" horiz-adv-x="565" 
d="M485 440v-103h-312v-234h344v-103h-456v750h456v-103h-344v-207h312zM224 850c0 40 33 73 73 73s73 -33 73 -73s-33 -73 -73 -73s-73 33 -73 73z" />
    <glyph glyph-name="Eacutedotbelow" unicode="&#xe004;" horiz-adv-x="565" 
d="M485 440v-103h-312v-234h344v-103h-456v750h456v-103h-344v-207h312zM370 -148c0 -40 -33 -73 -73 -73s-73 33 -73 73s33 73 73 73s73 -33 73 -73zM344 795h-94l58 110h135z" />
    <glyph glyph-name="Egravedotbelow" unicode="&#xe005;" horiz-adv-x="565" 
d="M485 440v-103h-312v-234h344v-103h-456v750h456v-103h-344v-207h312zM370 -148c0 -40 -33 -73 -73 -73s-73 33 -73 73s33 73 73 73s73 -33 73 -73zM344 795h-94l-99 110h135z" />
    <glyph glyph-name="Eogonek" unicode="&#x118;" horiz-adv-x="565" 
d="M485 440v-103h-312v-234h344v-103c-55 -25 -106 -64 -106 -125c0 -30 20 -51 56 -51c28 0 51 5 63 9v-68c-16 -6 -42 -15 -85 -15c-67 0 -123 37 -123 109c0 44 20 96 85 141h-346v750h456v-103h-344v-207h312z" />
    <glyph glyph-name="Gacute" unicode="&#x1f4;" horiz-adv-x="650" 
d="M356 -12c-223 0 -305 151 -305 387s82 387 308 387c103 0 172 -18 215 -39v-110c-70 29 -129 44 -201 44c-154 0 -207 -104 -207 -282c0 -184 55 -282 207 -282c46 0 85 6 107 14v205h-133v101h245v-379c-39 -21 -129 -46 -236 -46zM399 795h-94l58 110h135z" />
    <glyph glyph-name="Gcircumflex" unicode="&#x11c;" horiz-adv-x="650" 
d="M356 -12c-223 0 -305 151 -305 387s82 387 308 387c103 0 172 -18 215 -39v-110c-70 29 -129 44 -201 44c-154 0 -207 -104 -207 -282c0 -184 55 -282 207 -282c46 0 85 6 107 14v205h-133v101h245v-379c-39 -21 -129 -46 -236 -46zM536 795h-98l-86 50l-86 -50h-98
l127 110h114z" />
    <glyph glyph-name="Gtilde" unicode="&#xe006;" horiz-adv-x="650" 
d="M356 -12c-223 0 -305 151 -305 387s82 387 308 387c103 0 172 -18 215 -39v-110c-70 29 -129 44 -201 44c-154 0 -207 -104 -207 -282c0 -184 55 -282 207 -282c46 0 85 6 107 14v205h-133v101h245v-379c-39 -21 -129 -46 -236 -46zM479 905h71c0 -83 -39 -128 -119 -128
c-73 0 -111 63 -161 63c-38 0 -45 -25 -45 -45h-71c0 83 39 128 119 128c73 0 111 -63 161 -63c38 0 45 25 45 45z" />
    <glyph glyph-name="Gcaron" unicode="&#x1e6;" horiz-adv-x="650" 
d="M356 -12c-223 0 -305 151 -305 387s82 387 308 387c103 0 172 -18 215 -39v-110c-70 29 -129 44 -201 44c-154 0 -207 -104 -207 -282c0 -184 55 -282 207 -282c46 0 85 6 107 14v205h-133v101h245v-379c-39 -21 -129 -46 -236 -46zM168 905h98l86 -50l86 50h98
l-127 -110h-114z" />
    <glyph glyph-name="Gbreve" unicode="&#x11e;" horiz-adv-x="650" 
d="M356 -12c-223 0 -305 151 -305 387s82 387 308 387c103 0 172 -18 215 -39v-110c-70 29 -129 44 -201 44c-154 0 -207 -104 -207 -282c0 -184 55 -282 207 -282c46 0 85 6 107 14v205h-133v101h245v-379c-39 -21 -129 -46 -236 -46zM352 777c-123 0 -165 36 -162 128h85
c-1 -42 23 -55 77 -55s78 13 77 55h85c3 -92 -39 -128 -162 -128z" />
    <glyph glyph-name="Gdotaccent" unicode="&#x120;" horiz-adv-x="650" 
d="M356 -12c-223 0 -305 151 -305 387s82 387 308 387c103 0 172 -18 215 -39v-110c-70 29 -129 44 -201 44c-154 0 -207 -104 -207 -282c0 -184 55 -282 207 -282c46 0 85 6 107 14v205h-133v101h245v-379c-39 -21 -129 -46 -236 -46zM279 850c0 40 33 73 73 73
s73 -33 73 -73s-33 -73 -73 -73s-73 33 -73 73z" />
    <glyph glyph-name="Gcommaturnedabove" unicode="&#xe007;" horiz-adv-x="650" 
d="M365 905h84l-34 -110h-134zM356 -12c-223 0 -305 151 -305 387s82 387 308 387c103 0 172 -18 215 -39v-110c-70 29 -129 44 -201 44c-154 0 -207 -104 -207 -282c0 -184 55 -282 207 -282c46 0 85 6 107 14v205h-133v101h245v-379c-39 -21 -129 -46 -236 -46z" />
    <glyph glyph-name="Gcommaaccent" unicode="&#x122;" horiz-adv-x="650" 
d="M295 -50h133l-64 -200h-89zM356 -12c-223 0 -305 151 -305 387s82 387 308 387c103 0 172 -18 215 -39v-110c-70 29 -129 44 -201 44c-154 0 -207 -104 -207 -282c0 -184 55 -282 207 -282c46 0 85 6 107 14v205h-133v101h245v-379c-39 -21 -129 -46 -236 -46z" />
    <glyph glyph-name="Gstroke" unicode="&#x1e4;" horiz-adv-x="689" 
d="M356 -12c-223 0 -305 151 -305 387s82 387 308 387c103 0 172 -18 215 -39v-110c-70 29 -129 44 -201 44c-154 0 -207 -104 -207 -282c0 -184 55 -282 207 -282c46 0 85 6 107 14v61h-117v89h117v55h-133v101h245v-156h77v-89h-77v-134c-39 -21 -129 -46 -236 -46z" />
    <glyph glyph-name="Hcircumflex" unicode="&#x124;" horiz-adv-x="650" 
d="M589 0h-112v337h-304v-337h-112v750h112v-310h304v310h112v-750zM509 795h-98l-86 50l-86 -50h-98l127 110h114z" />
    <glyph glyph-name="Hcaron" unicode="&#xe008;" horiz-adv-x="650" 
d="M589 0h-112v337h-304v-337h-112v750h112v-310h304v310h112v-750zM141 905h98l86 -50l86 50h98l-127 -110h-114z" />
    <glyph glyph-name="Hdotbelow" unicode="&#x1e24;" horiz-adv-x="650" 
d="M589 0h-112v337h-304v-337h-112v750h112v-310h304v310h112v-750zM398 -148c0 -40 -33 -73 -73 -73s-73 33 -73 73s33 73 73 73s73 -33 73 -73z" />
    <glyph glyph-name="Hmacronbelow" unicode="&#xe009;" horiz-adv-x="650" 
d="M471 -106v-88h-292v88h292zM589 0h-112v337h-304v-337h-112v750h112v-310h304v310h112v-750z" />
    <glyph glyph-name="Hbar" unicode="&#x126;" horiz-adv-x="650" 
d="M589 0h-112v337h-304v-337h-112v750h112v-116h304v116h112v-750zM173 440h304v104h-304v-104z" />
    <glyph glyph-name="Iacute" unicode="&#xcd;" horiz-adv-x="266" 
d="M189 0h-112v750h112v-750zM180 795h-94l58 110h135z" />
    <glyph glyph-name="Igrave" unicode="&#xcc;" horiz-adv-x="266" 
d="M189 0h-112v750h112v-750zM180 795h-94l-99 110h135z" />
    <glyph glyph-name="Icircumflex" unicode="&#xce;" horiz-adv-x="266" 
d="M189 0h-112v750h112v-750zM317 795h-98l-86 50l-86 -50h-98l127 110h114z" />
    <glyph glyph-name="Idieresis" unicode="&#xcf;" horiz-adv-x="266" 
d="M189 0h-112v750h112v-750zM-36 850c0 40 33 73 73 73s73 -33 73 -73s-33 -73 -73 -73s-73 33 -73 73zM156 850c0 40 33 73 73 73s73 -33 73 -73s-33 -73 -73 -73s-73 33 -73 73z" />
    <glyph glyph-name="Itilde" unicode="&#x128;" horiz-adv-x="266" 
d="M189 0h-112v750h112v-750zM260 905h71c0 -83 -39 -128 -119 -128c-73 0 -111 63 -161 63c-38 0 -45 -25 -45 -45h-71c0 83 39 128 119 128c73 0 111 -63 161 -63c38 0 45 25 45 45z" />
    <glyph glyph-name="Icaron" unicode="&#x1cf;" horiz-adv-x="266" 
d="M189 0h-112v750h112v-750zM-51 905h98l86 -50l86 50h98l-127 -110h-114z" />
    <glyph glyph-name="Imacron" unicode="&#x12a;" horiz-adv-x="266" 
d="M189 0h-112v750h112v-750zM-13 805v89h292v-89h-292z" />
    <glyph glyph-name="Ibreve" unicode="&#x12c;" horiz-adv-x="266" 
d="M189 0h-112v750h112v-750zM133 777c-123 0 -165 36 -162 128h85c-1 -42 23 -55 77 -55s78 13 77 55h85c3 -92 -39 -128 -162 -128z" />
    <glyph glyph-name="Iinvertedbreve" unicode="&#x20a;" horiz-adv-x="266" 
d="M189 0h-112v750h112v-750zM133 923c123 0 165 -36 162 -128h-85c1 42 -23 55 -77 55s-78 -13 -77 -55h-85c-3 92 39 128 162 128z" />
    <glyph glyph-name="Idoublegrave" unicode="&#xe00b;" horiz-adv-x="266" 
d="M189 0h-112v750h112v-750zM255 795h-94l-99 110h135zM105 795h-94l-99 110h135z" />
    <glyph glyph-name="Idotaccent" unicode="&#x130;" horiz-adv-x="266" 
d="M189 0h-112v750h112v-750zM60 850c0 40 33 73 73 73s73 -33 73 -73s-33 -73 -73 -73s-73 33 -73 73z" />
    <glyph glyph-name="Idotbelow" unicode="&#x1eca;" horiz-adv-x="266" 
d="M189 0h-112v750h112v-750zM206 -148c0 -40 -33 -73 -73 -73s-73 33 -73 73s33 73 73 73s73 -33 73 -73z" />
    <glyph glyph-name="Iogonek" unicode="&#x12e;" horiz-adv-x="266" 
d="M189 0c-50 -25 -91 -64 -91 -125c0 -30 20 -51 56 -51c28 0 51 5 63 9v-68c-16 -6 -42 -15 -85 -15c-67 0 -123 37 -123 109c0 42 15 91 68 136v755h112v-750z" />
    <glyph glyph-name="Jcircumflex" unicode="&#x134;" horiz-adv-x="374" 
d="M22 0v107c20 -6 45 -12 78 -12c54 0 92 21 92 77v578h112v-595c0 -109 -60 -167 -198 -167c-22 0 -60 4 -84 12zM432 795h-98l-86 50l-86 -50h-98l127 110h114z" />
    <glyph glyph-name="Jcaron" unicode="&#xe00c;" horiz-adv-x="374" 
d="M22 0v107c20 -6 45 -12 78 -12c54 0 92 21 92 77v578h112v-595c0 -109 -60 -167 -198 -167c-22 0 -60 4 -84 12zM64 905h98l86 -50l86 50h98l-127 -110h-114z" />
    <glyph glyph-name="Kcaron" unicode="&#x1e8;" horiz-adv-x="623" 
d="M463 0l-231 330l-60 -72l1 -258h-112v750h112l-1 -348l270 348h138l-276 -332l301 -418h-142zM120 905h98l86 -50l86 50h98l-127 -110h-114z" />
    <glyph glyph-name="Kcommaaccent" unicode="&#x136;" horiz-adv-x="623" 
d="M242 -50h133l-65 -200h-89zM463 0l-231 330l-60 -72l1 -258h-112v750h112l-1 -348l270 348h138l-276 -332l301 -418h-142z" />
    <glyph glyph-name="Kcedilla" unicode="&#xe00d;" horiz-adv-x="623" 
d="M463 0l-231 330l-60 -72l1 -258h-112v750h112l-1 -348l270 348h138l-276 -332l301 -418h-142zM257 -94l5 50c116 -10 156 -55 156 -109c0 -64 -49 -97 -119 -97c-49 0 -83 12 -97 19v76c10 -4 44 -18 82 -18c34 0 54 8 54 30c0 31 -26 42 -81 49z" />
    <glyph glyph-name="Khook" unicode="&#x198;" horiz-adv-x="623" 
d="M61 0v750h111v-335c25 14 52 37 74 76c66 115 116 265 316 265v-110c-125 0 -157 -98 -215 -207c-8 -15 -19 -29 -29 -41l287 -398h-142l-225 321c-23 -16 -44 -28 -66 -37v-284h-111z" />
    <glyph glyph-name="Lacute" unicode="&#x139;" horiz-adv-x="524" 
d="M173 750v-647h326v-103h-438v750h112zM164 795h-94l58 110h135z" />
    <glyph glyph-name="Lcaron" unicode="&#x13d;" horiz-adv-x="524" 
d="M173 750v-647h326v-103h-438v750h112zM259 750h88l-48 -200h-56z" />
    <glyph glyph-name="Lcommaaccent" unicode="&#x13b;" horiz-adv-x="524" 
d="M173 750v-647h326v-103h-438v750h112zM218 -50h133l-65 -200h-89z" />
    <glyph glyph-name="Lcedilla" unicode="&#xe00e;" horiz-adv-x="524" 
d="M173 750v-647h326v-103h-438v750h112zM228 -94l5 50c116 -10 156 -55 156 -109c0 -64 -49 -97 -119 -97c-49 0 -83 12 -97 19v76c10 -4 44 -18 82 -18c34 0 54 8 54 30c0 31 -26 42 -81 49z" />
    <glyph glyph-name="Ldotbelow" unicode="&#x1e36;" horiz-adv-x="524" 
d="M173 750v-647h326v-103h-438v750h112zM353 -148c0 -40 -33 -73 -73 -73s-73 33 -73 73s33 73 73 73s73 -33 73 -73z" />
    <glyph glyph-name="Ldotbelowmacron" unicode="&#x1e38;" horiz-adv-x="524" 
d="M173 750v-647h326v-103h-438v750h112zM353 -148c0 -40 -33 -73 -73 -73s-73 33 -73 73s33 73 73 73s73 -33 73 -73zM-29 805v89h292v-89h-292z" />
    <glyph glyph-name="Ldot" unicode="&#x13f;" horiz-adv-x="524" 
d="M173 750v-647h326v-103h-438v750h112zM453 375c0 -40 -33 -73 -73 -73s-73 33 -73 73s33 73 73 73s73 -33 73 -73z" />
    <glyph glyph-name="Lslash" unicode="&#x141;" horiz-adv-x="560" 
d="M208 750v-344l192 106v-91l-192 -106v-212h326v-103h-438v253l-91 -50v91l91 50v406h112z" />
    <glyph glyph-name="Mmacron" unicode="&#xe00f;" horiz-adv-x="817" 
d="M648 564l-187 -461h-106l-187 461l5 -564h-112v750h144l203 -511l203 511h144v-750h-112zM263 805v89h292v-89h-292z" />
    <glyph glyph-name="Mcedilla" unicode="&#xe010;" horiz-adv-x="816" 
d="M648 564l-187 -461h-106l-187 461l5 -564h-112v750h144l203 -511l203 511h144v-750h-112zM356 -94l5 50c116 -10 156 -55 156 -109c0 -64 -49 -97 -119 -97c-49 0 -83 12 -97 19v76c10 -4 44 -18 82 -18c34 0 54 8 54 30c0 31 -26 42 -81 49z" />
    <glyph glyph-name="Mdotbelow" unicode="&#x1e42;" horiz-adv-x="816" 
d="M648 564l-187 -461h-106l-187 461l5 -564h-112v750h144l203 -511l203 511h144v-750h-112zM481 -148c0 -40 -33 -73 -73 -73s-73 33 -73 73s33 73 73 73s73 -33 73 -73z" />
    <glyph glyph-name="Nacute" unicode="&#x143;" horiz-adv-x="658" 
d="M597 0h-102l-326 533l3 -533h-111v750h102l326 -533l-3 533h111v-750zM376 795h-94l58 110h135z" />
    <glyph glyph-name="Ngrave" unicode="&#xe011;" horiz-adv-x="658" 
d="M597 0h-102l-326 533l3 -533h-111v750h102l326 -533l-3 533h111v-750zM376 795h-94l-99 110h135z" />
    <glyph glyph-name="Ndieresis" unicode="&#xe012;" horiz-adv-x="658" 
d="M597 0h-102l-326 533l3 -533h-111v750h102l326 -533l-3 533h111v-750zM150 850c0 40 33 73 73 73s73 -33 73 -73s-33 -73 -73 -73s-73 33 -73 73zM362 850c0 40 33 73 73 73s73 -33 73 -73s-33 -73 -73 -73s-73 33 -73 73z" />
    <glyph glyph-name="Ntilde" unicode="&#xd1;" horiz-adv-x="658" 
d="M597 0h-102l-326 533l3 -533h-111v750h102l326 -533l-3 533h111v-750zM456 905h71c0 -83 -39 -128 -119 -128c-73 0 -111 63 -161 63c-38 0 -45 -25 -45 -45h-71c0 83 39 128 119 128c73 0 111 -63 161 -63c38 0 45 25 45 45z" />
    <glyph glyph-name="Ncaron" unicode="&#x147;" horiz-adv-x="658" 
d="M597 0h-102l-326 533l3 -533h-111v750h102l326 -533l-3 533h111v-750zM145 905h98l86 -50l86 50h98l-127 -110h-114z" />
    <glyph glyph-name="Nmacron" unicode="&#xe013;" horiz-adv-x="658" 
d="M597 0h-102l-326 533l3 -533h-111v750h102l326 -533l-3 533h111v-750zM183 805v89h292v-89h-292z" />
    <glyph glyph-name="Ndotaccent" unicode="&#x1e44;" horiz-adv-x="658" 
d="M597 0h-102l-326 533l3 -533h-111v750h102l326 -533l-3 533h111v-750zM256 850c0 40 33 73 73 73s73 -33 73 -73s-33 -73 -73 -73s-73 33 -73 73z" />
    <glyph glyph-name="Ncommaaccent" unicode="&#x145;" horiz-adv-x="658" 
d="M597 0h-102l-326 533l3 -533h-111v750h102l326 -533l-3 533h111v-750zM267 -50h133l-65 -200h-89z" />
    <glyph glyph-name="Ncedilla" unicode="&#xe014;" horiz-adv-x="658" 
d="M597 0h-102l-326 533l3 -533h-111v750h102l326 -533l-3 533h111v-750zM277 -94l5 50c116 -10 156 -55 156 -109c0 -64 -49 -97 -119 -97c-49 0 -83 12 -97 19v76c10 -4 44 -18 82 -18c34 0 54 8 54 30c0 31 -26 42 -81 49z" />
    <glyph glyph-name="Ndotbelow" unicode="&#x1e46;" horiz-adv-x="658" 
d="M597 0h-102l-326 533l3 -533h-111v750h102l326 -533l-3 533h111v-750zM402 -148c0 -40 -33 -73 -73 -73s-73 33 -73 73s33 73 73 73s73 -33 73 -73z" />
    <glyph glyph-name="Ndescender" unicode="&#xe015;" horiz-adv-x="682" 
d="M597 80h83v-205h-83v125h-102l-326 533l3 -533h-111v750h102l326 -533l-3 533h111v-670z" />
    <glyph glyph-name="Oacute" unicode="&#xd3;" horiz-adv-x="680" 
d="M340 -12c-241 0 -289 175 -289 387s48 387 289 387s289 -175 289 -387s-48 -387 -289 -387zM340 660c-142 0 -174 -107 -174 -285s32 -285 174 -285s174 107 174 285s-32 285 -174 285zM387 795h-94l58 110h135z" />
    <glyph glyph-name="Ograve" unicode="&#xd2;" horiz-adv-x="680" 
d="M340 -12c-241 0 -289 175 -289 387s48 387 289 387s289 -175 289 -387s-48 -387 -289 -387zM340 660c-142 0 -174 -107 -174 -285s32 -285 174 -285s174 107 174 285s-32 285 -174 285zM387 795h-94l-99 110h135z" />
    <glyph glyph-name="Ocircumflex" unicode="&#xd4;" horiz-adv-x="680" 
d="M340 -12c-241 0 -289 175 -289 387s48 387 289 387s289 -175 289 -387s-48 -387 -289 -387zM340 660c-142 0 -174 -107 -174 -285s32 -285 174 -285s174 107 174 285s-32 285 -174 285zM524 795h-98l-86 50l-86 -50h-98l127 110h114z" />
    <glyph glyph-name="Odieresis" unicode="&#xd6;" horiz-adv-x="680" 
d="M340 -12c-241 0 -289 175 -289 387s48 387 289 387s289 -175 289 -387s-48 -387 -289 -387zM340 660c-142 0 -174 -107 -174 -285s32 -285 174 -285s174 107 174 285s-32 285 -174 285zM161 850c0 40 33 73 73 73s73 -33 73 -73s-33 -73 -73 -73s-73 33 -73 73zM373 850
c0 40 33 73 73 73s73 -33 73 -73s-33 -73 -73 -73s-73 33 -73 73z" />
    <glyph glyph-name="Otilde" unicode="&#xd5;" horiz-adv-x="680" 
d="M340 -12c-241 0 -289 175 -289 387s48 387 289 387s289 -175 289 -387s-48 -387 -289 -387zM340 660c-142 0 -174 -107 -174 -285s32 -285 174 -285s174 107 174 285s-32 285 -174 285zM467 905h71c0 -83 -39 -128 -119 -128c-73 0 -111 63 -161 63
c-38 0 -45 -25 -45 -45h-71c0 83 39 128 119 128c73 0 111 -63 161 -63c38 0 45 25 45 45z" />
    <glyph glyph-name="Ocaron" unicode="&#x1d1;" horiz-adv-x="680" 
d="M340 -12c-241 0 -289 175 -289 387s48 387 289 387s289 -175 289 -387s-48 -387 -289 -387zM340 660c-142 0 -174 -107 -174 -285s32 -285 174 -285s174 107 174 285s-32 285 -174 285zM156 905h98l86 -50l86 50h98l-127 -110h-114z" />
    <glyph glyph-name="Omacron" unicode="&#x14c;" horiz-adv-x="680" 
d="M340 -12c-241 0 -289 175 -289 387s48 387 289 387s289 -175 289 -387s-48 -387 -289 -387zM340 660c-142 0 -174 -107 -174 -285s32 -285 174 -285s174 107 174 285s-32 285 -174 285zM194 805v89h292v-89h-292z" />
    <glyph glyph-name="Obreve" unicode="&#x14e;" horiz-adv-x="680" 
d="M340 -12c-241 0 -289 175 -289 387s48 387 289 387s289 -175 289 -387s-48 -387 -289 -387zM340 660c-142 0 -174 -107 -174 -285s32 -285 174 -285s174 107 174 285s-32 285 -174 285zM340 777c-123 0 -165 36 -162 128h85c-1 -42 23 -55 77 -55s78 13 77 55h85
c3 -92 -39 -128 -162 -128z" />
    <glyph glyph-name="Oinvertedbreve" unicode="&#x20e;" horiz-adv-x="680" 
d="M340 -12c-241 0 -289 175 -289 387s48 387 289 387s289 -175 289 -387s-48 -387 -289 -387zM340 660c-142 0 -174 -107 -174 -285s32 -285 174 -285s174 107 174 285s-32 285 -174 285zM340 923c123 0 165 -36 162 -128h-85c1 42 -23 55 -77 55s-78 -13 -77 -55h-85
c-3 92 39 128 162 128z" />
    <glyph glyph-name="Ohungarumlaut" unicode="&#x150;" horiz-adv-x="680" 
d="M340 -12c-241 0 -289 175 -289 387s48 387 289 387s289 -175 289 -387s-48 -387 -289 -387zM340 660c-142 0 -174 -107 -174 -285s32 -285 174 -285s174 107 174 285s-32 285 -174 285zM302 795h-94l58 110h135zM472 795h-94l58 110h135z" />
    <glyph glyph-name="Odoublegrave" unicode="&#xe016;" horiz-adv-x="680" 
d="M340 -12c-241 0 -289 175 -289 387s48 387 289 387s289 -175 289 -387s-48 -387 -289 -387zM340 660c-142 0 -174 -107 -174 -285s32 -285 174 -285s174 107 174 285s-32 285 -174 285zM302 795h-94l-99 110h135zM472 795h-94l-99 110h135z" />
    <glyph glyph-name="Ocommaturnedabove" unicode="&#xe017;" horiz-adv-x="680" 
d="M340 -12c-241 0 -289 175 -289 387s48 387 289 387s289 -175 289 -387s-48 -387 -289 -387zM340 660c-142 0 -174 -107 -174 -285s32 -285 174 -285s174 107 174 285s-32 285 -174 285zM353 905h84l-34 -110h-134z" />
    <glyph glyph-name="Otildemacron" unicode="&#xe018;" horiz-adv-x="680" 
d="M340 -12c-241 0 -289 175 -289 387s48 387 289 387s289 -175 289 -387s-48 -387 -289 -387zM340 660c-142 0 -174 -107 -174 -285s32 -285 174 -285s174 107 174 285s-32 285 -174 285zM467 905h71c0 -83 -39 -128 -119 -128c-73 0 -111 63 -161 63
c-38 0 -45 -25 -45 -45h-71c0 83 39 128 119 128c73 0 111 -63 161 -63c38 0 45 25 45 45zM194 945v89h292v-89h-292z" />
    <glyph glyph-name="Odotabove" unicode="&#xe019;" horiz-adv-x="680" 
d="M340 -12c-241 0 -289 175 -289 387s48 387 289 387s289 -175 289 -387s-48 -387 -289 -387zM340 660c-142 0 -174 -107 -174 -285s32 -285 174 -285s174 107 174 285s-32 285 -174 285zM267 850c0 40 33 73 73 73s73 -33 73 -73s-33 -73 -73 -73s-73 33 -73 73z" />
    <glyph glyph-name="Odotabovemacron" unicode="&#xe01a;" horiz-adv-x="680" 
d="M340 -12c-241 0 -289 175 -289 387s48 387 289 387s289 -175 289 -387s-48 -387 -289 -387zM340 660c-142 0 -174 -107 -174 -285s32 -285 174 -285s174 107 174 285s-32 285 -174 285zM267 850c0 40 33 73 73 73s73 -33 73 -73s-33 -73 -73 -73s-73 33 -73 73zM194 940
v89h292v-89h-292z" />
    <glyph glyph-name="Ocedilla" unicode="&#xe01b;" horiz-adv-x="680" 
d="M340 -12c-241 0 -289 175 -289 387s48 387 289 387s289 -175 289 -387s-48 -387 -289 -387zM340 660c-142 0 -174 -107 -174 -285s32 -285 174 -285s174 107 174 285s-32 285 -174 285zM288 -94l5 50c116 -10 156 -55 156 -109c0 -64 -49 -97 -119 -97
c-49 0 -83 12 -97 19v76c10 -4 44 -18 82 -18c34 0 54 8 54 30c0 31 -26 42 -81 49z" />
    <glyph glyph-name="Odotbelow" unicode="&#x1ecc;" horiz-adv-x="680" 
d="M340 -12c-241 0 -289 175 -289 387s48 387 289 387s289 -175 289 -387s-48 -387 -289 -387zM340 660c-142 0 -174 -107 -174 -285s32 -285 174 -285s174 107 174 285s-32 285 -174 285zM413 -148c0 -40 -33 -73 -73 -73s-73 33 -73 73s33 73 73 73s73 -33 73 -73z" />
    <glyph glyph-name="Oogonek" unicode="&#x1ea;" horiz-adv-x="680" 
d="M629 375c0 -180 -35 -332 -191 -375c-55 -25 -106 -64 -106 -125c0 -30 20 -51 56 -51c28 0 51 5 63 9v-68c-16 -6 -42 -15 -85 -15c-67 0 -123 37 -123 109c0 40 17 87 71 130c-218 12 -263 182 -263 386c0 212 48 387 289 387s289 -175 289 -387zM340 660
c-142 0 -174 -107 -174 -285s32 -285 174 -285s174 107 174 285s-32 285 -174 285z" />
    <glyph glyph-name="Oogonekmacron" unicode="&#x1ec;" horiz-adv-x="680" 
d="M629 375c0 -180 -35 -332 -191 -375c-55 -25 -106 -64 -106 -125c0 -30 20 -51 56 -51c28 0 51 5 63 9v-68c-16 -6 -42 -15 -85 -15c-67 0 -123 37 -123 109c0 40 17 87 71 130c-218 12 -263 182 -263 386c0 212 48 387 289 387s289 -175 289 -387zM340 660
c-142 0 -174 -107 -174 -285s32 -285 174 -285s174 107 174 285s-32 285 -174 285zM194 805v89h292v-89h-292z" />
    <glyph glyph-name="Ounderlineaccent" unicode="&#xe01c;" horiz-adv-x="680" 
d="M340 -12c-241 0 -289 175 -289 387s48 387 289 387s289 -175 289 -387s-48 -387 -289 -387zM340 660c-142 0 -174 -107 -174 -285s32 -285 174 -285s174 107 174 285s-32 285 -174 285zM301 -50h78v-200h-78v200z" />
    <glyph glyph-name="Oslash" unicode="&#xd8;" horiz-adv-x="680" 
d="M340 -12c-73 0 -127 15 -169 43l-19 -31h-82l49 80c-54 72 -68 178 -68 295c0 212 48 387 289 387c72 0 127 -16 168 -44l20 32h82l-49 -81c53 -71 68 -177 68 -294c0 -212 -48 -387 -289 -387zM514 375c0 73 -6 134 -22 181l-263 -430c26 -24 62 -36 111 -36
c142 0 174 107 174 285zM340 660c-142 0 -174 -107 -174 -285c0 -74 5 -135 22 -182l262 430c-26 24 -61 37 -110 37z" />
    <glyph glyph-name="Oslashacute" unicode="&#x1fe;" horiz-adv-x="680" 
d="M340 -12c-73 0 -127 15 -169 43l-19 -31h-82l49 80c-54 72 -68 178 -68 295c0 212 48 387 289 387c72 0 127 -16 168 -44l20 32h82l-49 -81c53 -71 68 -177 68 -294c0 -212 -48 -387 -289 -387zM514 375c0 73 -6 134 -22 181l-263 -430c26 -24 62 -36 111 -36
c142 0 174 107 174 285zM340 660c-142 0 -174 -107 -174 -285c0 -74 5 -135 22 -182l262 430c-26 24 -61 37 -110 37zM387 795h-94l58 110h135z" />
    <glyph glyph-name="barredO" unicode="&#xe01d;" horiz-adv-x="680" 
d="M340 -12c-241 0 -289 175 -289 387s48 387 289 387s289 -175 289 -387s-48 -387 -289 -387zM340 90c133 0 170 94 174 254h-348c4 -160 40 -254 174 -254zM340 660c-126 0 -165 -84 -173 -226h345c-7 142 -47 226 -172 226z" />
    <glyph glyph-name="OE" unicode="&#x152;" horiz-adv-x="946" 
d="M866 440v-103h-297v-234h329v-103h-532c-249 0 -318 162 -318 375s69 375 318 375h532v-103h-329v-207h297zM457 103v544h-94c-150 0 -198 -109 -198 -272s48 -272 198 -272h94z" />
    <glyph glyph-name="Pmacron" unicode="&#xe01e;" horiz-adv-x="580" 
d="M173 281v-281h-112v750h241c193 0 260 -112 260 -235s-67 -234 -260 -234h-129zM173 647v-264h134c112 0 133 76 133 132s-21 132 -133 132h-134zM139 805v89h292v-89h-292z" />
    <glyph glyph-name="Racute" unicode="&#x154;" horiz-adv-x="621" 
d="M173 305v-305h-112v750h244c194 0 256 -87 256 -223c0 -97 -30 -168 -122 -200l157 -327h-131l-136 305h-156zM173 647v-240h148c104 0 118 59 118 120c0 62 -14 120 -118 120h-148zM337 795h-94l58 110h135z" />
    <glyph glyph-name="Rcaron" unicode="&#x158;" horiz-adv-x="621" 
d="M173 305v-305h-112v750h244c194 0 256 -87 256 -223c0 -97 -30 -168 -122 -200l157 -327h-131l-136 305h-156zM173 647v-240h148c104 0 118 59 118 120c0 62 -14 120 -118 120h-148zM106 905h98l86 -50l86 50h98l-127 -110h-114z" />
    <glyph glyph-name="Rinvertedbreve" unicode="&#x212;" horiz-adv-x="621" 
d="M173 305v-305h-112v750h244c194 0 256 -87 256 -223c0 -97 -30 -168 -122 -200l157 -327h-131l-136 305h-156zM173 647v-240h148c104 0 118 59 118 120c0 62 -14 120 -118 120h-148zM290 923c123 0 165 -36 162 -128h-85c1 42 -23 55 -77 55s-78 -13 -77 -55h-85
c-3 92 39 128 162 128z" />
    <glyph glyph-name="Rdoublegrave" unicode="&#xe01f;" horiz-adv-x="621" 
d="M173 305v-305h-112v750h244c194 0 256 -87 256 -223c0 -97 -30 -168 -122 -200l157 -327h-131l-136 305h-156zM173 647v-240h148c104 0 118 59 118 120c0 62 -14 120 -118 120h-148zM252 795h-94l-99 110h135zM422 795h-94l-99 110h135z" />
    <glyph glyph-name="Rcommaaccent" unicode="&#x156;" horiz-adv-x="621" 
d="M173 305v-305h-112v750h244c194 0 256 -87 256 -223c0 -97 -30 -168 -122 -200l157 -327h-131l-136 305h-156zM173 647v-240h148c104 0 118 59 118 120c0 62 -14 120 -118 120h-148zM251 -50h133l-65 -200h-89z" />
    <glyph glyph-name="Rcedilla" unicode="&#xe020;" horiz-adv-x="621" 
d="M173 305v-305h-112v750h244c194 0 256 -87 256 -223c0 -97 -30 -168 -122 -200l157 -327h-131l-136 305h-156zM173 647v-240h148c104 0 118 59 118 120c0 62 -14 120 -118 120h-148zM261 -94l5 50c116 -10 156 -55 156 -109c0 -64 -49 -97 -119 -97c-49 0 -83 12 -97 19
v76c10 -4 44 -18 82 -18c34 0 54 8 54 30c0 31 -26 42 -81 49z" />
    <glyph glyph-name="Rdotbelow" unicode="&#x1e5a;" horiz-adv-x="621" 
d="M173 305v-305h-112v750h244c194 0 256 -87 256 -223c0 -97 -30 -168 -122 -200l157 -327h-131l-136 305h-156zM173 647v-240h148c104 0 118 59 118 120c0 62 -14 120 -118 120h-148zM386 -148c0 -40 -33 -73 -73 -73s-73 33 -73 73s33 73 73 73s73 -33 73 -73z" />
    <glyph glyph-name="Rdotbelowmacron" unicode="&#x1e5c;" horiz-adv-x="621" 
d="M173 305v-305h-112v750h244c194 0 256 -87 256 -223c0 -97 -30 -168 -122 -200l157 -327h-131l-136 305h-156zM173 647v-240h148c104 0 118 59 118 120c0 62 -14 120 -118 120h-148zM144 805v89h292v-89h-292zM386 -148c0 -40 -33 -73 -73 -73s-73 33 -73 73s33 73 73 73
s73 -33 73 -73z" />
    <glyph glyph-name="Sacute" unicode="&#x15a;" horiz-adv-x="595" 
d="M305 436c156 -21 247 -56 247 -209c0 -142 -84 -239 -285 -239c-75 0 -171 17 -222 43v112c41 -18 113 -49 215 -49c135 0 175 55 175 126c0 83 -35 103 -136 116c-183 23 -254 72 -254 209c0 110 62 217 266 217c97 0 165 -17 203 -36v-109c-55 24 -123 39 -197 39
c-117 0 -157 -48 -157 -112c0 -81 46 -95 145 -108zM350 795h-94l58 110h135z" />
    <glyph glyph-name="Scircumflex" unicode="&#x15c;" horiz-adv-x="595" 
d="M305 436c156 -21 247 -56 247 -209c0 -142 -84 -239 -285 -239c-75 0 -171 17 -222 43v112c41 -18 113 -49 215 -49c135 0 175 55 175 126c0 83 -35 103 -136 116c-183 23 -254 72 -254 209c0 110 62 217 266 217c97 0 165 -17 203 -36v-109c-55 24 -123 39 -197 39
c-117 0 -157 -48 -157 -112c0 -81 46 -95 145 -108zM487 795h-98l-86 50l-86 -50h-98l127 110h114z" />
    <glyph glyph-name="Scaron" unicode="&#x160;" horiz-adv-x="595" 
d="M305 436c156 -21 247 -56 247 -209c0 -142 -84 -239 -285 -239c-75 0 -171 17 -222 43v112c41 -18 113 -49 215 -49c135 0 175 55 175 126c0 83 -35 103 -136 116c-183 23 -254 72 -254 209c0 110 62 217 266 217c97 0 165 -17 203 -36v-109c-55 24 -123 39 -197 39
c-117 0 -157 -48 -157 -112c0 -81 46 -95 145 -108zM119 905h98l86 -50l86 50h98l-127 -110h-114z" />
    <glyph glyph-name="Scommaaccent" unicode="&#x218;" horiz-adv-x="595" 
d="M305 436c156 -21 247 -56 247 -209c0 -142 -84 -239 -285 -239c-75 0 -171 17 -222 43v112c41 -18 113 -49 215 -49c135 0 175 55 175 126c0 83 -35 103 -136 116c-183 23 -254 72 -254 209c0 110 62 217 266 217c97 0 165 -17 203 -36v-109c-55 24 -123 39 -197 39
c-117 0 -157 -48 -157 -112c0 -81 46 -95 145 -108zM221 -50h133l-65 -200h-89z" />
    <glyph glyph-name="Scedilla" unicode="&#x15e;" horiz-adv-x="595" 
d="M241 -94l9 82c-72 3 -158 19 -205 43v112c41 -18 113 -49 215 -49c135 0 175 55 175 126c0 83 -35 103 -136 116c-183 23 -254 72 -254 209c0 110 62 217 266 217c97 0 165 -17 203 -36v-109c-55 24 -123 39 -197 39c-117 0 -157 -48 -157 -112c0 -81 46 -95 145 -108
c156 -21 247 -56 247 -209c0 -133 -73 -226 -247 -238l4 -49c51 -12 93 -38 93 -93c0 -64 -49 -97 -119 -97c-49 0 -83 12 -97 19v76c10 -4 44 -18 82 -18c34 0 54 8 54 30c0 31 -26 42 -81 49z" />
    <glyph glyph-name="Sdotbelow" unicode="&#x1e62;" horiz-adv-x="595" 
d="M305 436c156 -21 247 -56 247 -209c0 -142 -84 -239 -285 -239c-75 0 -171 17 -222 43v112c41 -18 113 -49 215 -49c135 0 175 55 175 126c0 83 -35 103 -136 116c-183 23 -254 72 -254 209c0 110 62 217 266 217c97 0 165 -17 203 -36v-109c-55 24 -123 39 -197 39
c-117 0 -157 -48 -157 -112c0 -81 46 -95 145 -108zM356 -148c0 -40 -33 -73 -73 -73s-73 33 -73 73s33 73 73 73s73 -33 73 -73z" />
    <glyph glyph-name="Tcaron" unicode="&#x164;" horiz-adv-x="556" 
d="M529 647h-195v-647h-112v647h-195v103h502v-103zM94 905h98l86 -50l86 50h98l-127 -110h-114z" />
    <glyph glyph-name="Tcommaaccent" unicode="&#x162;" horiz-adv-x="556" 
d="M529 647h-195v-647h-112v647h-195v103h502v-103zM210 -50h133l-65 -200h-89z" />
    <glyph glyph-name="Tcommaaccent" unicode="&#x21a;" horiz-adv-x="556" 
d="M529 647h-195v-647h-112v647h-195v103h502v-103zM210 -50h133l-65 -200h-89z" />
    <glyph glyph-name="Tcedilla" unicode="&#xe021;" horiz-adv-x="556" 
d="M529 647h-195v-647h-112v647h-195v103h502v-103zM226 -94l5 50c116 -10 156 -55 156 -109c0 -64 -49 -97 -119 -97c-49 0 -83 12 -97 19v76c10 -4 44 -18 82 -18c34 0 54 8 54 30c0 31 -26 42 -81 49z" />
    <glyph glyph-name="Tdotbelow" unicode="&#x1e6c;" horiz-adv-x="556" 
d="M529 647h-195v-647h-112v647h-195v103h502v-103zM351 -148c0 -40 -33 -73 -73 -73s-73 33 -73 73s33 73 73 73s73 -33 73 -73z" />
    <glyph glyph-name="Tbar" unicode="&#x166;" horiz-adv-x="556" 
d="M529 647h-195v-214h113v-89h-113v-344h-112v344h-113v89h113v214h-195v103h502v-103z" />
    <glyph glyph-name="Uacute" unicode="&#xda;" horiz-adv-x="656" 
d="M328 -12c-102 0 -272 38 -272 248v514h112v-504c0 -141 98 -156 160 -156s160 15 160 156v504h112v-514c0 -210 -170 -248 -272 -248zM375 795h-94l58 110h135z" />
    <glyph glyph-name="Ugrave" unicode="&#xd9;" horiz-adv-x="656" 
d="M328 -12c-102 0 -272 38 -272 248v514h112v-504c0 -141 98 -156 160 -156s160 15 160 156v504h112v-514c0 -210 -170 -248 -272 -248zM375 795h-94l-99 110h135z" />
    <glyph glyph-name="Ucircumflex" unicode="&#xdb;" horiz-adv-x="656" 
d="M328 -12c-102 0 -272 38 -272 248v514h112v-504c0 -141 98 -156 160 -156s160 15 160 156v504h112v-514c0 -210 -170 -248 -272 -248zM512 795h-98l-86 50l-86 -50h-98l127 110h114z" />
    <glyph glyph-name="Udieresis" unicode="&#xdc;" horiz-adv-x="656" 
d="M328 -12c-102 0 -272 38 -272 248v514h112v-504c0 -141 98 -156 160 -156s160 15 160 156v504h112v-514c0 -210 -170 -248 -272 -248zM149 850c0 40 33 73 73 73s73 -33 73 -73s-33 -73 -73 -73s-73 33 -73 73zM361 850c0 40 33 73 73 73s73 -33 73 -73s-33 -73 -73 -73
s-73 33 -73 73z" />
    <glyph glyph-name="Utilde" unicode="&#x168;" horiz-adv-x="656" 
d="M328 -12c-102 0 -272 38 -272 248v514h112v-504c0 -141 98 -156 160 -156s160 15 160 156v504h112v-514c0 -210 -170 -248 -272 -248zM455 905h71c0 -83 -39 -128 -119 -128c-73 0 -111 63 -161 63c-38 0 -45 -25 -45 -45h-71c0 83 39 128 119 128c73 0 111 -63 161 -63
c38 0 45 25 45 45z" />
    <glyph glyph-name="Uring" unicode="&#x16e;" horiz-adv-x="656" 
d="M328 -12c-102 0 -272 38 -272 248v514h112v-504c0 -141 98 -156 160 -156s160 15 160 156v504h112v-514c0 -210 -170 -248 -272 -248zM362 850c0 11 -11 17 -34 17s-34 -6 -34 -17s11 -17 34 -17s34 6 34 17zM228 850c0 63 44 82 100 82s100 -19 100 -82
s-44 -82 -100 -82s-100 19 -100 82z" />
    <glyph glyph-name="Ucaron" unicode="&#x1d3;" horiz-adv-x="656" 
d="M328 -12c-102 0 -272 38 -272 248v514h112v-504c0 -141 98 -156 160 -156s160 15 160 156v504h112v-514c0 -210 -170 -248 -272 -248zM144 905h98l86 -50l86 50h98l-127 -110h-114z" />
    <glyph glyph-name="Umacron" unicode="&#x16a;" horiz-adv-x="656" 
d="M328 -12c-102 0 -272 38 -272 248v514h112v-504c0 -141 98 -156 160 -156s160 15 160 156v504h112v-514c0 -210 -170 -248 -272 -248zM182 805v89h292v-89h-292z" />
    <glyph glyph-name="Ubreve" unicode="&#x16c;" horiz-adv-x="656" 
d="M328 -12c-102 0 -272 38 -272 248v514h112v-504c0 -141 98 -156 160 -156s160 15 160 156v504h112v-514c0 -210 -170 -248 -272 -248zM328 777c-123 0 -165 36 -162 128h85c-1 -42 23 -55 77 -55s78 13 77 55h85c3 -92 -39 -128 -162 -128z" />
    <glyph glyph-name="Uinvertedbreve" unicode="&#x216;" horiz-adv-x="656" 
d="M328 -12c-102 0 -272 38 -272 248v514h112v-504c0 -141 98 -156 160 -156s160 15 160 156v504h112v-514c0 -210 -170 -248 -272 -248zM328 923c123 0 165 -36 162 -128h-85c1 42 -23 55 -77 55s-78 -13 -77 -55h-85c-3 92 39 128 162 128z" />
    <glyph glyph-name="Uhungarumlaut" unicode="&#x170;" horiz-adv-x="656" 
d="M328 -12c-102 0 -272 38 -272 248v514h112v-504c0 -141 98 -156 160 -156s160 15 160 156v504h112v-514c0 -210 -170 -248 -272 -248zM460 795h-94l58 110h135zM290 795h-94l58 110h135z" />
    <glyph glyph-name="Udoublegrave" unicode="&#xe022;" horiz-adv-x="656" 
d="M328 -12c-102 0 -272 38 -272 248v514h112v-504c0 -141 98 -156 160 -156s160 15 160 156v504h112v-514c0 -210 -170 -248 -272 -248zM460 795h-94l-99 110h135zM290 795h-94l-99 110h135z" />
    <glyph glyph-name="Udotbelow" unicode="&#x1ee4;" horiz-adv-x="656" 
d="M328 -12c-102 0 -272 38 -272 248v514h112v-504c0 -141 98 -156 160 -156s160 15 160 156v504h112v-514c0 -210 -170 -248 -272 -248zM401 -148c0 -40 -33 -73 -73 -73s-73 33 -73 73s33 73 73 73s73 -33 73 -73z" />
    <glyph glyph-name="Umacronbelow" unicode="&#xe023;" horiz-adv-x="656" 
d="M328 -12c-102 0 -272 38 -272 248v514h112v-504c0 -141 98 -156 160 -156s160 15 160 156v504h112v-514c0 -210 -170 -248 -272 -248zM474 -106v-88h-292v88h292z" />
    <glyph glyph-name="Uogonek" unicode="&#x172;" horiz-adv-x="656" 
d="M600 236c0 -151 -88 -213 -175 -236c-55 -25 -106 -64 -106 -125c0 -30 20 -51 56 -51c28 0 51 5 63 9v-68c-16 -6 -42 -15 -85 -15c-67 0 -123 37 -123 109c0 40 17 87 70 130c-102 7 -244 55 -244 247v514h112v-504c0 -141 98 -156 160 -156s160 15 160 156v504h112
v-514z" />
    <glyph glyph-name="Wacute" unicode="&#x1e82;" horiz-adv-x="884" 
d="M245 159l127 591h140l127 -591l98 591h119l-141 -759h-137l-136 625l-136 -625h-137l-141 759h119zM489 795h-94l58 110h135z" />
    <glyph glyph-name="Wgrave" unicode="&#x1e80;" horiz-adv-x="884" 
d="M245 159l127 591h140l127 -591l98 591h119l-141 -759h-137l-136 625l-136 -625h-137l-141 759h119zM489 795h-94l-99 110h135z" />
    <glyph glyph-name="Wcircumflex" unicode="&#x174;" horiz-adv-x="884" 
d="M245 159l127 591h140l127 -591l98 591h119l-141 -759h-137l-136 625l-136 -625h-137l-141 759h119zM626 795h-98l-86 50l-86 -50h-98l127 110h114z" />
    <glyph glyph-name="Wdieresis" unicode="&#x1e84;" horiz-adv-x="884" 
d="M245 159l127 591h140l127 -591l98 591h119l-141 -759h-137l-136 625l-136 -625h-137l-141 759h119zM475 850c0 40 33 73 73 73s73 -33 73 -73s-33 -73 -73 -73s-73 33 -73 73zM263 850c0 40 33 73 73 73s73 -33 73 -73s-33 -73 -73 -73s-73 33 -73 73z" />
    <glyph glyph-name="Yacute" unicode="&#xdd;" horiz-adv-x="670" 
d="M647 750l-255 -449v-301h-114v301l-255 449h127l185 -350l185 350h127zM382 795h-94l58 110h135z" />
    <glyph glyph-name="Ygrave" unicode="&#x1ef2;" horiz-adv-x="670" 
d="M647 750l-255 -449v-301h-114v301l-255 449h127l185 -350l185 350h127zM382 795h-94l-99 110h135z" />
    <glyph glyph-name="Ycircumflex" unicode="&#x176;" horiz-adv-x="670" 
d="M647 750l-255 -449v-301h-114v301l-255 449h127l185 -350l185 350h127zM519 795h-98l-86 50l-86 -50h-98l127 110h114z" />
    <glyph glyph-name="Ydieresis" unicode="&#x178;" horiz-adv-x="670" 
d="M647 750l-255 -449v-301h-114v301l-255 449h127l185 -350l185 350h127zM156 850c0 40 33 73 73 73s73 -33 73 -73s-33 -73 -73 -73s-73 33 -73 73zM368 850c0 40 33 73 73 73s73 -33 73 -73s-33 -73 -73 -73s-73 33 -73 73z" />
    <glyph glyph-name="Ytilde" unicode="&#x1ef8;" horiz-adv-x="670" 
d="M647 750l-255 -449v-301h-114v301l-255 449h127l185 -350l185 350h127zM462 905h71c0 -83 -39 -128 -119 -128c-73 0 -111 63 -161 63c-38 0 -45 -25 -45 -45h-71c0 83 39 128 119 128c73 0 111 -63 161 -63c38 0 45 25 45 45z" />
    <glyph glyph-name="Ymacron" unicode="&#xe024;" horiz-adv-x="670" 
d="M647 750l-255 -449v-301h-114v301l-255 449h127l185 -350l185 350h127zM189 805v89h292v-89h-292z" />
    <glyph glyph-name="IJ" unicode="&#x132;" horiz-adv-x="624" 
d="M189 0h-112v750h112v-750zM272 0v107c20 -6 45 -12 78 -12c54 0 92 21 92 77v578h112v-595c0 -109 -60 -167 -198 -167c-22 0 -60 4 -84 12z" />
    <glyph glyph-name="Zacute" unicode="&#x179;" horiz-adv-x="610" 
d="M580 0h-550v75l384 569l-359 -2v108h510v-75l-384 -569l399 2v-108zM355 795h-94l58 110h135z" />
    <glyph glyph-name="Zcaron" unicode="&#x17d;" horiz-adv-x="610" 
d="M580 0h-550v75l384 569l-359 -2v108h510v-75l-384 -569l399 2v-108zM124 905h98l86 -50l86 50h98l-127 -110h-114z" />
    <glyph glyph-name="Zdotaccent" unicode="&#x17b;" horiz-adv-x="610" 
d="M580 0h-550v75l384 569l-359 -2v108h510v-75l-384 -569l399 2v-108zM235 850c0 40 33 73 73 73s73 -33 73 -73s-33 -73 -73 -73s-73 33 -73 73z" />
    <glyph glyph-name="Eng" unicode="&#x14a;" horiz-adv-x="658" 
d="M369 -262v104c71 0 118 38 118 100v71l-318 520l3 -533h-111v750h102l326 -533l-3 533h111v-830c0 -123 -117 -182 -228 -182z" />
    <glyph glyph-name="Eth" unicode="&#xd0;" horiz-adv-x="695" 
d="M329 0h-223v335h-87v95h87v320h223c249 0 318 -162 318 -375s-69 -375 -318 -375zM218 647v-217h158v-95h-158v-232h114c150 0 198 109 198 272s-48 272 -198 272h-114z" />
    <glyph glyph-name="Thorn" unicode="&#xde;" horiz-adv-x="590" 
d="M173 141v-141h-112v750h112v-140h129c193 0 260 -112 260 -235s-67 -234 -260 -234h-129zM173 507v-264h134c112 0 133 76 133 132s-21 132 -133 132h-134z" />
    <glyph glyph-name="Ezh" unicode="&#x1b7;" horiz-adv-x="642" 
d="M488 64c0 176 -118 205 -268 205h-71v76l250 299l-361 -2v108h515v-81l-256 -299c156 -13 308 -87 308 -306c0 -256 -184 -326 -350 -326c-83 0 -174 19 -220 39v106c43 -15 110 -39 203 -39c132 0 250 39 250 220z" />
    <glyph glyph-name="Ezhcaron" unicode="&#x1ee;" horiz-adv-x="642" 
d="M488 64c0 176 -118 205 -268 205h-71v76l250 299l-361 -2v108h515v-81l-256 -299c156 -13 308 -87 308 -306c0 -256 -184 -326 -350 -326c-83 0 -174 19 -220 39v106c43 -15 110 -39 203 -39c132 0 250 39 250 220zM112 905h98l86 -50l86 50h98l-127 -110h-114z" />
    <glyph glyph-name="Schwa" unicode="&#x18f;" horiz-adv-x="688" 
d="M638 375c0 -223 -84 -387 -308 -387c-242 0 -282 180 -282 376l1 76h471c-11 128 -68 217 -206 217c-85 0 -154 -17 -230 -53v107c77 38 156 51 243 51c226 0 311 -164 311 -387zM330 93c135 0 187 103 192 244h-357c0 -136 22 -244 165 -244z" />
    <glyph glyph-name="a" unicode="a" horiz-adv-x="496" 
d="M332 345c0 51 -24 71 -98 71c-65 0 -118 -15 -156 -30v97c39 17 105 29 164 29c164 0 202 -72 202 -178v-334h-66l-18 40c-40 -33 -96 -52 -151 -52c-129 0 -172 80 -172 160c0 108 70 154 183 163l112 9v25zM332 243l-105 -12c-50 -6 -79 -25 -79 -77
c0 -38 16 -74 77 -74c45 0 76 13 107 33v130z" />
    <glyph glyph-name="b" unicode="b" horiz-adv-x="542" 
d="M301 512c146 0 200 -99 200 -262c0 -164 -54 -262 -200 -262c-67 0 -118 20 -162 52l-18 -40h-66v750h112v-277c36 23 84 39 134 39zM275 417c-53 0 -88 -18 -108 -29v-276c20 -11 55 -29 108 -29c98 0 113 74 113 167c0 92 -15 167 -113 167z" />
    <glyph glyph-name="c" unicode="c" horiz-adv-x="450" 
d="M154 250c0 -97 28 -163 125 -163c58 0 95 9 131 23v-97c-39 -17 -86 -25 -138 -25c-177 0 -231 106 -231 262s54 262 231 262c52 0 99 -8 138 -25v-97c-36 14 -73 23 -131 23c-97 0 -125 -66 -125 -163z" />
    <glyph glyph-name="d" unicode="d" horiz-adv-x="542" 
d="M241 512c50 0 98 -16 134 -39v277h112v-750h-66l-18 40c-44 -32 -95 -52 -162 -52c-146 0 -200 98 -200 262c0 163 54 262 200 262zM267 417c-98 0 -113 -75 -113 -167c0 -93 15 -167 113 -167c53 0 88 18 108 29v276c-20 11 -55 29 -108 29z" />
    <glyph glyph-name="e" unicode="e" horiz-adv-x="510" 
d="M41 250c0 161 59 262 222 262c176 0 204 -116 204 -254c0 -17 -1 -33 -2 -49h-311c2 -75 29 -124 131 -124c63 0 115 11 159 30v-96c-57 -24 -122 -31 -176 -31c-167 0 -227 100 -227 262zM263 415c-82 0 -105 -53 -109 -128h200c0 68 -4 128 -91 128z" />
    <glyph glyph-name="f" unicode="f" horiz-adv-x="382" 
d="M382 750v-95c-18 6 -39 10 -74 10c-50 0 -90 -19 -90 -76v-89h141v-95h-141v-405h-112v405h-91v69l91 26v99c0 107 60 163 194 163c33 0 63 -5 82 -12z" />
    <glyph glyph-name="g" unicode="g" horiz-adv-x="524" 
d="M454 322c0 -114 -56 -190 -209 -190c-21 0 -41 1 -58 4c-8 -8 -14 -19 -14 -29c0 -17 9 -26 30 -29l181 -22c99 -12 134 -57 134 -140c0 -129 -136 -178 -281 -178c-134 0 -231 43 -231 146c0 68 51 108 104 124v1c-25 14 -39 42 -39 69c0 37 22 63 45 81
c-57 32 -80 90 -80 163c0 114 56 190 209 190c36 0 66 -4 92 -12h173v-71l-71 -20c10 -26 15 -55 15 -87zM352 -33l-142 18c-51 -9 -97 -32 -97 -80c0 -56 40 -78 132 -78c88 0 165 26 165 86c0 34 -17 49 -58 54zM142 322c0 -57 19 -101 103 -101s103 44 103 101
s-19 101 -103 101s-103 -44 -103 -101z" />
    <glyph glyph-name="h" unicode="h" horiz-adv-x="524" 
d="M361 343c0 51 -26 74 -79 74c-52 0 -88 -14 -115 -29v-388h-112v750h112v-275c39 23 83 37 134 37c127 0 172 -63 172 -159v-353h-112v343z" />
    <glyph glyph-name="i" unicode="i" horiz-adv-x="257" 
d="M197 -7c-91 0 -132 44 -132 130v377h112v-376c0 -28 10 -38 42 -38v-91s-10 -2 -22 -2zM48 648c0 40 33 73 73 73s73 -33 73 -73s-33 -73 -73 -73s-73 33 -73 73z" />
    <glyph glyph-name="j" unicode="j" horiz-adv-x="242" 
d="M-51 -262v104c71 0 116 38 116 100v558h112v-580c0 -123 -117 -182 -228 -182zM48 648c0 40 33 73 73 73s73 -33 73 -73s-33 -73 -73 -73s-73 33 -73 73z" />
    <glyph glyph-name="k" unicode="k" horiz-adv-x="522" 
d="M489 500l-203 -206l224 -294h-139l-156 222l-48 -49v-173h-112v750h112v-444l177 194h145z" />
    <glyph glyph-name="l" unicode="l" horiz-adv-x="257" 
d="M197 -7c-91 0 -132 44 -132 130v627h112v-626c0 -28 10 -38 42 -38v-91s-10 -2 -22 -2z" />
    <glyph glyph-name="m" unicode="m" horiz-adv-x="794" 
d="M631 0v353c0 47 -27 64 -71 64c-49 0 -82 -15 -108 -31c2 -18 3 -35 3 -55v-331h-112v353c0 47 -26 64 -71 64c-46 0 -79 -14 -105 -29v-388h-112v500h66l18 -40c42 33 102 52 151 52c67 0 107 -19 128 -50c45 32 105 50 160 50c118 0 165 -64 165 -159v-353h-112z" />
    <glyph glyph-name="n" unicode="n" horiz-adv-x="524" 
d="M473 0h-112v343c0 51 -26 74 -79 74c-52 0 -88 -14 -115 -29v-388h-112v500h66l18 -40c51 35 108 52 162 52c127 0 172 -63 172 -159v-353z" />
    <glyph glyph-name="o" unicode="o" 
d="M263 82c95 0 109 61 109 168s-14 168 -109 168s-109 -61 -109 -168s14 -168 109 -168zM263 -12c-178 0 -222 108 -222 262s44 262 222 262s222 -108 222 -262s-44 -262 -222 -262z" />
    <glyph glyph-name="p" unicode="p" horiz-adv-x="542" 
d="M301 -12c-50 0 -98 16 -134 39v-277h-112v750h66l18 -40c44 32 95 52 162 52c146 0 200 -98 200 -262c0 -163 -54 -262 -200 -262zM275 83c98 0 113 75 113 167c0 93 -15 167 -113 167c-53 0 -88 -18 -108 -29v-276c20 -11 55 -29 108 -29z" />
    <glyph glyph-name="q" unicode="q" horiz-adv-x="542" 
d="M241 -12c-146 0 -200 99 -200 262c0 164 54 262 200 262c67 0 118 -20 162 -52l18 40h66v-750h-112v277c-36 -23 -84 -39 -134 -39zM267 83c53 0 88 18 108 29v276c-20 11 -55 29 -108 29c-98 0 -113 -74 -113 -167c0 -92 15 -167 113 -167z" />
    <glyph glyph-name="r" unicode="r" horiz-adv-x="366" 
d="M350 506v-96c-12 4 -32 6 -55 6c-59 0 -103 -14 -128 -30v-386h-112v500h66l18 -40c37 30 93 52 158 52c21 0 39 -3 53 -6z" />
    <glyph glyph-name="s" unicode="s" horiz-adv-x="465" 
d="M151 356c0 -35 18 -50 83 -56c150 -13 189 -58 189 -151c0 -86 -53 -161 -213 -161c-69 0 -131 13 -165 27v96c33 -12 86 -28 149 -28c80 0 119 18 119 62c0 37 -16 56 -83 62c-151 13 -188 60 -188 146s56 159 203 159c68 0 116 -8 155 -25v-97c-43 16 -90 28 -153 28
c-59 0 -96 -17 -96 -62z" />
    <glyph glyph-name="t" unicode="t" horiz-adv-x="380" 
d="M342 87v-92c-17 -4 -45 -7 -62 -7c-111 0 -176 48 -176 156v261h-91v69l91 26v119l112 32v-151h141v-95h-141v-248c0 -50 25 -74 82 -74c17 0 32 2 44 4z" />
    <glyph glyph-name="u" unicode="u" horiz-adv-x="524" 
d="M51 500h112v-343c0 -51 26 -74 79 -74c52 0 88 14 115 29v388h112v-500h-66l-18 40c-51 -35 -108 -52 -162 -52c-127 0 -172 63 -172 159v353z" />
    <glyph glyph-name="v" unicode="v" horiz-adv-x="500" 
d="M13 500h121l116 -362l116 362h121l-191 -509h-92z" />
    <glyph glyph-name="w" unicode="w" horiz-adv-x="696" 
d="M348 368l-104 -377h-95l-131 509h114l68 -344l97 344h102l97 -344l68 344h114l-131 -509h-95z" />
    <glyph glyph-name="x" unicode="x" horiz-adv-x="510" 
d="M366 0l-111 185l-111 -185h-129l170 257l-159 243h127l102 -174l102 174h127l-159 -243l170 -257h-129z" />
    <glyph glyph-name="y" unicode="y" horiz-adv-x="500" 
d="M13 500h124l113 -357l113 357h124l-286 -750h-125l124 267z" />
    <glyph glyph-name="z" unicode="z" horiz-adv-x="439" 
d="M426 0h-409v79l254 323l-236 -1v99h380v-79l-254 -323l265 1v-99z" />
    <glyph glyph-name="aacute" unicode="&#xe1;" horiz-adv-x="496" 
d="M332 345c0 51 -24 71 -98 71c-65 0 -118 -15 -156 -30v97c39 17 105 29 164 29c164 0 202 -72 202 -178v-334h-66l-18 40c-40 -33 -96 -52 -151 -52c-129 0 -172 80 -172 160c0 108 70 154 183 163l112 9v25zM332 243l-105 -12c-50 -6 -79 -25 -79 -77
c0 -38 16 -74 77 -74c45 0 76 13 107 33v130zM292 550h-94l58 200h135z" />
    <glyph glyph-name="agrave" unicode="&#xe0;" horiz-adv-x="496" 
d="M332 345c0 51 -24 71 -98 71c-65 0 -118 -15 -156 -30v97c39 17 105 29 164 29c164 0 202 -72 202 -178v-334h-66l-18 40c-40 -33 -96 -52 -151 -52c-129 0 -172 80 -172 160c0 108 70 154 183 163l112 9v25zM332 243l-105 -12c-50 -6 -79 -25 -79 -77
c0 -38 16 -74 77 -74c45 0 76 13 107 33v130zM292 550h-94l-99 200h135z" />
    <glyph glyph-name="acircumflex" unicode="&#xe2;" horiz-adv-x="496" 
d="M332 345c0 51 -24 71 -98 71c-65 0 -118 -15 -156 -30v97c39 17 105 29 164 29c164 0 202 -72 202 -178v-334h-66l-18 40c-40 -33 -96 -52 -151 -52c-129 0 -172 80 -172 160c0 108 70 154 183 163l112 9v25zM338 550l-93 113l-93 -113h-95l131 200h114l131 -200h-95z
M332 243l-105 -12c-50 -6 -79 -25 -79 -77c0 -38 16 -74 77 -74c45 0 76 13 107 33v130z" />
    <glyph glyph-name="adieresis" unicode="&#xe4;" horiz-adv-x="496" 
d="M332 345c0 51 -24 71 -98 71c-65 0 -118 -15 -156 -30v97c39 17 105 29 164 29c164 0 202 -72 202 -178v-334h-66l-18 40c-40 -33 -96 -52 -151 -52c-129 0 -172 80 -172 160c0 108 70 154 183 163l112 9v25zM332 243l-105 -12c-50 -6 -79 -25 -79 -77
c0 -38 16 -74 77 -74c45 0 76 13 107 33v130zM66 648c0 40 33 73 73 73s73 -33 73 -73s-33 -73 -73 -73s-73 33 -73 73zM278 648c0 40 33 73 73 73s73 -33 73 -73s-33 -73 -73 -73s-73 33 -73 73z" />
    <glyph glyph-name="atilde" unicode="&#xe3;" horiz-adv-x="496" 
d="M332 345c0 51 -24 71 -98 71c-65 0 -118 -15 -156 -30v97c39 17 105 29 164 29c164 0 202 -72 202 -178v-334h-66l-18 40c-40 -33 -96 -52 -151 -52c-129 0 -172 80 -172 160c0 108 70 154 183 163l112 9v25zM332 243l-105 -12c-50 -6 -79 -25 -79 -77
c0 -38 16 -74 77 -74c45 0 76 13 107 33v130zM373 707h75c0 -81 -31 -140 -122 -140c-88 0 -108 74 -161 74c-43 0 -48 -29 -48 -54h-75c0 81 31 140 122 140c88 0 108 -74 161 -74c43 0 48 29 48 54z" />
    <glyph glyph-name="aring" unicode="&#xe5;" horiz-adv-x="496" 
d="M332 345c0 51 -24 71 -98 71c-65 0 -118 -15 -156 -30v97c39 17 105 29 164 29c164 0 202 -72 202 -178v-334h-66l-18 40c-40 -33 -96 -52 -151 -52c-129 0 -172 80 -172 160c0 108 70 154 183 163l112 9v25zM332 243l-105 -12c-50 -6 -79 -25 -79 -77
c0 -38 16 -74 77 -74c45 0 76 13 107 33v130zM350 650c0 -70 -43 -103 -105 -103c-61 0 -105 33 -105 103s44 103 105 103c62 0 105 -33 105 -103zM207 650c0 -27 15 -37 38 -37s39 10 39 37s-16 37 -39 37s-38 -10 -38 -37z" />
    <glyph glyph-name="acaron" unicode="&#x1ce;" horiz-adv-x="496" 
d="M332 345c0 51 -24 71 -98 71c-65 0 -118 -15 -156 -30v97c39 17 105 29 164 29c164 0 202 -72 202 -178v-334h-66l-18 40c-40 -33 -96 -52 -151 -52c-129 0 -172 80 -172 160c0 108 70 154 183 163l112 9v25zM245 637l93 113h95l-131 -200h-114l-131 200h95zM332 243
l-105 -12c-50 -6 -79 -25 -79 -77c0 -38 16 -74 77 -74c45 0 76 13 107 33v130z" />
    <glyph glyph-name="amacron" unicode="&#x101;" horiz-adv-x="496" 
d="M332 345c0 51 -24 71 -98 71c-65 0 -118 -15 -156 -30v97c39 17 105 29 164 29c164 0 202 -72 202 -178v-334h-66l-18 40c-40 -33 -96 -52 -151 -52c-129 0 -172 80 -172 160c0 108 70 154 183 163l112 9v25zM332 243l-105 -12c-50 -6 -79 -25 -79 -77
c0 -38 16 -74 77 -74c45 0 76 13 107 33v130zM99 605v89h292v-89h-292z" />
    <glyph glyph-name="abreve" unicode="&#x103;" horiz-adv-x="496" 
d="M332 345c0 51 -24 71 -98 71c-65 0 -118 -15 -156 -30v97c39 17 105 29 164 29c164 0 202 -72 202 -178v-334h-66l-18 40c-40 -33 -96 -52 -151 -52c-129 0 -172 80 -172 160c0 108 70 154 183 163l112 9v25zM332 243l-105 -12c-50 -6 -79 -25 -79 -77
c0 -38 16 -74 77 -74c45 0 76 13 107 33v130zM245 550c-132 0 -181 56 -183 200h77c1 -76 27 -111 106 -111s105 35 106 111h77c-2 -144 -51 -200 -183 -200z" />
    <glyph glyph-name="ainvertedbreve" unicode="&#x203;" horiz-adv-x="496" 
d="M332 345c0 51 -24 71 -98 71c-65 0 -118 -15 -156 -30v97c39 17 105 29 164 29c164 0 202 -72 202 -178v-334h-66l-18 40c-40 -33 -96 -52 -151 -52c-129 0 -172 80 -172 160c0 108 70 154 183 163l112 9v25zM332 243l-105 -12c-50 -6 -79 -25 -79 -77
c0 -38 16 -74 77 -74c45 0 76 13 107 33v130zM245 750c132 0 181 -56 183 -200h-77c-1 76 -27 111 -106 111s-105 -35 -106 -111h-77c2 144 51 200 183 200z" />
    <glyph glyph-name="adoublegrave" unicode="&#xe025;" horiz-adv-x="496" 
d="M332 345c0 51 -24 71 -98 71c-65 0 -118 -15 -156 -30v97c39 17 105 29 164 29c164 0 202 -72 202 -178v-334h-66l-18 40c-40 -33 -96 -52 -151 -52c-129 0 -172 80 -172 160c0 108 70 154 183 163l112 9v25zM332 243l-105 -12c-50 -6 -79 -25 -79 -77
c0 -38 16 -74 77 -74c45 0 76 13 107 33v130zM377 550h-94l-99 200h135zM207 550h-94l-99 200h135z" />
    <glyph glyph-name="adotabove" unicode="&#xe026;" horiz-adv-x="496" 
d="M172 648c0 40 33 73 73 73s73 -33 73 -73s-33 -73 -73 -73s-73 33 -73 73zM332 345c0 51 -24 71 -98 71c-65 0 -118 -15 -156 -30v97c39 17 105 29 164 29c164 0 202 -72 202 -178v-334h-66l-18 40c-40 -33 -96 -52 -151 -52c-129 0 -172 80 -172 160
c0 108 70 154 183 163l112 9v25zM332 243l-105 -12c-50 -6 -79 -25 -79 -77c0 -38 16 -74 77 -74c45 0 76 13 107 33v130z" />
    <glyph glyph-name="aringacute" unicode="&#x1fb;" horiz-adv-x="496" 
d="M332 345c0 51 -24 71 -98 71c-65 0 -118 -15 -156 -30v97c39 17 105 29 164 29c164 0 202 -72 202 -178v-334h-66l-18 40c-40 -33 -96 -52 -151 -52c-129 0 -172 80 -172 160c0 108 70 154 183 163l112 9v25zM350 650c0 -70 -43 -103 -105 -103c-61 0 -105 33 -105 103
c0 14 2 27 4 34l50 154h100l-44 -85c66 -3 100 -40 100 -103zM332 243l-105 -12c-50 -6 -79 -25 -79 -77c0 -38 16 -74 77 -74c45 0 76 13 107 33v130zM207 650c0 -27 15 -37 38 -37s39 10 39 37s-16 37 -39 37s-38 -10 -38 -37z" />
    <glyph glyph-name="adieresismacron" unicode="&#x1df;" horiz-adv-x="496" 
d="M332 345c0 51 -24 71 -98 71c-65 0 -118 -15 -156 -30v97c39 17 105 29 164 29c164 0 202 -72 202 -178v-334h-66l-18 40c-40 -33 -96 -52 -151 -52c-129 0 -172 80 -172 160c0 108 70 154 183 163l112 9v25zM332 243l-105 -12c-50 -6 -79 -25 -79 -77
c0 -38 16 -74 77 -74c45 0 76 13 107 33v130zM99 720v89h292v-89h-292zM66 619c0 40 33 73 73 73s73 -33 73 -73s-33 -73 -73 -73s-73 33 -73 73zM278 619c0 40 33 73 73 73s73 -33 73 -73s-33 -73 -73 -73s-73 33 -73 73z" />
    <glyph glyph-name="aogonek" unicode="&#x105;" horiz-adv-x="496" 
d="M332 345c0 51 -24 71 -98 71c-65 0 -118 -15 -156 -30v97c39 17 105 29 164 29c164 0 202 -72 202 -178v-334c-55 -25 -106 -64 -106 -125c0 -30 20 -51 56 -51c28 0 51 5 63 9v-68c-16 -6 -42 -15 -85 -15c-67 0 -123 37 -123 109c0 51 27 112 119 162l-8 19
c-40 -33 -96 -52 -151 -52c-129 0 -172 80 -172 160c0 108 70 154 183 163l112 9v25zM332 243l-105 -12c-50 -6 -79 -25 -79 -77c0 -38 16 -74 77 -74c45 0 76 13 107 33v130z" />
    <glyph glyph-name="ae" unicode="&#xe6;" horiz-adv-x="801" 
d="M332 212h-100c-64 0 -84 -26 -84 -66c0 -38 14 -66 77 -66c45 0 86 15 122 46c-8 23 -14 48 -15 86zM559 -12c-80 0 -135 22 -170 62c-56 -47 -119 -62 -180 -62c-129 0 -172 76 -172 154c0 105 65 148 186 148h109v55c0 50 -21 71 -98 71c-64 0 -118 -15 -156 -30v97
c39 17 105 29 164 29c82 0 134 -18 162 -49c37 37 97 48 150 49c176 0 204 -116 204 -254c0 -17 -1 -33 -2 -49h-311c2 -75 29 -124 131 -124c63 0 115 11 159 30v-96c-57 -24 -122 -31 -176 -31zM554 415c-82 0 -105 -53 -109 -128h200c0 68 -4 128 -91 128z" />
    <glyph glyph-name="aeacute" unicode="&#x1fd;" horiz-adv-x="801" 
d="M332 212h-100c-64 0 -84 -26 -84 -66c0 -38 14 -66 77 -66c45 0 86 15 122 46c-8 23 -14 48 -15 86zM559 -12c-80 0 -135 22 -170 62c-56 -47 -119 -62 -180 -62c-129 0 -172 76 -172 154c0 105 65 148 186 148h109v55c0 50 -21 71 -98 71c-64 0 -118 -15 -156 -30v97
c39 17 105 29 164 29c82 0 134 -18 162 -49c37 37 97 48 150 49c176 0 204 -116 204 -254c0 -17 -1 -33 -2 -49h-311c2 -75 29 -124 131 -124c63 0 115 11 159 30v-96c-57 -24 -122 -31 -176 -31zM554 415c-82 0 -105 -53 -109 -128h200c0 68 -4 128 -91 128zM450 550h-94
l58 200h135z" />
    <glyph glyph-name="aemacron" unicode="&#x1e3;" horiz-adv-x="801" 
d="M332 212h-100c-64 0 -84 -26 -84 -66c0 -38 14 -66 77 -66c45 0 86 15 122 46c-8 23 -14 48 -15 86zM559 -12c-80 0 -135 22 -170 62c-56 -47 -119 -62 -180 -62c-129 0 -172 76 -172 154c0 105 65 148 186 148h109v55c0 50 -21 71 -98 71c-64 0 -118 -15 -156 -30v97
c39 17 105 29 164 29c82 0 134 -18 162 -49c37 37 97 48 150 49c176 0 204 -116 204 -254c0 -17 -1 -33 -2 -49h-311c2 -75 29 -124 131 -124c63 0 115 11 159 30v-96c-57 -24 -122 -31 -176 -31zM554 415c-82 0 -105 -53 -109 -128h200c0 68 -4 128 -91 128zM257 605v89
h292v-89h-292z" />
    <glyph glyph-name="cacute" unicode="&#x107;" horiz-adv-x="450" 
d="M154 250c0 -97 28 -163 125 -163c58 0 95 9 131 23v-97c-39 -17 -86 -25 -138 -25c-177 0 -231 106 -231 262s54 262 231 262c52 0 99 -8 138 -25v-97c-36 14 -73 23 -131 23c-97 0 -125 -66 -125 -163zM304 550h-94l58 200h135z" />
    <glyph glyph-name="ccircumflex" unicode="&#x109;" horiz-adv-x="450" 
d="M154 250c0 -97 28 -163 125 -163c58 0 95 9 131 23v-97c-39 -17 -86 -25 -138 -25c-177 0 -231 106 -231 262s54 262 231 262c52 0 99 -8 138 -25v-97c-36 14 -73 23 -131 23c-97 0 -125 -66 -125 -163zM356 550l-93 113l-93 -113h-95l131 200h114l131 -200h-95z" />
    <glyph glyph-name="ccaron" unicode="&#x10d;" horiz-adv-x="450" 
d="M154 250c0 -97 28 -163 125 -163c58 0 95 9 131 23v-97c-39 -17 -86 -25 -138 -25c-177 0 -231 106 -231 262s54 262 231 262c52 0 99 -8 138 -25v-97c-36 14 -73 23 -131 23c-97 0 -125 -66 -125 -163zM257 637l93 113h95l-131 -200h-114l-131 200h95z" />
    <glyph glyph-name="cdotaccent" unicode="&#x10b;" horiz-adv-x="450" 
d="M184 648c0 40 33 73 73 73s73 -33 73 -73s-33 -73 -73 -73s-73 33 -73 73zM154 250c0 -97 28 -163 125 -163c58 0 95 9 131 23v-97c-39 -17 -86 -25 -138 -25c-177 0 -231 106 -231 262s54 262 231 262c52 0 99 -8 138 -25v-97c-36 14 -73 23 -131 23
c-97 0 -125 -66 -125 -163z" />
    <glyph glyph-name="ccedilla" unicode="&#xe7;" horiz-adv-x="450" 
d="M154 250c0 -97 28 -163 125 -163c58 0 95 9 131 23v-97c-37 -16 -81 -24 -130 -25l3 -48c51 -12 93 -38 93 -93c0 -64 -49 -97 -119 -97c-49 0 -83 12 -97 19v76c10 -4 44 -18 82 -18c34 0 54 8 54 30c0 31 -26 42 -81 49l9 85c-139 18 -183 118 -183 259
c0 156 54 262 231 262c52 0 99 -8 138 -25v-97c-36 14 -73 23 -131 23c-97 0 -125 -66 -125 -163z" />
    <glyph glyph-name="dcaron" unicode="&#x10f;" horiz-adv-x="552" 
d="M548 750h88l-48 -200h-56zM241 512c50 0 98 -16 134 -39v277h112v-750h-66l-18 40c-44 -32 -95 -52 -162 -52c-146 0 -200 98 -200 262c0 163 54 262 200 262zM267 417c-98 0 -113 -75 -113 -167c0 -93 15 -167 113 -167c53 0 88 18 108 29v276c-20 11 -55 29 -108 29z
" />
    <glyph glyph-name="dcedilla" unicode="&#x1e11;" horiz-adv-x="542" 
d="M241 512c50 0 98 -16 134 -39v277h112v-750h-66l-18 40c-44 -32 -95 -52 -162 -52c-146 0 -200 98 -200 262c0 163 54 262 200 262zM267 417c-98 0 -113 -75 -113 -167c0 -93 15 -167 113 -167c53 0 88 18 108 29v276c-20 11 -55 29 -108 29zM228 -94l5 50
c116 -10 156 -55 156 -109c0 -64 -49 -97 -119 -97c-49 0 -83 12 -97 19v76c10 -4 44 -18 82 -18c34 0 54 8 54 30c0 31 -26 42 -81 49z" />
    <glyph glyph-name="ddotbelow" unicode="&#x1e0d;" horiz-adv-x="542" 
d="M241 512c50 0 98 -16 134 -39v277h112v-750h-66l-18 40c-44 -32 -95 -52 -162 -52c-146 0 -200 98 -200 262c0 163 54 262 200 262zM267 417c-98 0 -113 -75 -113 -167c0 -93 15 -167 113 -167c53 0 88 18 108 29v276c-20 11 -55 29 -108 29zM343 -148
c0 -40 -33 -73 -73 -73s-73 33 -73 73s33 73 73 73s73 -33 73 -73z" />
    <glyph glyph-name="dcroat" unicode="&#x111;" horiz-adv-x="542" 
d="M576 661v-84h-89v-577h-66l-18 40c-44 -32 -95 -52 -162 -52c-146 0 -200 98 -200 262c0 163 54 262 200 262c50 0 98 -16 134 -39v104h-122v84h122v89h112v-89h89zM267 417c-98 0 -113 -75 -113 -167c0 -93 15 -167 113 -167c53 0 88 18 108 29v276
c-20 11 -55 29 -108 29z" />
    <glyph glyph-name="eacute" unicode="&#xe9;" horiz-adv-x="510" 
d="M41 250c0 161 59 262 222 262c176 0 204 -116 204 -254c0 -17 -1 -33 -2 -49h-311c2 -75 29 -124 131 -124c63 0 115 11 159 30v-96c-57 -24 -122 -31 -176 -31c-167 0 -227 100 -227 262zM263 415c-82 0 -105 -53 -109 -128h200c0 68 -4 128 -91 128zM310 550h-94
l58 200h135z" />
    <glyph glyph-name="egrave" unicode="&#xe8;" horiz-adv-x="510" 
d="M41 250c0 161 59 262 222 262c176 0 204 -116 204 -254c0 -17 -1 -33 -2 -49h-311c2 -75 29 -124 131 -124c63 0 115 11 159 30v-96c-57 -24 -122 -31 -176 -31c-167 0 -227 100 -227 262zM263 415c-82 0 -105 -53 -109 -128h200c0 68 -4 128 -91 128zM310 550h-94
l-99 200h135z" />
    <glyph glyph-name="ecircumflex" unicode="&#xea;" horiz-adv-x="510" 
d="M41 250c0 161 59 262 222 262c176 0 204 -116 204 -254c0 -17 -1 -33 -2 -49h-311c2 -75 29 -124 131 -124c63 0 115 11 159 30v-96c-57 -24 -122 -31 -176 -31c-167 0 -227 100 -227 262zM356 550l-93 113l-93 -113h-95l131 200h114l131 -200h-95zM263 415
c-82 0 -105 -53 -109 -128h200c0 68 -4 128 -91 128z" />
    <glyph glyph-name="edieresis" unicode="&#xeb;" horiz-adv-x="510" 
d="M41 250c0 161 59 262 222 262c176 0 204 -116 204 -254c0 -17 -1 -33 -2 -49h-311c2 -75 29 -124 131 -124c63 0 115 11 159 30v-96c-57 -24 -122 -31 -176 -31c-167 0 -227 100 -227 262zM263 415c-82 0 -105 -53 -109 -128h200c0 68 -4 128 -91 128zM84 648
c0 40 33 73 73 73s73 -33 73 -73s-33 -73 -73 -73s-73 33 -73 73zM296 648c0 40 33 73 73 73s73 -33 73 -73s-33 -73 -73 -73s-73 33 -73 73z" />
    <glyph glyph-name="ecaron" unicode="&#x11b;" horiz-adv-x="510" 
d="M41 250c0 161 59 262 222 262c176 0 204 -116 204 -254c0 -17 -1 -33 -2 -49h-311c2 -75 29 -124 131 -124c63 0 115 11 159 30v-96c-57 -24 -122 -31 -176 -31c-167 0 -227 100 -227 262zM263 637l93 113h95l-131 -200h-114l-131 200h95zM263 415
c-82 0 -105 -53 -109 -128h200c0 68 -4 128 -91 128z" />
    <glyph glyph-name="emacron" unicode="&#x113;" horiz-adv-x="510" 
d="M41 250c0 161 59 262 222 262c176 0 204 -116 204 -254c0 -17 -1 -33 -2 -49h-311c2 -75 29 -124 131 -124c63 0 115 11 159 30v-96c-57 -24 -122 -31 -176 -31c-167 0 -227 100 -227 262zM263 415c-82 0 -105 -53 -109 -128h200c0 68 -4 128 -91 128zM117 605v89h292
v-89h-292z" />
    <glyph glyph-name="ebreve" unicode="&#x115;" horiz-adv-x="510" 
d="M41 250c0 161 59 262 222 262c176 0 204 -116 204 -254c0 -17 -1 -33 -2 -49h-311c2 -75 29 -124 131 -124c63 0 115 11 159 30v-96c-57 -24 -122 -31 -176 -31c-167 0 -227 100 -227 262zM263 415c-82 0 -105 -53 -109 -128h200c0 68 -4 128 -91 128zM263 550
c-132 0 -181 56 -183 200h77c1 -76 27 -111 106 -111s105 35 106 111h77c-2 -144 -51 -200 -183 -200z" />
    <glyph glyph-name="einvertedbreve" unicode="&#x207;" horiz-adv-x="510" 
d="M41 250c0 161 59 262 222 262c176 0 204 -116 204 -254c0 -17 -1 -33 -2 -49h-311c2 -75 29 -124 131 -124c63 0 115 11 159 30v-96c-57 -24 -122 -31 -176 -31c-167 0 -227 100 -227 262zM263 415c-82 0 -105 -53 -109 -128h200c0 68 -4 128 -91 128zM263 750
c132 0 181 -56 183 -200h-77c-1 76 -27 111 -106 111s-105 -35 -106 -111h-77c2 144 51 200 183 200z" />
    <glyph glyph-name="edoublegrave" unicode="&#xe027;" horiz-adv-x="510" 
d="M41 250c0 161 59 262 222 262c176 0 204 -116 204 -254c0 -17 -1 -33 -2 -49h-311c2 -75 29 -124 131 -124c63 0 115 11 159 30v-96c-57 -24 -122 -31 -176 -31c-167 0 -227 100 -227 262zM263 415c-82 0 -105 -53 -109 -128h200c0 68 -4 128 -91 128zM395 550h-94
l-99 200h135zM225 550h-94l-99 200h135z" />
    <glyph glyph-name="edotaccent" unicode="&#x117;" horiz-adv-x="510" 
d="M41 250c0 161 59 262 222 262c176 0 204 -116 204 -254c0 -17 -1 -33 -2 -49h-311c2 -75 29 -124 131 -124c63 0 115 11 159 30v-96c-57 -24 -122 -31 -176 -31c-167 0 -227 100 -227 262zM263 415c-82 0 -105 -53 -109 -128h200c0 68 -4 128 -91 128zM190 648
c0 40 33 73 73 73s73 -33 73 -73s-33 -73 -73 -73s-73 33 -73 73z" />
    <glyph glyph-name="eacutedotbelow" unicode="&#xe028;" horiz-adv-x="510" 
d="M41 250c0 161 59 262 222 262c176 0 204 -116 204 -254c0 -17 -1 -33 -2 -49h-311c2 -75 29 -124 131 -124c63 0 115 11 159 30v-96c-57 -24 -122 -31 -176 -31c-167 0 -227 100 -227 262zM263 415c-82 0 -105 -53 -109 -128h200c0 68 -4 128 -91 128zM336 -148
c0 -40 -33 -73 -73 -73s-73 33 -73 73s33 73 73 73s73 -33 73 -73zM310 550h-94l58 200h135z" />
    <glyph glyph-name="egravedotbelow" unicode="&#xe029;" horiz-adv-x="510" 
d="M41 250c0 161 59 262 222 262c176 0 204 -116 204 -254c0 -17 -1 -33 -2 -49h-311c2 -75 29 -124 131 -124c63 0 115 11 159 30v-96c-57 -24 -122 -31 -176 -31c-167 0 -227 100 -227 262zM263 415c-82 0 -105 -53 -109 -128h200c0 68 -4 128 -91 128zM336 -148
c0 -40 -33 -73 -73 -73s-73 33 -73 73s33 73 73 73s73 -33 73 -73zM310 550h-94l-99 200h135z" />
    <glyph glyph-name="eogonek" unicode="&#x119;" horiz-adv-x="510" 
d="M41 250c0 161 59 262 222 262c176 0 204 -116 204 -254c0 -17 -1 -33 -2 -49h-311c2 -75 29 -124 131 -124c63 0 115 11 159 30v-96c-20 -9 -41 -15 -62 -19c-55 -25 -105 -64 -105 -125c0 -30 20 -51 56 -51c28 0 51 5 63 9v-68c-16 -6 -42 -15 -85 -15
c-67 0 -123 37 -123 109c0 40 17 87 69 129c-159 4 -216 103 -216 262zM263 415c-82 0 -105 -53 -109 -128h200c0 68 -4 128 -91 128z" />
    <glyph glyph-name="gacute" unicode="&#x1f5;" horiz-adv-x="524" 
d="M454 322c0 -114 -56 -190 -209 -190c-21 0 -41 1 -58 4c-8 -8 -14 -19 -14 -29c0 -17 9 -26 30 -29l181 -22c99 -12 134 -57 134 -140c0 -129 -136 -178 -281 -178c-134 0 -231 43 -231 146c0 68 51 108 104 124v1c-25 14 -39 42 -39 69c0 37 22 63 45 81
c-57 32 -80 90 -80 163c0 114 56 190 209 190c36 0 66 -4 92 -12h173v-71l-71 -20c10 -26 15 -55 15 -87zM352 -33l-142 18c-51 -9 -97 -32 -97 -80c0 -56 40 -78 132 -78c88 0 165 26 165 86c0 34 -17 49 -58 54zM142 322c0 -57 19 -101 103 -101s103 44 103 101
s-19 101 -103 101s-103 -44 -103 -101zM292 550h-94l58 200h135z" />
    <glyph glyph-name="gcircumflex" unicode="&#x11d;" horiz-adv-x="524" 
d="M454 322c0 -114 -56 -190 -209 -190c-21 0 -41 1 -58 4c-8 -8 -14 -19 -14 -29c0 -17 9 -26 30 -29l181 -22c99 -12 134 -57 134 -140c0 -129 -136 -178 -281 -178c-134 0 -231 43 -231 146c0 68 51 108 104 124v1c-25 14 -39 42 -39 69c0 37 22 63 45 81
c-57 32 -80 90 -80 163c0 114 56 190 209 190c36 0 66 -4 92 -12h173v-71l-71 -20c10 -26 15 -55 15 -87zM338 550l-93 113l-93 -113h-95l131 200h114l131 -200h-95zM352 -33l-142 18c-51 -9 -97 -32 -97 -80c0 -56 40 -78 132 -78c88 0 165 26 165 86c0 34 -17 49 -58 54z
M142 322c0 -57 19 -101 103 -101s103 44 103 101s-19 101 -103 101s-103 -44 -103 -101z" />
    <glyph glyph-name="gtilde" unicode="&#xe02a;" horiz-adv-x="524" 
d="M454 322c0 -114 -56 -190 -209 -190c-21 0 -41 1 -58 4c-8 -8 -14 -19 -14 -29c0 -17 9 -26 30 -29l181 -22c99 -12 134 -57 134 -140c0 -129 -136 -178 -281 -178c-134 0 -231 43 -231 146c0 68 51 108 104 124v1c-25 14 -39 42 -39 69c0 37 22 63 45 81
c-57 32 -80 90 -80 163c0 114 56 190 209 190c36 0 66 -4 92 -12h173v-71l-71 -20c10 -26 15 -55 15 -87zM373 707h75c0 -81 -31 -140 -122 -140c-88 0 -108 74 -161 74c-43 0 -48 -29 -48 -54h-75c0 81 31 140 122 140c88 0 108 -74 161 -74c43 0 48 29 48 54zM352 -33
l-142 18c-51 -9 -97 -32 -97 -80c0 -56 40 -78 132 -78c88 0 165 26 165 86c0 34 -17 49 -58 54zM142 322c0 -57 19 -101 103 -101s103 44 103 101s-19 101 -103 101s-103 -44 -103 -101z" />
    <glyph glyph-name="gcaron" unicode="&#x1e7;" horiz-adv-x="524" 
d="M454 322c0 -114 -56 -190 -209 -190c-21 0 -41 1 -58 4c-8 -8 -14 -19 -14 -29c0 -17 9 -26 30 -29l181 -22c99 -12 134 -57 134 -140c0 -129 -136 -178 -281 -178c-134 0 -231 43 -231 146c0 68 51 108 104 124v1c-25 14 -39 42 -39 69c0 37 22 63 45 81
c-57 32 -80 90 -80 163c0 114 56 190 209 190c36 0 66 -4 92 -12h173v-71l-71 -20c10 -26 15 -55 15 -87zM245 637l93 113h95l-131 -200h-114l-131 200h95zM352 -33l-142 18c-51 -9 -97 -32 -97 -80c0 -56 40 -78 132 -78c88 0 165 26 165 86c0 34 -17 49 -58 54zM142 322
c0 -57 19 -101 103 -101s103 44 103 101s-19 101 -103 101s-103 -44 -103 -101z" />
    <glyph glyph-name="gbreve" unicode="&#x11f;" horiz-adv-x="524" 
d="M454 322c0 -114 -56 -190 -209 -190c-21 0 -41 1 -58 4c-8 -8 -14 -19 -14 -29c0 -17 9 -26 30 -29l181 -22c99 -12 134 -57 134 -140c0 -129 -136 -178 -281 -178c-134 0 -231 43 -231 146c0 68 51 108 104 124v1c-25 14 -39 42 -39 69c0 37 22 63 45 81
c-57 32 -80 90 -80 163c0 114 56 190 209 190c36 0 66 -4 92 -12h173v-71l-71 -20c10 -26 15 -55 15 -87zM245 550c-132 0 -181 56 -183 200h77c1 -76 27 -111 106 -111s105 35 106 111h77c-2 -144 -51 -200 -183 -200zM352 -33l-142 18c-51 -9 -97 -32 -97 -80
c0 -56 40 -78 132 -78c88 0 165 26 165 86c0 34 -17 49 -58 54zM142 322c0 -57 19 -101 103 -101s103 44 103 101s-19 101 -103 101s-103 -44 -103 -101z" />
    <glyph glyph-name="gdotaccent" unicode="&#x121;" horiz-adv-x="524" 
d="M454 322c0 -114 -56 -190 -209 -190c-21 0 -41 1 -58 4c-8 -8 -14 -19 -14 -29c0 -17 9 -26 30 -29l181 -22c99 -12 134 -57 134 -140c0 -129 -136 -178 -281 -178c-134 0 -231 43 -231 146c0 68 51 108 104 124v1c-25 14 -39 42 -39 69c0 37 22 63 45 81
c-57 32 -80 90 -80 163c0 114 56 190 209 190c36 0 66 -4 92 -12h173v-71l-71 -20c10 -26 15 -55 15 -87zM352 -33l-142 18c-51 -9 -97 -32 -97 -80c0 -56 40 -78 132 -78c88 0 165 26 165 86c0 34 -17 49 -58 54zM142 322c0 -57 19 -101 103 -101s103 44 103 101
s-19 101 -103 101s-103 -44 -103 -101zM172 648c0 40 33 73 73 73s73 -33 73 -73s-33 -73 -73 -73s-73 33 -73 73z" />
    <glyph glyph-name="gcommaaccent" unicode="&#x123;" horiz-adv-x="524" 
d="M454 322c0 -114 -56 -190 -209 -190c-21 0 -41 1 -58 4c-8 -8 -14 -19 -14 -29c0 -17 9 -26 30 -29l181 -22c99 -12 134 -57 134 -140c0 -129 -136 -178 -281 -178c-134 0 -231 43 -231 146c0 68 51 108 104 124v1c-25 14 -39 42 -39 69c0 37 22 63 45 81
c-57 32 -80 90 -80 163c0 114 56 190 209 190c36 0 66 -4 92 -12h173v-71l-71 -20c10 -26 15 -55 15 -87zM352 -33l-142 18c-51 -9 -97 -32 -97 -80c0 -56 40 -78 132 -78c88 0 165 26 165 86c0 34 -17 49 -58 54zM142 322c0 -57 19 -101 103 -101s103 44 103 101
s-19 101 -103 101s-103 -44 -103 -101zM307 550h-133l65 200h89z" />
    <glyph glyph-name="gcommaturnedabove" unicode="&#xe02b;" horiz-adv-x="524" 
d="M454 322c0 -114 -56 -190 -209 -190c-21 0 -41 1 -58 4c-8 -8 -14 -19 -14 -29c0 -17 9 -26 30 -29l181 -22c99 -12 134 -57 134 -140c0 -129 -136 -178 -281 -178c-134 0 -231 43 -231 146c0 68 51 108 104 124v1c-25 14 -39 42 -39 69c0 37 22 63 45 81
c-57 32 -80 90 -80 163c0 114 56 190 209 190c36 0 66 -4 92 -12h173v-71l-71 -20c10 -26 15 -55 15 -87zM352 -33l-142 18c-51 -9 -97 -32 -97 -80c0 -56 40 -78 132 -78c88 0 165 26 165 86c0 34 -17 49 -58 54zM142 322c0 -57 19 -101 103 -101s103 44 103 101
s-19 101 -103 101s-103 -44 -103 -101zM307 550h-133l65 200h89z" />
    <glyph glyph-name="gstroke" unicode="&#x1e5;" horiz-adv-x="529" 
d="M568 -54v-84h-60c-33 -89 -149 -124 -271 -124c-124 0 -217 37 -230 124h-51v84h67c19 32 53 52 87 62v1c-25 14 -39 42 -39 69c0 37 22 63 45 81c-57 32 -80 90 -80 163c0 114 56 190 209 190c36 0 66 -4 92 -12h173v-71l-71 -20c10 -26 15 -55 15 -87
c0 -114 -56 -190 -209 -190c-21 0 -41 1 -58 4c-8 -8 -14 -19 -14 -29c0 -17 9 -26 30 -29l181 -22c86 -11 124 -46 132 -110h52zM142 322c0 -57 19 -101 103 -101s103 44 103 101s-19 101 -103 101s-103 -44 -103 -101zM352 -33l-142 18c-34 -6 -65 -18 -83 -39h274
c-9 12 -25 18 -49 21zM245 -173c57 0 109 11 139 35h-259c18 -24 57 -35 120 -35z" />
    <glyph glyph-name="hcircumflex" unicode="&#x125;" horiz-adv-x="524" 
d="M361 343c0 51 -26 74 -79 74c-52 0 -88 -14 -115 -29v-388h-112v750h112v-275c39 23 83 37 134 37c127 0 172 -63 172 -159v-353h-112v343zM295 795h-98l-86 50l-86 -50h-98l127 110h114z" />
    <glyph glyph-name="hcaron" unicode="&#xe02c;" horiz-adv-x="524" 
d="M361 343c0 51 -26 74 -79 74c-52 0 -88 -14 -115 -29v-388h-112v750h112v-275c39 23 83 37 134 37c127 0 172 -63 172 -159v-353h-112v343zM-73 905h98l86 -50l86 50h98l-127 -110h-114z" />
    <glyph glyph-name="hdotbelow" unicode="&#x1e25;" horiz-adv-x="524" 
d="M361 343c0 51 -26 74 -79 74c-52 0 -88 -14 -115 -29v-388h-112v750h112v-275c39 23 83 37 134 37c127 0 172 -63 172 -159v-353h-112v343zM337 -148c0 -40 -33 -73 -73 -73s-73 33 -73 73s33 73 73 73s73 -33 73 -73z" />
    <glyph glyph-name="hmacronbelow" unicode="&#xe02d;" horiz-adv-x="524" 
d="M361 343c0 51 -26 74 -79 74c-52 0 -88 -14 -115 -29v-388h-112v750h112v-275c39 23 83 37 134 37c127 0 172 -63 172 -159v-353h-112v343zM410 -105v-89h-292v89h292z" />
    <glyph glyph-name="hbar" unicode="&#x127;" horiz-adv-x="524" 
d="M-34 577v84h89v89h112v-89h122v-84h-122v-102c39 23 83 37 134 37c127 0 172 -63 172 -159v-353h-112v343c0 51 -26 74 -79 74c-52 0 -88 -14 -115 -29v-388h-112v577h-89z" />
    <glyph glyph-name="dotlessi" unicode="&#x131;" horiz-adv-x="257" 
d="M197 -7c-91 0 -132 44 -132 130v377h112v-376c0 -28 10 -38 42 -38v-91s-10 -2 -22 -2z" />
    <glyph glyph-name="iacute" unicode="&#xed;" horiz-adv-x="257" 
d="M168 550h-94l58 200h135zM197 -7c-91 0 -132 44 -132 130v377h112v-376c0 -28 10 -38 42 -38v-91s-10 -2 -22 -2z" />
    <glyph glyph-name="igrave" unicode="&#xec;" horiz-adv-x="257" 
d="M168 550h-94l-99 200h135zM197 -7c-91 0 -132 44 -132 130v377h112v-376c0 -28 10 -38 42 -38v-91s-10 -2 -22 -2z" />
    <glyph glyph-name="icircumflex" unicode="&#xee;" horiz-adv-x="257" 
d="M197 -7c-91 0 -132 44 -132 130v377h112v-376c0 -28 10 -38 42 -38v-91s-10 -2 -22 -2zM214 550l-93 113l-93 -113h-95l131 200h114l131 -200h-95z" />
    <glyph glyph-name="idieresis" unicode="&#xef;" horiz-adv-x="257" 
d="M197 -7c-91 0 -132 44 -132 130v377h112v-376c0 -28 10 -38 42 -38v-91s-10 -2 -22 -2zM-48 648c0 40 33 73 73 73s73 -33 73 -73s-33 -73 -73 -73s-73 33 -73 73zM144 648c0 40 33 73 73 73s73 -33 73 -73s-33 -73 -73 -73s-73 33 -73 73z" />
    <glyph glyph-name="itilde" unicode="&#x129;" horiz-adv-x="257" 
d="M249 707h75c0 -81 -31 -140 -122 -140c-88 0 -108 74 -161 74c-43 0 -48 -29 -48 -54h-75c0 81 31 140 122 140c88 0 108 -74 161 -74c43 0 48 29 48 54zM197 -7c-91 0 -132 44 -132 130v377h112v-376c0 -28 10 -38 42 -38v-91s-10 -2 -22 -2z" />
    <glyph glyph-name="icaron" unicode="&#x1d0;" horiz-adv-x="257" 
d="M197 -7c-91 0 -132 44 -132 130v377h112v-376c0 -28 10 -38 42 -38v-91s-10 -2 -22 -2zM121 637l93 113h95l-131 -200h-114l-131 200h95z" />
    <glyph glyph-name="imacron" unicode="&#x12b;" horiz-adv-x="257" 
d="M-25 605v89h292v-89h-292zM197 -7c-91 0 -132 44 -132 130v377h112v-376c0 -28 10 -38 42 -38v-91s-10 -2 -22 -2z" />
    <glyph glyph-name="ibreve" unicode="&#xe02e;" horiz-adv-x="257" 
d="M121 550c-132 0 -181 56 -183 200h77c1 -76 27 -111 106 -111s105 35 106 111h77c-2 -144 -51 -200 -183 -200zM197 -7c-91 0 -132 44 -132 130v377h112v-376c0 -28 10 -38 42 -38v-91s-10 -2 -22 -2z" />
    <glyph glyph-name="iinvertedbreve" unicode="&#x20b;" horiz-adv-x="257" 
d="M121 750c132 0 181 -56 183 -200h-77c-1 76 -27 111 -106 111s-105 -35 -106 -111h-77c2 144 51 200 183 200zM197 -7c-91 0 -132 44 -132 130v377h112v-376c0 -28 10 -38 42 -38v-91s-10 -2 -22 -2z" />
    <glyph glyph-name="idoublegrave" unicode="&#xe02f;" horiz-adv-x="257" 
d="M243 550h-94l-99 200h135zM93 550h-94l-99 200h135zM197 -7c-91 0 -132 44 -132 130v377h112v-376c0 -28 10 -38 42 -38v-91s-10 -2 -22 -2z" />
    <glyph glyph-name="idotaccent" unicode="&#xe030;" horiz-adv-x="257" 
d="M48 648c0 40 33 73 73 73s73 -33 73 -73s-33 -73 -73 -73s-73 33 -73 73zM197 -7c-91 0 -132 44 -132 130v377h112v-376c0 -28 10 -38 42 -38v-91s-10 -2 -22 -2z" />
    <glyph glyph-name="idotbelow" unicode="&#x1ecb;" horiz-adv-x="257" 
d="M48 648c0 40 33 73 73 73s73 -33 73 -73s-33 -73 -73 -73s-73 33 -73 73zM197 -7c-91 0 -132 44 -132 130v377h112v-376c0 -28 10 -38 42 -38v-91s-10 -2 -22 -2zM204 -148c0 -40 -33 -73 -73 -73s-73 33 -73 73s33 73 73 73s73 -33 73 -73z" />
    <glyph glyph-name="iogonek" unicode="&#x12f;" horiz-adv-x="257" 
d="M219 86v-91c-53 -20 -98 -77 -98 -120c0 -30 20 -51 56 -51c28 0 51 5 63 9v-68c-16 -6 -42 -15 -85 -15c-67 0 -123 37 -123 109c0 46 20 95 87 150c-37 20 -54 58 -54 114v377h112v-376c0 -28 10 -38 42 -38zM48 648c0 40 33 73 73 73s73 -33 73 -73s-33 -73 -73 -73
s-73 33 -73 73z" />
    <glyph glyph-name="dotlessj" unicode="&#x237;" horiz-adv-x="242" 
d="M-51 -262v104c71 0 116 38 116 100v558h112v-580c0 -123 -117 -182 -228 -182z" />
    <glyph glyph-name="jcircumflex" unicode="&#x135;" horiz-adv-x="242" 
d="M-51 -262v104c71 0 116 38 116 100v558h112v-580c0 -123 -117 -182 -228 -182zM213 550l-93 113l-93 -113h-95l131 200h114l131 -200h-95z" />
    <glyph glyph-name="jcaron" unicode="&#x1f0;" horiz-adv-x="242" 
d="M-51 -262v104c71 0 116 38 116 100v558h112v-580c0 -123 -117 -182 -228 -182zM27 750l93 -113l93 113h95l-131 -200h-114l-131 200h95z" />
    <glyph glyph-name="kcaron" unicode="&#x1e9;" horiz-adv-x="522" 
d="M-73 905h98l86 -50l86 50h98l-127 -110h-114zM489 500l-203 -206l224 -294h-139l-156 222l-48 -49v-173h-112v750h112v-444l177 194h145z" />
    <glyph glyph-name="kcommaaccent" unicode="&#x137;" horiz-adv-x="522" 
d="M489 500l-203 -206l224 -294h-139l-156 222l-48 -49v-173h-112v750h112v-444l177 194h145zM201 -50h133l-65 -200h-89z" />
    <glyph glyph-name="kcedilla" unicode="&#xe031;" horiz-adv-x="522" 
d="M489 500l-203 -206l224 -294h-139l-156 222l-48 -49v-173h-112v750h112v-444l177 194h145zM211 -94l5 50c116 -10 156 -55 156 -109c0 -64 -49 -97 -119 -97c-49 0 -83 12 -97 19v76c10 -4 44 -18 82 -18c34 0 54 8 54 30c0 31 -26 42 -81 49z" />
    <glyph glyph-name="khook" unicode="&#x199;" horiz-adv-x="522" 
d="M283 762v-104c-71 0 -116 -38 -116 -100v-252l177 194h145l-203 -206l224 -294h-139l-156 222l-48 -49v-173h-112v580c0 123 117 182 228 182z" />
    <glyph glyph-name="kgreenlandic" unicode="&#x138;" horiz-adv-x="522" 
d="M489 500l-203 -206l224 -294h-139l-156 222l-48 -49v-173h-112v500h112v-194l177 194h145z" />
    <glyph glyph-name="lacute" unicode="&#x13a;" horiz-adv-x="257" 
d="M197 -7c-91 0 -132 44 -132 130v627h112v-626c0 -28 10 -38 42 -38v-91s-10 -2 -22 -2zM168 795h-94l58 110h135z" />
    <glyph glyph-name="lcaron" unicode="&#x13e;" horiz-adv-x="267" 
d="M197 -7c-91 0 -132 44 -132 130v627h112v-626c0 -28 10 -38 42 -38v-91s-10 -2 -22 -2zM238 750h88l-48 -200h-56z" />
    <glyph glyph-name="lcommaaccent" unicode="&#x13c;" horiz-adv-x="257" 
d="M197 -7c-91 0 -132 44 -132 130v627h112v-626c0 -28 10 -38 42 -38v-91s-10 -2 -22 -2zM79 -50h133l-65 -200h-89z" />
    <glyph glyph-name="lcedilla" unicode="&#xe032;" horiz-adv-x="257" 
d="M197 -7c-91 0 -132 44 -132 130v627h112v-626c0 -28 10 -38 42 -38v-91s-10 -2 -22 -2zM89 -94l5 50c116 -10 156 -55 156 -109c0 -64 -49 -97 -119 -97c-49 0 -83 12 -97 19v76c10 -4 44 -18 82 -18c34 0 54 8 54 30c0 31 -26 42 -81 49z" />
    <glyph glyph-name="ldotbelow" unicode="&#x1e37;" horiz-adv-x="257" 
d="M197 -7c-91 0 -132 44 -132 130v627h112v-626c0 -28 10 -38 42 -38v-91s-10 -2 -22 -2zM214 -148c0 -40 -33 -73 -73 -73s-73 33 -73 73s33 73 73 73s73 -33 73 -73z" />
    <glyph glyph-name="ldotbelowmacron" unicode="&#x1e39;" horiz-adv-x="257" 
d="M197 -7c-91 0 -132 44 -132 130v627h112v-626c0 -28 10 -38 42 -38v-91s-10 -2 -22 -2zM214 -148c0 -40 -33 -73 -73 -73s-73 33 -73 73s33 73 73 73s73 -33 73 -73zM-25 805v89h292v-89h-292z" />
    <glyph glyph-name="ldot" unicode="&#x140;" horiz-adv-x="384" 
d="M197 -7c-91 0 -132 44 -132 130v627h112v-626c0 -28 10 -38 42 -38v-91s-10 -2 -22 -2zM240 306c0 40 33 73 73 73s73 -33 73 -73s-33 -73 -73 -73s-73 33 -73 73z" />
    <glyph glyph-name="lslash" unicode="&#x142;" horiz-adv-x="304" 
d="M215 -7c-91 0 -132 44 -132 130v171l-72 -43v92l72 43v364h112v-298l100 60v-92l-100 -60v-236c0 -28 10 -38 42 -38v-91s-10 -2 -22 -2z" />
    <glyph glyph-name="mmacron" unicode="&#xe033;" horiz-adv-x="794" 
d="M631 0v353c0 47 -27 64 -71 64c-49 0 -82 -15 -108 -31c2 -18 3 -35 3 -55v-331h-112v353c0 47 -26 64 -71 64c-46 0 -79 -14 -105 -29v-388h-112v500h66l18 -40c42 33 102 52 151 52c67 0 107 -19 128 -50c45 32 105 50 160 50c118 0 165 -64 165 -159v-353h-112z
M251 605v89h292v-89h-292z" />
    <glyph glyph-name="mcedilla" unicode="&#xe034;" horiz-adv-x="794" 
d="M631 0v353c0 47 -27 64 -71 64c-49 0 -82 -15 -108 -31c2 -18 3 -35 3 -55v-331h-112v353c0 47 -26 64 -71 64c-46 0 -79 -14 -105 -29v-388h-112v500h66l18 -40c42 33 102 52 151 52c67 0 107 -19 128 -50c45 32 105 50 160 50c118 0 165 -64 165 -159v-353h-112z
M356 -94l5 50c116 -10 156 -55 156 -109c0 -64 -49 -97 -119 -97c-49 0 -83 12 -97 19v76c10 -4 44 -18 82 -18c34 0 54 8 54 30c0 31 -26 42 -81 49z" />
    <glyph glyph-name="mdotbelow" unicode="&#x1e43;" horiz-adv-x="794" 
d="M631 0v353c0 47 -27 64 -71 64c-49 0 -82 -15 -108 -31c2 -18 3 -35 3 -55v-331h-112v353c0 47 -26 64 -71 64c-46 0 -79 -14 -105 -29v-388h-112v500h66l18 -40c42 33 102 52 151 52c67 0 107 -19 128 -50c45 32 105 50 160 50c118 0 165 -64 165 -159v-353h-112z
M472 -148c0 -40 -33 -73 -73 -73s-73 33 -73 73s33 73 73 73s73 -33 73 -73z" />
    <glyph glyph-name="nacute" unicode="&#x144;" horiz-adv-x="524" 
d="M473 0h-112v343c0 51 -26 74 -79 74c-52 0 -88 -14 -115 -29v-388h-112v500h66l18 -40c51 35 108 52 162 52c127 0 172 -63 172 -159v-353zM313 550h-94l58 200h135z" />
    <glyph glyph-name="ngrave" unicode="&#xe035;" horiz-adv-x="524" 
d="M473 0h-112v343c0 51 -26 74 -79 74c-52 0 -88 -14 -115 -29v-388h-112v500h66l18 -40c51 35 108 52 162 52c127 0 172 -63 172 -159v-353zM313 550h-94l-99 200h135z" />
    <glyph glyph-name="ndieresis" unicode="&#xe036;" horiz-adv-x="524" 
d="M473 0h-112v343c0 51 -26 74 -79 74c-52 0 -88 -14 -115 -29v-388h-112v500h66l18 -40c51 35 108 52 162 52c127 0 172 -63 172 -159v-353zM87 648c0 40 33 73 73 73s73 -33 73 -73s-33 -73 -73 -73s-73 33 -73 73zM299 648c0 40 33 73 73 73s73 -33 73 -73
s-33 -73 -73 -73s-73 33 -73 73z" />
    <glyph glyph-name="ntilde" unicode="&#xf1;" horiz-adv-x="524" 
d="M473 0h-112v343c0 51 -26 74 -79 74c-52 0 -88 -14 -115 -29v-388h-112v500h66l18 -40c51 35 108 52 162 52c127 0 172 -63 172 -159v-353zM394 707h75c0 -81 -31 -140 -122 -140c-88 0 -108 74 -161 74c-43 0 -48 -29 -48 -54h-75c0 81 31 140 122 140
c88 0 108 -74 161 -74c43 0 48 29 48 54z" />
    <glyph glyph-name="ncaron" unicode="&#x148;" horiz-adv-x="524" 
d="M473 0h-112v343c0 51 -26 74 -79 74c-52 0 -88 -14 -115 -29v-388h-112v500h66l18 -40c51 35 108 52 162 52c127 0 172 -63 172 -159v-353zM266 637l93 113h95l-131 -200h-114l-131 200h95z" />
    <glyph glyph-name="nmacron" unicode="&#xe037;" horiz-adv-x="524" 
d="M473 0h-112v343c0 51 -26 74 -79 74c-52 0 -88 -14 -115 -29v-388h-112v500h66l18 -40c51 35 108 52 162 52c127 0 172 -63 172 -159v-353zM120 605v89h292v-89h-292z" />
    <glyph glyph-name="ndotaccent" unicode="&#x1e45;" horiz-adv-x="524" 
d="M473 0h-112v343c0 51 -26 74 -79 74c-52 0 -88 -14 -115 -29v-388h-112v500h66l18 -40c51 35 108 52 162 52c127 0 172 -63 172 -159v-353zM193 648c0 40 33 73 73 73s73 -33 73 -73s-33 -73 -73 -73s-73 33 -73 73z" />
    <glyph glyph-name="ncommaaccent" unicode="&#x146;" horiz-adv-x="524" 
d="M473 0h-112v343c0 51 -26 74 -79 74c-52 0 -88 -14 -115 -29v-388h-112v500h66l18 -40c51 35 108 52 162 52c127 0 172 -63 172 -159v-353zM202 -50h133l-65 -200h-89z" />
    <glyph glyph-name="ncedilla" unicode="&#xe038;" horiz-adv-x="524" 
d="M473 0h-112v343c0 51 -26 74 -79 74c-52 0 -88 -14 -115 -29v-388h-112v500h66l18 -40c51 35 108 52 162 52c127 0 172 -63 172 -159v-353zM222 -94l5 50c116 -10 156 -55 156 -109c0 -64 -49 -97 -119 -97c-49 0 -83 12 -97 19v76c10 -4 44 -18 82 -18c34 0 54 8 54 30
c0 31 -26 42 -81 49z" />
    <glyph glyph-name="ndotbelow" unicode="&#x1e47;" horiz-adv-x="524" 
d="M473 0h-112v343c0 51 -26 74 -79 74c-52 0 -88 -14 -115 -29v-388h-112v500h66l18 -40c51 35 108 52 162 52c127 0 172 -63 172 -159v-353zM337 -148c0 -40 -33 -73 -73 -73s-73 33 -73 73s33 73 73 73s73 -33 73 -73z" />
    <glyph glyph-name="ndescender" unicode="&#xe039;" horiz-adv-x="548" 
d="M473 0h-112v343c0 51 -26 74 -79 74c-52 0 -88 -14 -115 -29v-388h-112v500h66l18 -40c51 35 108 52 162 52c127 0 172 -63 172 -159v-274h82v-204h-82v125z" />
    <glyph glyph-name="oacute" unicode="&#xf3;" 
d="M310 550h-94l58 200h135zM263 82c95 0 109 61 109 168s-14 168 -109 168s-109 -61 -109 -168s14 -168 109 -168zM263 -12c-178 0 -222 108 -222 262s44 262 222 262s222 -108 222 -262s-44 -262 -222 -262z" />
    <glyph glyph-name="ograve" unicode="&#xf2;" 
d="M310 550h-94l-99 200h135zM263 82c95 0 109 61 109 168s-14 168 -109 168s-109 -61 -109 -168s14 -168 109 -168zM263 -12c-178 0 -222 108 -222 262s44 262 222 262s222 -108 222 -262s-44 -262 -222 -262z" />
    <glyph glyph-name="ocircumflex" unicode="&#xf4;" 
d="M263 -12c-178 0 -222 108 -222 262s44 262 222 262s222 -108 222 -262s-44 -262 -222 -262zM263 82c95 0 109 61 109 168s-14 168 -109 168s-109 -61 -109 -168s14 -168 109 -168zM356 550l-93 113l-93 -113h-95l131 200h114l131 -200h-95z" />
    <glyph glyph-name="odieresis" unicode="&#xf6;" 
d="M263 82c95 0 109 61 109 168s-14 168 -109 168s-109 -61 -109 -168s14 -168 109 -168zM263 -12c-178 0 -222 108 -222 262s44 262 222 262s222 -108 222 -262s-44 -262 -222 -262zM84 648c0 40 33 73 73 73s73 -33 73 -73s-33 -73 -73 -73s-73 33 -73 73zM296 648
c0 40 33 73 73 73s73 -33 73 -73s-33 -73 -73 -73s-73 33 -73 73z" />
    <glyph glyph-name="otilde" unicode="&#xf5;" 
d="M391 707h75c0 -81 -31 -140 -122 -140c-88 0 -108 74 -161 74c-43 0 -48 -29 -48 -54h-75c0 81 31 140 122 140c88 0 108 -74 161 -74c43 0 48 29 48 54zM263 82c95 0 109 61 109 168s-14 168 -109 168s-109 -61 -109 -168s14 -168 109 -168zM263 -12
c-178 0 -222 108 -222 262s44 262 222 262s222 -108 222 -262s-44 -262 -222 -262z" />
    <glyph glyph-name="ocaron" unicode="&#x1d2;" 
d="M263 -12c-178 0 -222 108 -222 262s44 262 222 262s222 -108 222 -262s-44 -262 -222 -262zM263 82c95 0 109 61 109 168s-14 168 -109 168s-109 -61 -109 -168s14 -168 109 -168zM263 637l93 113h95l-131 -200h-114l-131 200h95z" />
    <glyph glyph-name="omacron" unicode="&#x14d;" 
d="M263 82c95 0 109 61 109 168s-14 168 -109 168s-109 -61 -109 -168s14 -168 109 -168zM263 -12c-178 0 -222 108 -222 262s44 262 222 262s222 -108 222 -262s-44 -262 -222 -262zM117 605v89h292v-89h-292z" />
    <glyph glyph-name="obreve" unicode="&#x14f;" 
d="M263 82c95 0 109 61 109 168s-14 168 -109 168s-109 -61 -109 -168s14 -168 109 -168zM263 -12c-178 0 -222 108 -222 262s44 262 222 262s222 -108 222 -262s-44 -262 -222 -262zM263 550c-132 0 -181 56 -183 200h77c1 -76 27 -111 106 -111s105 35 106 111h77
c-2 -144 -51 -200 -183 -200z" />
    <glyph glyph-name="oinvertedbreve" unicode="&#x20f;" 
d="M263 82c95 0 109 61 109 168s-14 168 -109 168s-109 -61 -109 -168s14 -168 109 -168zM263 -12c-178 0 -222 108 -222 262s44 262 222 262s222 -108 222 -262s-44 -262 -222 -262zM263 750c132 0 181 -56 183 -200h-77c-1 76 -27 111 -106 111s-105 -35 -106 -111h-77
c2 144 51 200 183 200z" />
    <glyph glyph-name="ohungarumlaut" unicode="&#x151;" 
d="M263 -12c-178 0 -222 108 -222 262s44 262 222 262s222 -108 222 -262s-44 -262 -222 -262zM263 418c-95 0 -109 -61 -109 -168s14 -168 109 -168c94 0 108 61 108 168s-14 168 -108 168zM225 550h-94l58 200h135zM395 550h-94l58 200h135z" />
    <glyph glyph-name="odoublegrave" unicode="&#xe03a;" 
d="M263 -12c-178 0 -222 108 -222 262s44 262 222 262s222 -108 222 -262s-44 -262 -222 -262zM263 418c-94 0 -108 -61 -108 -168s14 -168 108 -168c95 0 109 61 109 168s-14 168 -109 168zM395 550h-94l-99 200h135zM225 550h-94l-99 200h135z" />
    <glyph glyph-name="ocommaturnedabove" unicode="&#xe03b;" 
d="M325 550h-133l65 200h89zM263 82c95 0 109 61 109 168s-14 168 -109 168s-109 -61 -109 -168s14 -168 109 -168zM263 -12c-178 0 -222 108 -222 262s44 262 222 262s222 -108 222 -262s-44 -262 -222 -262z" />
    <glyph glyph-name="otildemacron" unicode="&#xe03c;" 
d="M263 82c95 0 109 61 109 168s-14 168 -109 168s-109 -61 -109 -168s14 -168 109 -168zM263 -12c-178 0 -222 108 -222 262s44 262 222 262s222 -108 222 -262s-44 -262 -222 -262zM117 722v89h292v-89h-292zM391 679h75c0 -81 -31 -140 -122 -140c-88 0 -108 74 -161 74
c-43 0 -48 -29 -48 -54h-75c0 81 31 140 122 140c88 0 108 -74 161 -74c43 0 48 29 48 54z" />
    <glyph glyph-name="odotabove" unicode="&#xe03d;" 
d="M263 82c95 0 109 61 109 168s-14 168 -109 168s-109 -61 -109 -168s14 -168 109 -168zM263 -12c-178 0 -222 108 -222 262s44 262 222 262s222 -108 222 -262s-44 -262 -222 -262zM190 648c0 40 33 73 73 73s73 -33 73 -73s-33 -73 -73 -73s-73 33 -73 73z" />
    <glyph glyph-name="odotabovemacron" unicode="&#xe03e;" 
d="M263 82c95 0 109 61 109 168s-14 168 -109 168s-109 -61 -109 -168s14 -168 109 -168zM263 -12c-178 0 -222 108 -222 262s44 262 222 262s222 -108 222 -262s-44 -262 -222 -262zM117 722v89h292v-89h-292zM190 619c0 40 33 73 73 73s73 -33 73 -73s-33 -73 -73 -73
s-73 33 -73 73z" />
    <glyph glyph-name="ocedilla" unicode="&#xe03f;" 
d="M221 -94l5 50c116 -10 156 -55 156 -109c0 -64 -49 -97 -119 -97c-49 0 -83 12 -97 19v76c10 -4 44 -18 82 -18c34 0 54 8 54 30c0 31 -26 42 -81 49zM263 82c95 0 109 61 109 168s-14 168 -109 168s-109 -61 -109 -168s14 -168 109 -168zM263 -12
c-178 0 -222 108 -222 262s44 262 222 262s222 -108 222 -262s-44 -262 -222 -262z" />
    <glyph glyph-name="odotbelow" unicode="&#x1ecd;" 
d="M263 418c-95 0 -109 -61 -109 -168s14 -168 109 -168s109 61 109 168s-14 168 -109 168zM263 512c178 0 222 -108 222 -262s-44 -262 -222 -262s-222 108 -222 262s44 262 222 262zM336 -148c0 -40 -33 -73 -73 -73s-73 33 -73 73s33 73 73 73s73 -33 73 -73z" />
    <glyph glyph-name="oogonek" unicode="&#x1eb;" 
d="M165 -141c0 52 25 97 68 131c-153 11 -192 115 -192 260c0 154 44 262 222 262s222 -108 222 -262c0 -125 -29 -219 -135 -250c-51 -26 -96 -83 -96 -125c0 -30 20 -51 56 -51c28 0 51 5 63 9v-68c-16 -6 -42 -15 -85 -15c-67 0 -123 37 -123 109zM263 82
c95 0 109 61 109 168s-14 168 -109 168s-109 -61 -109 -168s14 -168 109 -168z" />
    <glyph glyph-name="oogonekmacron" unicode="&#x1ed;" 
d="M165 -141c0 52 25 97 68 131c-153 11 -192 115 -192 260c0 154 44 262 222 262s222 -108 222 -262c0 -125 -29 -219 -135 -250c-51 -26 -96 -83 -96 -125c0 -30 20 -51 56 -51c28 0 51 5 63 9v-68c-16 -6 -42 -15 -85 -15c-67 0 -123 37 -123 109zM263 82
c95 0 109 61 109 168s-14 168 -109 168s-109 -61 -109 -168s14 -168 109 -168zM117 605v89h292v-89h-292z" />
    <glyph glyph-name="ounderlineaccent" unicode="&#xe040;" 
d="M224 -50h78v-200h-78v200zM263 82c95 0 109 61 109 168s-14 168 -109 168s-109 -61 -109 -168s14 -168 109 -168zM263 -12c-178 0 -222 108 -222 262s44 262 222 262s222 -108 222 -262s-44 -262 -222 -262z" />
    <glyph glyph-name="oslash" unicode="&#xf8;" 
d="M263 -12c-55 0 -98 11 -130 29l-12 -17h-75l42 58c-35 46 -47 113 -47 192c0 154 44 262 222 262c55 0 97 -11 129 -30l13 18h75l-42 -58c35 -47 47 -113 47 -192c0 -154 -44 -262 -222 -262zM154 250c0 -36 1 -66 7 -91l171 240c-16 12 -38 19 -69 19
c-95 0 -109 -61 -109 -168zM263 82c95 0 109 61 109 168c0 35 -2 65 -7 90l-172 -239c16 -13 39 -19 70 -19z" />
    <glyph glyph-name="oslashacute" unicode="&#x1ff;" 
d="M263 -12c-55 0 -98 11 -130 29l-12 -17h-75l42 58c-35 46 -47 113 -47 192c0 154 44 262 222 262c55 0 97 -11 129 -30l13 18h75l-42 -58c35 -47 47 -113 47 -192c0 -154 -44 -262 -222 -262zM310 550h-94l58 200h135zM154 250c0 -36 1 -66 7 -91l171 240
c-16 12 -38 19 -69 19c-95 0 -109 -61 -109 -168zM263 82c95 0 109 61 109 168c0 35 -2 65 -7 90l-172 -239c16 -13 39 -19 70 -19z" />
    <glyph glyph-name="barredo" unicode="&#xe041;" 
d="M263 -12c-178 0 -222 108 -222 262s44 262 222 262s222 -108 222 -262s-44 -262 -222 -262zM263 82c83 0 104 47 108 131h-217c4 -84 25 -131 109 -131zM263 418c-82 0 -104 -46 -108 -127h216c-5 81 -26 127 -108 127z" />
    <glyph glyph-name="oe" unicode="&#x153;" horiz-adv-x="842" 
d="M263 82c95 0 109 61 109 168s-14 168 -109 168s-109 -61 -109 -168s14 -168 109 -168zM595 415c-82 0 -105 -53 -109 -128h200c0 68 -4 128 -91 128zM263 -12c-178 0 -222 108 -222 262s44 262 222 262c81 0 134 -25 168 -73c35 49 88 73 164 73c176 0 204 -116 204 -254
c0 -17 -1 -33 -2 -49h-311c2 -75 29 -124 131 -124c63 0 115 11 159 30v-96c-57 -24 -122 -31 -176 -31c-78 0 -133 24 -169 73c-34 -49 -87 -73 -168 -73z" />
    <glyph glyph-name="pmacron" unicode="&#xe042;" horiz-adv-x="542" 
d="M301 -12c-50 0 -98 16 -134 39v-277h-112v750h66l18 -40c44 32 95 52 162 52c146 0 200 -98 200 -262c0 -163 -54 -262 -200 -262zM275 83c98 0 113 75 113 167c0 93 -15 167 -113 167c-53 0 -88 -18 -108 -29v-276c20 -11 55 -29 108 -29zM125 605v89h292v-89h-292z" />
    <glyph glyph-name="racute" unicode="&#x155;" horiz-adv-x="366" 
d="M350 506v-96c-12 4 -32 6 -55 6c-59 0 -103 -14 -128 -30v-386h-112v500h66l18 -40c37 30 93 52 158 52c21 0 39 -3 53 -6zM255 550h-94l58 200h135z" />
    <glyph glyph-name="rcaron" unicode="&#x159;" horiz-adv-x="366" 
d="M350 506v-96c-12 4 -32 6 -55 6c-59 0 -103 -14 -128 -30v-386h-112v500h66l18 -40c37 30 93 52 158 52c21 0 39 -3 53 -6zM208 637l93 113h95l-131 -200h-114l-131 200h95z" />
    <glyph glyph-name="rinvertedbreve" unicode="&#x213;" horiz-adv-x="366" 
d="M350 506v-96c-12 4 -32 6 -55 6c-59 0 -103 -14 -128 -30v-386h-112v500h66l18 -40c37 30 93 52 158 52c21 0 39 -3 53 -6zM208 750c132 0 181 -56 183 -200h-77c-1 76 -27 111 -106 111s-105 -35 -106 -111h-77c2 144 51 200 183 200z" />
    <glyph glyph-name="rdoublegrave" unicode="&#xe043;" horiz-adv-x="366" 
d="M350 506v-96c-12 4 -32 6 -55 6c-59 0 -103 -14 -128 -30v-386h-112v500h66l18 -40c37 30 93 52 158 52c21 0 39 -3 53 -6zM340 550h-94l-99 200h135zM170 550h-94l-99 200h135z" />
    <glyph glyph-name="rcommaaccent" unicode="&#x157;" horiz-adv-x="366" 
d="M350 506v-96c-12 4 -32 6 -55 6c-59 0 -103 -14 -128 -30v-386h-112v500h66l18 -40c37 30 93 52 158 52c21 0 39 -3 53 -6zM44 -50h133l-65 -200h-89z" />
    <glyph glyph-name="rcedilla" unicode="&#xe044;" horiz-adv-x="366" 
d="M350 506v-96c-12 4 -32 6 -55 6c-59 0 -103 -14 -128 -30v-386h-112v500h66l18 -40c37 30 93 52 158 52c21 0 39 -3 53 -6zM69 -94l5 50c116 -10 156 -55 156 -109c0 -64 -49 -97 -119 -97c-49 0 -83 12 -97 19v76c10 -4 44 -18 82 -18c34 0 54 8 54 30
c0 31 -26 42 -81 49z" />
    <glyph glyph-name="rdotbelow" unicode="&#x1e5b;" horiz-adv-x="366" 
d="M350 506v-96c-12 4 -32 6 -55 6c-59 0 -103 -14 -128 -30v-386h-112v500h66l18 -40c37 30 93 52 158 52c21 0 39 -3 53 -6zM184 -148c0 -40 -33 -73 -73 -73s-73 33 -73 73s33 73 73 73s73 -33 73 -73z" />
    <glyph glyph-name="rdotbelowmacron" unicode="&#x1e5d;" horiz-adv-x="366" 
d="M350 506v-96c-12 4 -32 6 -55 6c-59 0 -103 -14 -128 -30v-386h-112v500h66l18 -40c37 30 93 52 158 52c21 0 39 -3 53 -6zM184 -148c0 -40 -33 -73 -73 -73s-73 33 -73 73s33 73 73 73s73 -33 73 -73zM62 605v89h292v-89h-292z" />
    <glyph glyph-name="sacute" unicode="&#x15b;" horiz-adv-x="465" 
d="M151 356c0 -35 18 -50 83 -56c150 -13 189 -58 189 -151c0 -86 -53 -161 -213 -161c-69 0 -131 13 -165 27v96c33 -12 86 -28 149 -28c80 0 119 18 119 62c0 37 -16 56 -83 62c-151 13 -188 60 -188 146s56 159 203 159c68 0 116 -8 155 -25v-97c-43 16 -90 28 -153 28
c-59 0 -96 -17 -96 -62zM274 550h-94l58 200h135z" />
    <glyph glyph-name="scircumflex" unicode="&#x15d;" horiz-adv-x="465" 
d="M151 356c0 -35 18 -50 83 -56c150 -13 189 -58 189 -151c0 -86 -53 -161 -213 -161c-69 0 -131 13 -165 27v96c33 -12 86 -28 149 -28c80 0 119 18 119 62c0 37 -16 56 -83 62c-151 13 -188 60 -188 146s56 159 203 159c68 0 116 -8 155 -25v-97c-43 16 -90 28 -153 28
c-59 0 -96 -17 -96 -62zM320 550l-93 113l-93 -113h-95l131 200h114l131 -200h-95z" />
    <glyph glyph-name="scaron" unicode="&#x161;" horiz-adv-x="465" 
d="M151 356c0 -35 18 -50 83 -56c150 -13 189 -58 189 -151c0 -86 -53 -161 -213 -161c-69 0 -131 13 -165 27v96c33 -12 86 -28 149 -28c80 0 119 18 119 62c0 37 -16 56 -83 62c-151 13 -188 60 -188 146s56 159 203 159c68 0 116 -8 155 -25v-97c-43 16 -90 28 -153 28
c-59 0 -96 -17 -96 -62zM227 637l93 113h95l-131 -200h-114l-131 200h95z" />
    <glyph glyph-name="scommaaccent" unicode="&#x219;" horiz-adv-x="465" 
d="M151 356c0 -35 18 -50 83 -56c150 -13 189 -58 189 -151c0 -86 -53 -161 -213 -161c-69 0 -131 13 -165 27v96c33 -12 86 -28 149 -28c80 0 119 18 119 62c0 37 -16 56 -83 62c-151 13 -188 60 -188 146s56 159 203 159c68 0 116 -8 155 -25v-97c-43 16 -90 28 -153 28
c-59 0 -96 -17 -96 -62zM165 -50h133l-65 -200h-89z" />
    <glyph glyph-name="scedilla" unicode="&#x15f;" horiz-adv-x="465" 
d="M185 -94l8 82c-62 2 -117 14 -148 27v96c33 -12 86 -28 149 -28c80 0 119 18 119 62c0 37 -16 56 -83 62c-151 13 -188 60 -188 146s56 159 203 159c68 0 116 -8 155 -25v-97c-43 16 -90 28 -153 28c-59 0 -96 -17 -96 -62c0 -35 18 -50 83 -56c150 -13 189 -58 189 -151
c0 -79 -44 -148 -174 -159l4 -50c51 -12 93 -38 93 -93c0 -64 -49 -97 -119 -97c-49 0 -83 12 -97 19v76c10 -4 44 -18 82 -18c34 0 54 8 54 30c0 31 -26 42 -81 49z" />
    <glyph glyph-name="sdotbelow" unicode="&#x1e63;" horiz-adv-x="465" 
d="M151 356c0 -35 18 -50 83 -56c150 -13 189 -58 189 -151c0 -86 -53 -161 -213 -161c-69 0 -131 13 -165 27v96c33 -12 86 -28 149 -28c80 0 119 18 119 62c0 37 -16 56 -83 62c-151 13 -188 60 -188 146s56 159 203 159c68 0 116 -8 155 -25v-97c-43 16 -90 28 -153 28
c-59 0 -96 -17 -96 -62zM300 -148c0 -40 -33 -73 -73 -73s-73 33 -73 73s33 73 73 73s73 -33 73 -73z" />
    <glyph glyph-name="germandbls" unicode="&#xdf;" horiz-adv-x="563" 
d="M222 372c0 128 131 123 131 223c0 49 -39 70 -89 70c-52 0 -90 -23 -90 -72v-593h-112v599c0 107 66 163 202 163c135 0 198 -60 198 -164c0 -128 -131 -136 -131 -215c0 -36 16 -51 71 -70c105 -36 142 -73 142 -162c0 -97 -67 -163 -185 -163c-56 0 -105 12 -136 29v98
c24 -11 73 -32 125 -32c62 0 86 26 86 68c0 46 -34 64 -85 80c-93 30 -127 65 -127 141z" />
    <glyph glyph-name="tcaron" unicode="&#x165;" horiz-adv-x="380" 
d="M342 87v-92c-17 -4 -45 -7 -62 -7c-111 0 -176 48 -176 156v261h-91v69l91 26v119l112 32v-151h141v-95h-141v-248c0 -50 25 -74 82 -74c17 0 32 2 44 4zM282 750h88l-48 -200h-56z" />
    <glyph glyph-name="tcommaaccent" unicode="&#x163;" horiz-adv-x="380" 
d="M342 87v-92c-17 -4 -45 -7 -62 -7c-111 0 -176 48 -176 156v261h-91v69l91 26v119l112 32v-151h141v-95h-141v-248c0 -50 25 -74 82 -74c17 0 32 2 44 4zM162 -50h133l-65 -200h-89z" />
    <glyph glyph-name="tcommaaccent" unicode="&#x21b;" horiz-adv-x="380" 
d="M342 87v-92c-17 -4 -45 -7 -62 -7c-111 0 -176 48 -176 156v261h-91v69l91 26v119l112 32v-151h141v-95h-141v-248c0 -50 25 -74 82 -74c17 0 32 2 44 4zM162 -50h133l-65 -200h-89z" />
    <glyph glyph-name="tcedilla" unicode="&#xe045;" horiz-adv-x="380" 
d="M342 87v-92c-17 -4 -45 -7 -62 -7c-111 0 -176 48 -176 156v261h-91v69l91 26v119l112 32v-151h141v-95h-141v-248c0 -50 25 -74 82 -74c17 0 32 2 44 4zM162 -94l5 50c116 -10 156 -55 156 -109c0 -64 -49 -97 -119 -97c-49 0 -83 12 -97 19v76c10 -4 44 -18 82 -18
c34 0 54 8 54 30c0 31 -26 42 -81 49z" />
    <glyph glyph-name="tdotbelow" unicode="&#x1e6d;" horiz-adv-x="380" 
d="M342 87v-92c-17 -4 -45 -7 -62 -7c-111 0 -176 48 -176 156v261h-91v69l91 26v119l112 32v-151h141v-95h-141v-248c0 -50 25 -74 82 -74c17 0 32 2 44 4zM297 -148c0 -40 -33 -73 -73 -73s-73 33 -73 73s33 73 73 73s73 -33 73 -73z" />
    <glyph glyph-name="tbar" unicode="&#x167;" horiz-adv-x="380" 
d="M342 87v-92c-17 -4 -45 -7 -62 -7c-111 0 -176 48 -176 156v83h-91v86h91v92h-91v69l91 26v119l112 32v-151h141v-95h-141v-92h111v-86h-111v-70c0 -50 25 -74 82 -74c17 0 32 2 44 4z" />
    <glyph glyph-name="uacute" unicode="&#xfa;" horiz-adv-x="524" 
d="M307 550h-94l58 200h135zM51 500h112v-343c0 -51 26 -74 79 -74c52 0 88 14 115 29v388h112v-500h-66l-18 40c-51 -35 -108 -52 -162 -52c-127 0 -172 63 -172 159v353z" />
    <glyph glyph-name="ugrave" unicode="&#xf9;" horiz-adv-x="524" 
d="M307 550h-94l-99 200h135zM51 500h112v-343c0 -51 26 -74 79 -74c52 0 88 14 115 29v388h112v-500h-66l-18 40c-51 -35 -108 -52 -162 -52c-127 0 -172 63 -172 159v353z" />
    <glyph glyph-name="ucircumflex" unicode="&#xfb;" horiz-adv-x="524" 
d="M51 500h112v-343c0 -51 26 -74 79 -74c52 0 88 14 115 29v388h112v-500h-66l-18 40c-51 -35 -108 -52 -162 -52c-127 0 -172 63 -172 159v353zM353 550l-93 113l-93 -113h-95l131 200h114l131 -200h-95z" />
    <glyph glyph-name="udieresis" unicode="&#xfc;" horiz-adv-x="524" 
d="M81 648c0 40 33 73 73 73s73 -33 73 -73s-33 -73 -73 -73s-73 33 -73 73zM293 648c0 40 33 73 73 73s73 -33 73 -73s-33 -73 -73 -73s-73 33 -73 73zM51 500h112v-343c0 -51 26 -74 79 -74c52 0 88 14 115 29v388h112v-500h-66l-18 40c-51 -35 -108 -52 -162 -52
c-127 0 -172 63 -172 159v353z" />
    <glyph glyph-name="utilde" unicode="&#x169;" horiz-adv-x="524" 
d="M388 707h75c0 -81 -31 -140 -122 -140c-88 0 -108 74 -161 74c-43 0 -48 -29 -48 -54h-75c0 81 31 140 122 140c88 0 108 -74 161 -74c43 0 48 29 48 54zM51 500h112v-343c0 -51 26 -74 79 -74c52 0 88 14 115 29v388h112v-500h-66l-18 40c-51 -35 -108 -52 -162 -52
c-127 0 -172 63 -172 159v353z" />
    <glyph glyph-name="uring" unicode="&#x16f;" horiz-adv-x="524" 
d="M365 650c0 -70 -43 -103 -105 -103c-61 0 -105 33 -105 103s44 103 105 103c62 0 105 -33 105 -103zM222 650c0 -27 15 -37 38 -37s39 10 39 37s-16 37 -39 37s-38 -10 -38 -37zM51 500h112v-343c0 -51 26 -74 79 -74c52 0 88 14 115 29v388h112v-500h-66l-18 40
c-51 -35 -108 -52 -162 -52c-127 0 -172 63 -172 159v353z" />
    <glyph glyph-name="ucaron" unicode="&#x1d4;" horiz-adv-x="524" 
d="M51 500h112v-343c0 -51 26 -74 79 -74c52 0 88 14 115 29v388h112v-500h-66l-18 40c-51 -35 -108 -52 -162 -52c-127 0 -172 63 -172 159v353zM260 637l93 113h95l-131 -200h-114l-131 200h95z" />
    <glyph glyph-name="umacron" unicode="&#x16b;" horiz-adv-x="524" 
d="M114 605v89h292v-89h-292zM51 500h112v-343c0 -51 26 -74 79 -74c52 0 88 14 115 29v388h112v-500h-66l-18 40c-51 -35 -108 -52 -162 -52c-127 0 -172 63 -172 159v353z" />
    <glyph glyph-name="ubreve" unicode="&#x16d;" horiz-adv-x="524" 
d="M260 550c-132 0 -181 56 -183 200h77c1 -76 27 -111 106 -111s105 35 106 111h77c-2 -144 -51 -200 -183 -200zM51 500h112v-343c0 -51 26 -74 79 -74c52 0 88 14 115 29v388h112v-500h-66l-18 40c-51 -35 -108 -52 -162 -52c-127 0 -172 63 -172 159v353z" />
    <glyph glyph-name="uinvertedbreve" unicode="&#x217;" horiz-adv-x="524" 
d="M260 750c132 0 181 -56 183 -200h-77c-1 76 -27 111 -106 111s-105 -35 -106 -111h-77c2 144 51 200 183 200zM51 500h112v-343c0 -51 26 -74 79 -74c52 0 88 14 115 29v388h112v-500h-66l-18 40c-51 -35 -108 -52 -162 -52c-127 0 -172 63 -172 159v353z" />
    <glyph glyph-name="uhungarumlaut" unicode="&#x171;" horiz-adv-x="524" 
d="M222 550h-94l58 200h135zM392 550h-94l58 200h135zM51 500h112v-343c0 -51 26 -74 79 -74c52 0 88 14 115 29v388h112v-500h-66l-18 40c-51 -35 -108 -52 -162 -52c-127 0 -172 63 -172 159v353z" />
    <glyph glyph-name="udoublegrave" unicode="&#xe046;" horiz-adv-x="524" 
d="M392 550h-94l-99 200h135zM222 550h-94l-99 200h135zM51 500h112v-343c0 -51 26 -74 79 -74c52 0 88 14 115 29v388h112v-500h-66l-18 40c-51 -35 -108 -52 -162 -52c-127 0 -172 63 -172 159v353z" />
    <glyph glyph-name="uogonek" unicode="&#x173;" horiz-adv-x="524" 
d="M51 500h112v-343c0 -51 26 -74 79 -74c52 0 88 14 115 29v388h112v-500c-55 -25 -106 -64 -106 -125c0 -30 20 -51 56 -51c28 0 51 5 63 9v-68c-16 -6 -42 -15 -85 -15c-67 0 -123 37 -123 109c0 51 27 112 119 162l-8 19c-51 -35 -108 -52 -162 -52
c-127 0 -172 63 -172 159v353z" />
    <glyph glyph-name="udotbelow" unicode="&#x1ee5;" horiz-adv-x="524" 
d="M51 500h112v-343c0 -51 26 -74 79 -74c52 0 88 14 115 29v388h112v-500h-66l-18 40c-51 -35 -108 -52 -162 -52c-127 0 -172 63 -172 159v353zM333 -148c0 -40 -33 -73 -73 -73s-73 33 -73 73s33 73 73 73s73 -33 73 -73z" />
    <glyph glyph-name="umacronbelow" unicode="&#xe047;" horiz-adv-x="524" 
d="M51 500h112v-343c0 -51 26 -74 79 -74c52 0 88 14 115 29v388h112v-500h-66l-18 40c-51 -35 -108 -52 -162 -52c-127 0 -172 63 -172 159v353zM406 -105v-89h-292v89h292z" />
    <glyph glyph-name="wacute" unicode="&#x1e83;" horiz-adv-x="696" 
d="M348 368l-104 -377h-95l-131 509h114l68 -344l97 344h102l97 -344l68 344h114l-131 -509h-95zM395 550h-94l58 200h135z" />
    <glyph glyph-name="wgrave" unicode="&#x1e81;" horiz-adv-x="696" 
d="M348 368l-104 -377h-95l-131 509h114l68 -344l97 344h102l97 -344l68 344h114l-131 -509h-95zM395 550h-94l-99 200h135z" />
    <glyph glyph-name="wcircumflex" unicode="&#x175;" horiz-adv-x="696" 
d="M348 368l-104 -377h-95l-131 509h114l68 -344l97 344h102l97 -344l68 344h114l-131 -509h-95zM441 550l-93 113l-93 -113h-95l131 200h114l131 -200h-95z" />
    <glyph glyph-name="wdieresis" unicode="&#x1e85;" horiz-adv-x="696" 
d="M348 368l-104 -377h-95l-131 509h114l68 -344l97 344h102l97 -344l68 344h114l-131 -509h-95zM381 648c0 40 33 73 73 73s73 -33 73 -73s-33 -73 -73 -73s-73 33 -73 73zM169 648c0 40 33 73 73 73s73 -33 73 -73s-33 -73 -73 -73s-73 33 -73 73z" />
    <glyph glyph-name="yacute" unicode="&#xfd;" horiz-adv-x="500" 
d="M13 500h124l113 -357l113 357h124l-286 -750h-125l124 267zM297 550h-94l58 200h135z" />
    <glyph glyph-name="ygrave" unicode="&#x1ef3;" horiz-adv-x="500" 
d="M297 550h-94l-99 200h135zM13 500h124l113 -357l113 357h124l-286 -750h-125l124 267z" />
    <glyph glyph-name="ycircumflex" unicode="&#x177;" horiz-adv-x="500" 
d="M13 500h124l113 -357l113 357h124l-286 -750h-125l124 267zM343 550l-93 113l-93 -113h-95l131 200h114l131 -200h-95z" />
    <glyph glyph-name="ydieresis" unicode="&#xff;" horiz-adv-x="500" 
d="M13 500h124l113 -357l113 357h124l-286 -750h-125l124 267zM71 648c0 40 33 73 73 73s73 -33 73 -73s-33 -73 -73 -73s-73 33 -73 73zM283 648c0 40 33 73 73 73s73 -33 73 -73s-33 -73 -73 -73s-73 33 -73 73z" />
    <glyph glyph-name="ytilde" unicode="&#x1ef9;" horiz-adv-x="500" 
d="M13 500h124l113 -357l113 357h124l-286 -750h-125l124 267zM378 707h75c0 -81 -31 -140 -122 -140c-88 0 -108 74 -161 74c-43 0 -48 -29 -48 -54h-75c0 81 31 140 122 140c88 0 108 -74 161 -74c43 0 48 29 48 54z" />
    <glyph glyph-name="ymacron" unicode="&#xe048;" horiz-adv-x="500" 
d="M13 500h124l113 -357l113 357h124l-286 -750h-125l124 267zM104 605v89h292v-89h-292z" />
    <glyph glyph-name="ij" unicode="&#x133;" horiz-adv-x="454" 
d="M197 -7c-91 0 -132 44 -132 130v377h112v-376c0 -28 10 -38 42 -38v-91s-10 -2 -22 -2zM48 648c0 40 33 73 73 73s73 -33 73 -73s-33 -73 -73 -73s-73 33 -73 73zM161 -262v104c71 0 116 38 116 100v558h112v-580c0 -123 -117 -182 -228 -182zM260 648c0 40 33 73 73 73
s73 -33 73 -73s-33 -73 -73 -73s-73 33 -73 73z" />
    <glyph glyph-name="zacute" unicode="&#x17a;" horiz-adv-x="469" 
d="M442 0h-409v79l254 323l-236 -1v99h380v-79l-254 -323l265 1v-99zM284 550h-94l58 200h135z" />
    <glyph glyph-name="zcaron" unicode="&#x17e;" horiz-adv-x="469" 
d="M442 0h-409v79l254 323l-236 -1v99h380v-79l-254 -323l265 1v-99zM237 637l93 113h95l-131 -200h-114l-131 200h95z" />
    <glyph glyph-name="zdotaccent" unicode="&#x17c;" horiz-adv-x="469" 
d="M442 0h-409v79l254 323l-236 -1v99h380v-79l-254 -323l265 1v-99zM164 648c0 40 33 73 73 73s73 -33 73 -73s-33 -73 -73 -73s-73 33 -73 73z" />
    <glyph glyph-name="eng" unicode="&#x14b;" horiz-adv-x="524" 
d="M245 -262v104c71 0 116 38 116 100v401c0 51 -26 74 -79 74c-52 0 -88 -14 -115 -29v-388h-112v500h66l18 -40c51 35 108 52 162 52c127 0 172 -63 172 -159v-433c0 -123 -117 -182 -228 -182z" />
    <glyph glyph-name="eth" unicode="&#xf0;" 
d="M118 602l98 50c-50 44 -103 76 -145 98h164c20 -13 45 -29 71 -52l114 58v-76l-63 -32c67 -78 125 -201 128 -398c0 -154 -44 -262 -222 -262s-222 108 -222 262c0 164 54 262 212 262c36 0 67 -7 84 -18c-19 41 -46 78 -72 107l-147 -75v76zM263 82c95 0 109 61 109 168
s-14 168 -109 168s-109 -61 -109 -168s14 -168 109 -168z" />
    <glyph glyph-name="thorn" unicode="&#xfe;" horiz-adv-x="542" 
d="M55 -250v1000h112v-277c36 23 84 39 134 39c146 0 200 -99 200 -262s-54 -262 -200 -262c-50 0 -98 16 -134 39v-277h-112zM388 250c0 92 -15 167 -113 167c-53 0 -88 -18 -108 -29v-276c20 -11 55 -29 108 -29c98 0 113 75 113 167z" />
    <glyph glyph-name="ezh" unicode="&#x292;" horiz-adv-x="503" 
d="M366 -14c0 119 -80 135 -190 135h-67v74l193 207l-269 -1v99h410v-81l-195 -211c128 -10 228 -58 228 -222c0 -199 -140 -248 -281 -248c-72 0 -132 14 -167 30v95c32 -13 89 -30 160 -30c92 0 178 29 178 153z" />
    <glyph glyph-name="ezhcaron" unicode="&#x1ef;" horiz-adv-x="503" 
d="M366 -14c0 119 -80 135 -190 135h-67v74l193 207l-269 -1v99h410v-81l-195 -211c128 -10 228 -58 228 -222c0 -199 -140 -248 -281 -248c-72 0 -132 14 -167 30v95c32 -13 89 -30 160 -30c92 0 178 29 178 153zM239 637l93 113h95l-131 -200h-114l-131 200h95z" />
    <glyph glyph-name="schwa" unicode="&#x259;" horiz-adv-x="510" 
d="M469 250c0 -161 -59 -262 -222 -262c-176 0 -204 116 -204 254c0 17 1 33 2 49h311c-2 75 -29 124 -131 124c-63 0 -115 -11 -159 -30v96c57 24 122 31 176 31c167 0 227 -100 227 -262zM247 85c82 0 105 53 109 128h-200c0 -68 4 -128 91 -128z" />
    <glyph glyph-name="ordfeminine" unicode="&#xaa;" horiz-adv-x="387" 
d="M249 613v15c0 34 -14 52 -65 52c-46 0 -92 -11 -127 -24v82c37 15 92 24 138 24c123 0 151 -54 151 -134v-252h-71l-9 22c-29 -19 -68 -34 -108 -34c-93 0 -131 45 -131 123c0 76 48 115 142 121zM249 551l-71 -6c-36 -4 -59 -22 -59 -53c0 -29 17 -51 58 -51
c23 0 53 9 72 20v90z" />
    <glyph glyph-name="ordmasculine" unicode="&#xba;" horiz-adv-x="422" 
d="M389 563c0 -132 -50 -199 -178 -199s-178 67 -178 199s50 199 178 199s178 -67 178 -199zM128 563c0 -84 25 -115 83 -115s83 31 83 115s-25 115 -83 115s-83 -31 -83 -115z" />
    <glyph glyph-name="cordinal" unicode="&#xe049;" horiz-adv-x="344" 
d="M33 563c0 128 54 199 180 199c37 0 71 -4 101 -12v-83c-22 6 -44 11 -82 11c-68 0 -104 -36 -104 -115s36 -115 104 -115c38 0 60 5 82 11v-83c-30 -8 -61 -12 -98 -12c-126 0 -183 71 -183 199z" />
    <glyph glyph-name="a.school" unicode="&#xe04a;" horiz-adv-x="542" 
d="M375 112v276c-20 11 -55 29 -108 29c-98 0 -113 -74 -113 -167s15 -167 113 -167c53 0 88 18 108 29zM487 500v-500h-66l-18 40c-44 -32 -95 -52 -162 -52c-146 0 -200 98 -200 262s54 262 200 262c67 0 118 -20 162 -52l18 40h66z" />
    <glyph glyph-name="aacute.school" unicode="&#xe04b;" horiz-adv-x="542" 
d="M375 112v276c-20 11 -55 29 -108 29c-98 0 -113 -74 -113 -167s15 -167 113 -167c53 0 88 18 108 29zM487 500v-500h-66l-18 40c-44 -32 -95 -52 -162 -52c-146 0 -200 98 -200 262s54 262 200 262c67 0 118 -20 162 -52l18 40h66zM311 550h-94l58 200h135z" />
    <glyph glyph-name="agrave.school" unicode="&#xe04c;" horiz-adv-x="542" 
d="M375 112v276c-20 11 -55 29 -108 29c-98 0 -113 -74 -113 -167s15 -167 113 -167c53 0 88 18 108 29zM487 500v-500h-66l-18 40c-44 -32 -95 -52 -162 -52c-146 0 -200 98 -200 262s54 262 200 262c67 0 118 -20 162 -52l18 40h66zM311 550h-94l-99 200h135z" />
    <glyph glyph-name="acircumflex.school" unicode="&#xe04d;" horiz-adv-x="542" 
d="M487 500v-500h-66l-18 40c-44 -32 -95 -52 -162 -52c-146 0 -200 98 -200 262s54 262 200 262c67 0 118 -20 162 -52l18 40h66zM375 112v276c-20 11 -55 29 -108 29c-98 0 -113 -74 -113 -167s15 -167 113 -167c53 0 88 18 108 29zM357 550l-93 113l-93 -113h-95l131 200
h114l131 -200h-95z" />
    <glyph glyph-name="adieresis.school" unicode="&#xe04e;" horiz-adv-x="542" 
d="M375 112v276c-20 11 -55 29 -108 29c-98 0 -113 -74 -113 -167s15 -167 113 -167c53 0 88 18 108 29zM487 500v-500h-66l-18 40c-44 -32 -95 -52 -162 -52c-146 0 -200 98 -200 262s54 262 200 262c67 0 118 -20 162 -52l18 40h66zM85 648c0 40 33 73 73 73
s73 -33 73 -73s-33 -73 -73 -73s-73 33 -73 73zM297 648c0 40 33 73 73 73s73 -33 73 -73s-33 -73 -73 -73s-73 33 -73 73z" />
    <glyph glyph-name="atilde.school" unicode="&#xe04f;" horiz-adv-x="542" 
d="M375 112v276c-20 11 -55 29 -108 29c-98 0 -113 -74 -113 -167s15 -167 113 -167c53 0 88 18 108 29zM487 500v-500h-66l-18 40c-44 -32 -95 -52 -162 -52c-146 0 -200 98 -200 262s54 262 200 262c67 0 118 -20 162 -52l18 40h66zM392 707h75c0 -81 -31 -140 -122 -140
c-88 0 -108 74 -161 74c-43 0 -48 -29 -48 -54h-75c0 81 31 140 122 140c88 0 108 -74 161 -74c43 0 48 29 48 54z" />
    <glyph glyph-name="aring.school" unicode="&#xe050;" horiz-adv-x="542" 
d="M375 112v276c-20 11 -55 29 -108 29c-98 0 -113 -74 -113 -167s15 -167 113 -167c53 0 88 18 108 29zM487 500v-500h-66l-18 40c-44 -32 -95 -52 -162 -52c-146 0 -200 98 -200 262s54 262 200 262c67 0 118 -20 162 -52l18 40h66zM369 650c0 -70 -43 -103 -105 -103
c-61 0 -105 33 -105 103s44 103 105 103c62 0 105 -33 105 -103zM226 650c0 -27 15 -37 38 -37s39 10 39 37s-16 37 -39 37s-38 -10 -38 -37z" />
    <glyph glyph-name="acaron.school" unicode="&#xe051;" horiz-adv-x="542" 
d="M487 500v-500h-66l-18 40c-44 -32 -95 -52 -162 -52c-146 0 -200 98 -200 262s54 262 200 262c67 0 118 -20 162 -52l18 40h66zM375 112v276c-20 11 -55 29 -108 29c-98 0 -113 -74 -113 -167s15 -167 113 -167c53 0 88 18 108 29zM264 637l93 113h95l-131 -200h-114
l-131 200h95z" />
    <glyph glyph-name="amacron.school" unicode="&#xe052;" horiz-adv-x="542" 
d="M375 112v276c-20 11 -55 29 -108 29c-98 0 -113 -74 -113 -167s15 -167 113 -167c53 0 88 18 108 29zM487 500v-500h-66l-18 40c-44 -32 -95 -52 -162 -52c-146 0 -200 98 -200 262s54 262 200 262c67 0 118 -20 162 -52l18 40h66zM118 605v89h292v-89h-292z" />
    <glyph glyph-name="abreve.school" unicode="&#xe053;" horiz-adv-x="542" 
d="M375 112v276c-20 11 -55 29 -108 29c-98 0 -113 -74 -113 -167s15 -167 113 -167c53 0 88 18 108 29zM487 500v-500h-66l-18 40c-44 -32 -95 -52 -162 -52c-146 0 -200 98 -200 262s54 262 200 262c67 0 118 -20 162 -52l18 40h66zM264 550c-132 0 -181 56 -183 200h77
c1 -76 27 -111 106 -111s105 35 106 111h77c-2 -144 -51 -200 -183 -200z" />
    <glyph glyph-name="ainvertedbreve.school" unicode="&#xe054;" horiz-adv-x="542" 
d="M375 112v276c-20 11 -55 29 -108 29c-98 0 -113 -74 -113 -167s15 -167 113 -167c53 0 88 18 108 29zM487 500v-500h-66l-18 40c-44 -32 -95 -52 -162 -52c-146 0 -200 98 -200 262s54 262 200 262c67 0 118 -20 162 -52l18 40h66zM264 750c132 0 181 -56 183 -200h-77
c-1 76 -27 111 -106 111s-105 -35 -106 -111h-77c2 144 51 200 183 200z" />
    <glyph glyph-name="adoublegrave.school" unicode="&#xe055;" horiz-adv-x="542" 
d="M375 112v276c-20 11 -55 29 -108 29c-98 0 -113 -74 -113 -167s15 -167 113 -167c53 0 88 18 108 29zM487 500v-500h-66l-18 40c-44 -32 -95 -52 -162 -52c-146 0 -200 98 -200 262s54 262 200 262c67 0 118 -20 162 -52l18 40h66zM396 550h-94l-99 200h135zM226 550h-94
l-99 200h135z" />
    <glyph glyph-name="adotabove.school" unicode="&#xe056;" horiz-adv-x="542" 
d="M375 112v276c-20 11 -55 29 -108 29c-98 0 -113 -74 -113 -167s15 -167 113 -167c53 0 88 18 108 29zM487 500v-500h-66l-18 40c-44 -32 -95 -52 -162 -52c-146 0 -200 98 -200 262s54 262 200 262c67 0 118 -20 162 -52l18 40h66zM191 648c0 40 33 73 73 73
s73 -33 73 -73s-33 -73 -73 -73s-73 33 -73 73z" />
    <glyph glyph-name="aringacute.school" unicode="&#xe057;" horiz-adv-x="542" 
d="M487 500v-500h-66l-18 40c-44 -32 -95 -52 -162 -52c-146 0 -200 98 -200 262s54 262 200 262c67 0 118 -20 162 -52l18 40h66zM375 112v276c-20 11 -55 29 -108 29c-98 0 -113 -74 -113 -167s15 -167 113 -167c53 0 88 18 108 29zM369 650c0 -70 -43 -103 -105 -103
c-61 0 -105 33 -105 103c0 14 2 27 4 34l50 154h100l-44 -85c66 -3 100 -40 100 -103zM226 650c0 -27 15 -37 38 -37s39 10 39 37s-16 37 -39 37s-38 -10 -38 -37z" />
    <glyph glyph-name="adieresismacron.school" unicode="&#xe058;" horiz-adv-x="542" 
d="M375 112v276c-20 11 -55 29 -108 29c-98 0 -113 -74 -113 -167s15 -167 113 -167c53 0 88 18 108 29zM487 500v-500h-66l-18 40c-44 -32 -95 -52 -162 -52c-146 0 -200 98 -200 262s54 262 200 262c67 0 118 -20 162 -52l18 40h66zM118 720v89h292v-89h-292zM85 619
c0 40 33 73 73 73s73 -33 73 -73s-33 -73 -73 -73s-73 33 -73 73zM297 619c0 40 33 73 73 73s73 -33 73 -73s-33 -73 -73 -73s-73 33 -73 73z" />
    <glyph glyph-name="aogonek.school" unicode="&#xe059;" horiz-adv-x="542" 
d="M487 500v-500c-55 -25 -106 -64 -106 -125c0 -30 20 -51 56 -51c28 0 51 5 63 9v-68c-16 -6 -42 -15 -85 -15c-67 0 -123 37 -123 109c0 51 27 112 119 162l-8 19c-44 -32 -95 -52 -162 -52c-146 0 -200 98 -200 262s54 262 200 262c67 0 118 -20 162 -52l18 40h66z
M375 112v276c-20 11 -55 29 -108 29c-98 0 -113 -74 -113 -167s15 -167 113 -167c53 0 88 18 108 29z" />
    <glyph glyph-name="g.school" unicode="&#xe05a;" horiz-adv-x="542" 
d="M487 500v-535c0 -123 -35 -227 -244 -227c-61 0 -131 11 -178 33v100c60 -27 121 -38 178 -38c111 0 132 53 132 118v71c-38 -22 -81 -34 -134 -34c-146 0 -200 98 -200 262s54 262 200 262c67 0 118 -20 162 -52l18 40h66zM375 112v276c-20 11 -55 29 -108 29
c-98 0 -113 -74 -113 -167s15 -167 113 -167c53 0 88 18 108 29z" />
    <glyph glyph-name="gacute.school" unicode="&#xe05b;" horiz-adv-x="542" 
d="M487 500v-535c0 -123 -35 -227 -244 -227c-61 0 -131 11 -178 33v100c60 -27 121 -38 178 -38c111 0 132 53 132 118v71c-38 -22 -81 -34 -134 -34c-146 0 -200 98 -200 262s54 262 200 262c67 0 118 -20 162 -52l18 40h66zM375 112v276c-20 11 -55 29 -108 29
c-98 0 -113 -74 -113 -167s15 -167 113 -167c53 0 88 18 108 29zM311 550h-94l58 200h135z" />
    <glyph glyph-name="gcircumflex.school" unicode="&#xe05c;" horiz-adv-x="542" 
d="M487 500v-535c0 -123 -35 -227 -244 -227c-61 0 -131 11 -178 33v100c60 -27 121 -38 178 -38c111 0 132 53 132 118v71c-38 -22 -81 -34 -134 -34c-146 0 -200 98 -200 262s54 262 200 262c67 0 118 -20 162 -52l18 40h66zM375 112v276c-20 11 -55 29 -108 29
c-98 0 -113 -74 -113 -167s15 -167 113 -167c53 0 88 18 108 29zM357 550l-93 113l-93 -113h-95l131 200h114l131 -200h-95z" />
    <glyph glyph-name="gtilde.school" unicode="&#xe05d;" horiz-adv-x="542" 
d="M487 500v-535c0 -123 -35 -227 -244 -227c-61 0 -131 11 -178 33v100c60 -27 121 -38 178 -38c111 0 132 53 132 118v71c-38 -22 -81 -34 -134 -34c-146 0 -200 98 -200 262s54 262 200 262c67 0 118 -20 162 -52l18 40h66zM375 112v276c-20 11 -55 29 -108 29
c-98 0 -113 -74 -113 -167s15 -167 113 -167c53 0 88 18 108 29zM392 707h75c0 -81 -31 -140 -122 -140c-88 0 -108 74 -161 74c-43 0 -48 -29 -48 -54h-75c0 81 31 140 122 140c88 0 108 -74 161 -74c43 0 48 29 48 54z" />
    <glyph glyph-name="gcaron.school" unicode="&#xe05e;" horiz-adv-x="542" 
d="M487 500v-535c0 -123 -35 -227 -244 -227c-61 0 -131 11 -178 33v100c60 -27 121 -38 178 -38c111 0 132 53 132 118v71c-38 -22 -81 -34 -134 -34c-146 0 -200 98 -200 262s54 262 200 262c67 0 118 -20 162 -52l18 40h66zM375 112v276c-20 11 -55 29 -108 29
c-98 0 -113 -74 -113 -167s15 -167 113 -167c53 0 88 18 108 29zM264 637l93 113h95l-131 -200h-114l-131 200h95z" />
    <glyph glyph-name="gbreve.school" unicode="&#xe05f;" horiz-adv-x="542" 
d="M487 500v-535c0 -123 -35 -227 -244 -227c-61 0 -131 11 -178 33v100c60 -27 121 -38 178 -38c111 0 132 53 132 118v71c-38 -22 -81 -34 -134 -34c-146 0 -200 98 -200 262s54 262 200 262c67 0 118 -20 162 -52l18 40h66zM375 112v276c-20 11 -55 29 -108 29
c-98 0 -113 -74 -113 -167s15 -167 113 -167c53 0 88 18 108 29zM264 550c-132 0 -181 56 -183 200h77c1 -76 27 -111 106 -111s105 35 106 111h77c-2 -144 -51 -200 -183 -200z" />
    <glyph glyph-name="gdotaccent.school" unicode="&#xe060;" horiz-adv-x="542" 
d="M487 500v-535c0 -123 -35 -227 -244 -227c-61 0 -131 11 -178 33v100c60 -27 121 -38 178 -38c111 0 132 53 132 118v71c-38 -22 -81 -34 -134 -34c-146 0 -200 98 -200 262s54 262 200 262c67 0 118 -20 162 -52l18 40h66zM375 112v276c-20 11 -55 29 -108 29
c-98 0 -113 -74 -113 -167s15 -167 113 -167c53 0 88 18 108 29zM191 648c0 40 33 73 73 73s73 -33 73 -73s-33 -73 -73 -73s-73 33 -73 73z" />
    <glyph glyph-name="gcommaaccent.school" unicode="&#xe061;" horiz-adv-x="542" 
d="M487 500v-535c0 -123 -35 -227 -244 -227c-61 0 -131 11 -178 33v100c60 -27 121 -38 178 -38c111 0 132 53 132 118v71c-38 -22 -81 -34 -134 -34c-146 0 -200 98 -200 262s54 262 200 262c67 0 118 -20 162 -52l18 40h66zM375 112v276c-20 11 -55 29 -108 29
c-98 0 -113 -74 -113 -167s15 -167 113 -167c53 0 88 18 108 29zM326 550h-133l65 200h89z" />
    <glyph glyph-name="gcommaturnedabove.school" unicode="&#xe062;" horiz-adv-x="542" 
d="M487 500v-535c0 -123 -35 -227 -244 -227c-61 0 -131 11 -178 33v100c60 -27 121 -38 178 -38c111 0 132 53 132 118v71c-38 -22 -81 -34 -134 -34c-146 0 -200 98 -200 262s54 262 200 262c67 0 118 -20 162 -52l18 40h66zM375 112v276c-20 11 -55 29 -108 29
c-98 0 -113 -74 -113 -167s15 -167 113 -167c53 0 88 18 108 29zM326 550h-133l65 200h89z" />
    <glyph glyph-name="gstroke.school" unicode="&#xe063;" horiz-adv-x="542" 
d="M576 -35v-84h-97c-19 -83 -77 -143 -236 -143c-61 0 -131 11 -178 33v100c60 -27 121 -38 178 -38c66 0 100 19 117 48h-107v84h122v57c-38 -22 -81 -34 -134 -34c-146 0 -200 98 -200 262s54 262 200 262c67 0 118 -20 162 -52l18 40h66v-535h89zM375 112v276
c-20 11 -55 29 -108 29c-98 0 -113 -74 -113 -167s15 -167 113 -167c53 0 88 18 108 29z" />
    <glyph glyph-name="y.school" unicode="&#xe064;" horiz-adv-x="524" 
d="M67 -237v99c54 -19 107 -29 158 -29c111 0 132 53 132 118v71c-44 -23 -90 -34 -134 -34c-127 0 -172 63 -172 159v353h112v-343c0 -51 26 -74 79 -74c52 0 88 14 115 29v388h112v-535c0 -123 -35 -227 -244 -227c-53 0 -112 9 -158 25z" />
    <glyph glyph-name="yacute.school" unicode="&#xe065;" horiz-adv-x="524" 
d="M67 -237v99c54 -19 107 -29 158 -29c111 0 132 53 132 118v71c-44 -23 -90 -34 -134 -34c-127 0 -172 63 -172 159v353h112v-343c0 -51 26 -74 79 -74c52 0 88 14 115 29v388h112v-535c0 -123 -35 -227 -244 -227c-53 0 -112 9 -158 25zM307 550h-94l58 200h135z" />
    <glyph glyph-name="ygrave.school" unicode="&#xe066;" horiz-adv-x="524" 
d="M67 -237v99c54 -19 107 -29 158 -29c111 0 132 53 132 118v71c-44 -23 -90 -34 -134 -34c-127 0 -172 63 -172 159v353h112v-343c0 -51 26 -74 79 -74c52 0 88 14 115 29v388h112v-535c0 -123 -35 -227 -244 -227c-53 0 -112 9 -158 25zM307 550h-94l-99 200h135z" />
    <glyph glyph-name="ycircumflex.school" unicode="&#xe067;" horiz-adv-x="524" 
d="M67 -237v99c54 -19 107 -29 158 -29c111 0 132 53 132 118v71c-44 -23 -90 -34 -134 -34c-127 0 -172 63 -172 159v353h112v-343c0 -51 26 -74 79 -74c52 0 88 14 115 29v388h112v-535c0 -123 -35 -227 -244 -227c-53 0 -112 9 -158 25zM353 550l-93 113l-93 -113h-95
l131 200h114l131 -200h-95z" />
    <glyph glyph-name="ydieresis.school" unicode="&#xe068;" horiz-adv-x="524" 
d="M67 -237v99c54 -19 107 -29 158 -29c111 0 132 53 132 118v71c-44 -23 -90 -34 -134 -34c-127 0 -172 63 -172 159v353h112v-343c0 -51 26 -74 79 -74c52 0 88 14 115 29v388h112v-535c0 -123 -35 -227 -244 -227c-53 0 -112 9 -158 25zM293 648c0 40 33 73 73 73
s73 -33 73 -73s-33 -73 -73 -73s-73 33 -73 73zM81 648c0 40 33 73 73 73s73 -33 73 -73s-33 -73 -73 -73s-73 33 -73 73z" />
    <glyph glyph-name="ytilde.school" unicode="&#xe069;" horiz-adv-x="524" 
d="M67 -237v99c54 -19 107 -29 158 -29c111 0 132 53 132 118v71c-44 -23 -90 -34 -134 -34c-127 0 -172 63 -172 159v353h112v-343c0 -51 26 -74 79 -74c52 0 88 14 115 29v388h112v-535c0 -123 -35 -227 -244 -227c-53 0 -112 9 -158 25zM388 707h75
c0 -81 -31 -140 -122 -140c-88 0 -108 74 -161 74c-43 0 -48 -29 -48 -54h-75c0 81 31 140 122 140c88 0 108 -74 161 -74c43 0 48 29 48 54z" />
    <glyph glyph-name="ymacron.school" unicode="&#xe06a;" horiz-adv-x="524" 
d="M67 -237v99c54 -19 107 -29 158 -29c111 0 132 53 132 118v71c-44 -23 -90 -34 -134 -34c-127 0 -172 63 -172 159v353h112v-343c0 -51 26 -74 79 -74c52 0 88 14 115 29v388h112v-535c0 -123 -35 -227 -244 -227c-53 0 -112 9 -158 25zM114 605v89h292v-89h-292z" />
    <glyph glyph-name="ordfeminine.school" unicode="&#xe06b;" horiz-adv-x="425" 
d="M313 750h71v-374h-71l-9 22c-37 -25 -79 -34 -111 -34c-108 0 -160 65 -160 199s52 199 160 199c32 0 74 -9 111 -34zM130 563c0 -85 32 -117 86 -117c31 0 55 10 71 20v194c-16 10 -40 20 -71 20c-54 0 -86 -32 -86 -117z" />
    <glyph glyph-name="a.small" unicode="&#xe06c;" horiz-adv-x="548" 
d="M408 0l-36 101h-196l-36 -101h-122l203 509h106l203 -509h-122zM343 184l-69 197l-69 -197h138z" />
    <glyph glyph-name="b.small" unicode="&#xe06d;" horiz-adv-x="511" 
d="M65 0v500h225c123 0 168 -49 168 -132c0 -44 -23 -76 -46 -90c42 -17 68 -68 68 -118c0 -91 -43 -160 -174 -160h-241zM361 159c0 32 -13 60 -67 60h-117v-120h120c54 0 64 28 64 60zM344 352c0 27 -8 49 -53 49h-114v-98h110c48 0 57 21 57 49z" />
    <glyph glyph-name="c.small" unicode="&#xe06e;" horiz-adv-x="499" 
d="M50 250c0 161 76 262 242 262c58 0 116 -9 156 -27v-99c-34 12 -77 25 -141 25c-101 0 -144 -68 -144 -161s43 -161 144 -161c64 0 107 13 141 25v-99c-40 -18 -98 -27 -156 -27c-166 0 -242 101 -242 262z" />
    <glyph glyph-name="d.small" unicode="&#xe06f;" horiz-adv-x="551" 
d="M259 0h-194v500h194c173 0 244 -97 244 -250s-71 -250 -244 -250zM177 99h79c104 0 135 62 135 151s-31 151 -135 151h-79v-302z" />
    <glyph glyph-name="e.small" unicode="&#xe070;" horiz-adv-x="500" 
d="M414 302v-97h-237v-106h269v-99h-381v500h381v-99h-269v-99h237z" />
    <glyph glyph-name="f.small" unicode="&#xe071;" horiz-adv-x="476" 
d="M404 298v-97h-227v-201h-112v500h371v-99h-259v-103h227z" />
    <glyph glyph-name="g.small" unicode="&#xe072;" horiz-adv-x="550" 
d="M163 250c0 -99 43 -161 150 -161c22 0 50 3 66 8v89h-88v97h198v-262c-46 -21 -123 -33 -186 -33c-185 0 -253 107 -253 262s68 262 253 262c73 0 136 -11 175 -29v-99c-39 14 -91 27 -165 27c-107 0 -150 -62 -150 -161z" />
    <glyph glyph-name="h.small" unicode="&#xe073;" horiz-adv-x="580" 
d="M515 0h-112v208h-226v-208h-112v500h112v-195h226v195h112v-500z" />
    <glyph glyph-name="i.small" unicode="&#xe074;" horiz-adv-x="262" 
d="M187 0h-112v500h112v-500z" />
    <glyph glyph-name="j.small" unicode="&#xe075;" horiz-adv-x="376" 
d="M31 -1v101c26 -7 49 -11 80 -11c57 0 92 20 92 70v341h112v-344c0 -103 -61 -168 -197 -168c-27 0 -64 4 -87 11z" />
    <glyph glyph-name="k.small" unicode="&#xe076;" horiz-adv-x="545" 
d="M501 500l-206 -211l230 -289h-142l-159 213l-50 -50l3 -163h-112v500h112l-3 -199l182 199h145z" />
    <glyph glyph-name="l.small" unicode="&#xe077;" horiz-adv-x="476" 
d="M177 500v-401h269v-99h-381v500h112z" />
    <glyph glyph-name="m.small" unicode="&#xe078;" horiz-adv-x="688" 
d="M208 500l137 -315l137 315h143v-500h-112l7 343l-125 -287h-100l-125 287l7 -343h-112v500h143z" />
    <glyph glyph-name="n.small" unicode="&#xe079;" horiz-adv-x="584" 
d="M519 0h-93l-254 318l5 -318h-112v500h93l255 -318l-6 318h112v-500z" />
    <glyph glyph-name="o.small" unicode="&#xe07a;" horiz-adv-x="600" 
d="M50 250c0 165 75 262 250 262s250 -97 250 -262s-75 -262 -250 -262s-250 97 -250 262zM437 250c0 102 -32 165 -137 165s-137 -63 -137 -165s32 -165 137 -165s137 63 137 165z" />
    <glyph glyph-name="p.small" unicode="&#xe07b;" horiz-adv-x="504" 
d="M292 156h-115v-156h-112v500h227c132 0 177 -76 177 -172s-45 -172 -177 -172zM177 401v-146h103c56 0 75 29 75 73s-19 73 -75 73h-103z" />
    <glyph glyph-name="q.small" unicode="&#xe07c;" horiz-adv-x="600" 
d="M50 250c0 165 75 262 250 262s250 -97 250 -262c0 -115 -35 -191 -111 -229v-1l231 -48v-114l-465 142c-108 33 -155 117 -155 250zM437 250c0 102 -32 165 -137 165s-137 -63 -137 -165s32 -165 137 -165s137 63 137 165z" />
    <glyph glyph-name="r.small" unicode="&#xe07d;" horiz-adv-x="536" 
d="M285 177h-108v-177h-112v500h240c131 0 174 -71 174 -162c0 -60 -22 -121 -84 -145l103 -193h-130zM361 338c0 31 -11 63 -66 63h-118v-125h118c55 1 66 31 66 62z" />
    <glyph glyph-name="s.small" unicode="&#xe07e;" horiz-adv-x="505" 
d="M261 412c-74 0 -100 -18 -100 -60c0 -37 28 -45 100 -51c150 -13 195 -45 195 -151c0 -90 -58 -162 -223 -162c-50 0 -138 13 -173 29v101c40 -16 107 -30 174 -30c82 0 111 21 111 62c0 40 -26 53 -98 59c-150 13 -195 46 -195 143c0 99 62 160 210 160
c50 0 128 -9 171 -28v-101c-45 17 -106 29 -172 29z" />
    <glyph glyph-name="t.small" unicode="&#xe07f;" horiz-adv-x="500" 
d="M465 401h-159v-401h-112v401h-159v99h430v-99z" />
    <glyph glyph-name="u.small" unicode="&#xe080;" horiz-adv-x="576" 
d="M288 -12c-153 0 -227 66 -227 177v335h112v-326c0 -60 42 -85 115 -85s115 25 115 85v326h112v-335c0 -111 -74 -177 -227 -177z" />
    <glyph glyph-name="v.small" unicode="&#xe081;" horiz-adv-x="548" 
d="M530 500l-209 -509h-94l-209 509h123l133 -364l133 364h123z" />
    <glyph glyph-name="w.small" unicode="&#xe082;" horiz-adv-x="744" 
d="M602 500h126l-134 -509h-111l-111 375l-111 -375h-111l-134 509h126l73 -344l96 344h122l96 -344z" />
    <glyph glyph-name="x.small" unicode="&#xe083;" horiz-adv-x="558" 
d="M160 0h-140l190 258l-180 242h138l111 -172l111 172h138l-180 -242l190 -258h-140l-119 178z" />
    <glyph glyph-name="y.small" unicode="&#xe084;" horiz-adv-x="566" 
d="M415 500h134l-211 -325l1 -175h-112l1 175l-211 325h134l132 -226z" />
    <glyph glyph-name="z.small" unicode="&#xe085;" horiz-adv-x="530" 
d="M490 0h-447v74l284 325l-264 -1v102h418v-74l-284 -325l293 1v-102z" />
    <glyph glyph-name="aacute.small" unicode="&#xe086;" horiz-adv-x="548" 
d="M408 0l-36 101h-196l-36 -101h-122l203 509h106l203 -509h-122zM321 550h-94l58 200h135zM343 184l-69 197l-69 -197h138z" />
    <glyph glyph-name="agrave.small" unicode="&#xe087;" horiz-adv-x="548" 
d="M408 0l-36 101h-196l-36 -101h-122l203 509h106l203 -509h-122zM321 550h-94l-99 200h135zM343 184l-69 197l-69 -197h138z" />
    <glyph glyph-name="acircumflex.small" unicode="&#xe088;" horiz-adv-x="548" 
d="M408 0l-36 101h-196l-36 -101h-122l203 509h106l203 -509h-122zM367 550l-93 113l-93 -113h-95l131 200h114l131 -200h-95zM343 184l-69 197l-69 -197h138z" />
    <glyph glyph-name="adieresis.small" unicode="&#xe089;" horiz-adv-x="548" 
d="M408 0l-36 101h-196l-36 -101h-122l203 509h106l203 -509h-122zM307 648c0 40 33 73 73 73s73 -33 73 -73s-33 -73 -73 -73s-73 33 -73 73zM95 648c0 40 33 73 73 73s73 -33 73 -73s-33 -73 -73 -73s-73 33 -73 73zM343 184l-69 197l-69 -197h138z" />
    <glyph glyph-name="atilde.small" unicode="&#xe08a;" horiz-adv-x="548" 
d="M408 0l-36 101h-196l-36 -101h-122l203 509h106l203 -509h-122zM402 707h75c0 -81 -31 -140 -122 -140c-88 0 -108 74 -161 74c-43 0 -48 -29 -48 -54h-75c0 81 31 140 122 140c88 0 108 -74 161 -74c43 0 48 29 48 54zM343 184l-69 197l-69 -197h138z" />
    <glyph glyph-name="aring.small" unicode="&#xe08b;" horiz-adv-x="548" 
d="M408 0l-36 101h-196l-36 -101h-122l203 509h106l203 -509h-122zM379 650c0 -70 -43 -103 -105 -103c-61 0 -105 33 -105 103s44 103 105 103c62 0 105 -33 105 -103zM343 184l-69 197l-69 -197h138zM236 650c0 -27 15 -37 38 -37s39 10 39 37s-16 37 -39 37
s-38 -10 -38 -37z" />
    <glyph glyph-name="acaron.small" unicode="&#xe08c;" horiz-adv-x="548" 
d="M408 0l-36 101h-196l-36 -101h-122l203 509h106l203 -509h-122zM274 637l93 113h95l-131 -200h-114l-131 200h95zM343 184l-69 197l-69 -197h138z" />
    <glyph glyph-name="amacron.small" unicode="&#xe08d;" horiz-adv-x="548" 
d="M408 0l-36 101h-196l-36 -101h-122l203 509h106l203 -509h-122zM128 605v89h292v-89h-292zM343 184l-69 197l-69 -197h138z" />
    <glyph glyph-name="abreve.small" unicode="&#xe08e;" horiz-adv-x="548" 
d="M408 0l-36 101h-196l-36 -101h-122l203 509h106l203 -509h-122zM274 550c-132 0 -181 56 -183 200h77c1 -76 27 -111 106 -111s105 35 106 111h77c-2 -144 -51 -200 -183 -200zM343 184l-69 197l-69 -197h138z" />
    <glyph glyph-name="ainvertedbreve.small" unicode="&#xe08f;" horiz-adv-x="548" 
d="M408 0l-36 101h-196l-36 -101h-122l203 509h106l203 -509h-122zM274 750c132 0 181 -56 183 -200h-77c-1 76 -27 111 -106 111s-105 -35 -106 -111h-77c2 144 51 200 183 200zM343 184l-69 197l-69 -197h138z" />
    <glyph glyph-name="adoublegrave.small" unicode="&#xe090;" horiz-adv-x="548" 
d="M408 0l-36 101h-196l-36 -101h-122l203 509h106l203 -509h-122zM236 550h-94l-99 200h135zM406 550h-94l-99 200h135zM343 184l-69 197l-69 -197h138z" />
    <glyph glyph-name="adotabove.small" unicode="&#xe091;" horiz-adv-x="548" 
d="M408 0l-36 101h-196l-36 -101h-122l203 509h106l203 -509h-122zM201 648c0 40 33 73 73 73s73 -33 73 -73s-33 -73 -73 -73s-73 33 -73 73zM343 184l-69 197l-69 -197h138z" />
    <glyph glyph-name="aringacute.small" unicode="&#xe092;" horiz-adv-x="548" 
d="M408 0l-36 101h-196l-36 -101h-122l203 509h106l203 -509h-122zM343 184l-69 197l-69 -197h138zM379 650c0 -70 -43 -103 -105 -103c-61 0 -105 33 -105 103c0 14 2 27 4 34l50 154h100l-44 -85c66 -3 100 -40 100 -103zM236 650c0 -27 15 -37 38 -37s39 10 39 37
s-16 37 -39 37s-38 -10 -38 -37z" />
    <glyph glyph-name="adieresismacron.small" unicode="&#xe093;" horiz-adv-x="548" 
d="M408 0l-36 101h-196l-36 -101h-122l203 509h106l203 -509h-122zM128 720v89h292v-89h-292zM95 619c0 40 33 73 73 73s73 -33 73 -73s-33 -73 -73 -73s-73 33 -73 73zM307 619c0 40 33 73 73 73s73 -33 73 -73s-33 -73 -73 -73s-73 33 -73 73zM343 184l-69 197l-69 -197
h138z" />
    <glyph glyph-name="aogonek.small" unicode="&#xe094;" horiz-adv-x="548" 
d="M372 101h-196l-36 -101h-122l203 509h106l203 -509c-55 -25 -106 -64 -106 -125c0 -30 20 -51 56 -51c28 0 51 5 63 9v-68c-16 -6 -42 -15 -85 -15c-67 0 -123 37 -123 109c0 41 18 90 75 134zM343 184l-69 197l-69 -197h138z" />
    <glyph glyph-name="anocross.small" unicode="&#xe095;" horiz-adv-x="547" 
d="M408 0l-134 381l-134 -381h-122l203 509h106l203 -509h-122z" />
    <glyph glyph-name="ae.small" unicode="&#xe096;" horiz-adv-x="767" 
d="M685 302v-97h-227l22 -106h237v-99h-334l-20 101h-181l-47 -101h-125l254 500h453v-99h-300l20 -99h248zM309 375l-90 -191h127z" />
    <glyph glyph-name="aeacute.small" unicode="&#xe097;" horiz-adv-x="767" 
d="M685 302v-97h-227l22 -106h237v-99h-334l-20 101h-181l-47 -101h-125l254 500h453v-99h-300l20 -99h248zM309 375l-90 -191h127zM401 550h-94l58 200h135z" />
    <glyph glyph-name="aemacron.small" unicode="&#xe098;" horiz-adv-x="767" 
d="M685 302v-97h-227l22 -106h237v-99h-334l-20 101h-181l-47 -101h-125l254 500h453v-99h-300l20 -99h248zM309 375l-90 -191h127zM208 605v89h292v-89h-292z" />
    <glyph glyph-name="cacute.small" unicode="&#xe099;" horiz-adv-x="499" 
d="M50 250c0 161 76 262 242 262c58 0 116 -9 156 -27v-99c-34 12 -77 25 -141 25c-101 0 -144 -68 -144 -161s43 -161 144 -161c64 0 107 13 141 25v-99c-40 -18 -98 -27 -156 -27c-166 0 -242 101 -242 262zM326 550h-94l58 200h135z" />
    <glyph glyph-name="ccircumflex.small" unicode="&#xe09a;" horiz-adv-x="499" 
d="M50 250c0 161 76 262 242 262c58 0 116 -9 156 -27v-99c-34 12 -77 25 -141 25c-101 0 -144 -68 -144 -161s43 -161 144 -161c64 0 107 13 141 25v-99c-40 -18 -98 -27 -156 -27c-166 0 -242 101 -242 262zM372 550l-93 113l-93 -113h-95l131 200h114l131 -200h-95z" />
    <glyph glyph-name="ccaron.small" unicode="&#xe09b;" horiz-adv-x="499" 
d="M50 250c0 161 76 262 242 262c58 0 116 -9 156 -27v-99c-34 12 -77 25 -141 25c-101 0 -144 -68 -144 -161s43 -161 144 -161c64 0 107 13 141 25v-99c-40 -18 -98 -27 -156 -27c-166 0 -242 101 -242 262zM279 637l93 113h95l-131 -200h-114l-131 200h95z" />
    <glyph glyph-name="cdotaccent.small" unicode="&#xe09c;" horiz-adv-x="499" 
d="M50 250c0 161 76 262 242 262c58 0 116 -9 156 -27v-99c-34 12 -77 25 -141 25c-101 0 -144 -68 -144 -161s43 -161 144 -161c64 0 107 13 141 25v-99c-40 -18 -98 -27 -156 -27c-166 0 -242 101 -242 262zM206 648c0 40 33 73 73 73s73 -33 73 -73s-33 -73 -73 -73
s-73 33 -73 73z" />
    <glyph glyph-name="ccedilla.small" unicode="&#xe09d;" horiz-adv-x="499" 
d="M227 -94l9 86c-127 21 -186 116 -186 258c0 161 76 262 242 262c58 0 116 -9 156 -27v-99c-34 12 -77 25 -141 25c-101 0 -144 -68 -144 -161s43 -161 144 -161c64 0 107 13 141 25v-99c-40 -18 -98 -27 -156 -27l3 -48c51 -12 93 -38 93 -93c0 -64 -49 -97 -119 -97
c-49 0 -83 12 -97 19v76c10 -4 44 -18 82 -18c34 0 54 8 54 30c0 31 -26 42 -81 49z" />
    <glyph glyph-name="dcaron.small" unicode="&#xe09e;" horiz-adv-x="551" 
d="M259 0h-194v500h194c173 0 244 -97 244 -250s-71 -250 -244 -250zM177 99h79c104 0 135 62 135 151s-31 151 -135 151h-79v-302zM260 637l93 113h95l-131 -200h-114l-131 200h95z" />
    <glyph glyph-name="dcedilla.small" unicode="&#xe09f;" horiz-adv-x="551" 
d="M259 0h-194v500h194c173 0 244 -97 244 -250s-71 -250 -244 -250zM177 99h79c104 0 135 62 135 151s-31 151 -135 151h-79v-302zM211 -94l5 50c116 -10 156 -55 156 -109c0 -64 -49 -97 -119 -97c-49 0 -83 12 -97 19v76c10 -4 44 -18 82 -18c34 0 54 8 54 30
c0 31 -26 42 -81 49z" />
    <glyph glyph-name="ddotbelow.small" unicode="&#xe0a0;" horiz-adv-x="551" 
d="M259 0h-194v500h194c173 0 244 -97 244 -250s-71 -250 -244 -250zM177 99h79c104 0 135 62 135 151s-31 151 -135 151h-79v-302zM336 -148c0 -40 -33 -73 -73 -73s-73 33 -73 73s33 73 73 73s73 -33 73 -73z" />
    <glyph glyph-name="dcroat.small" unicode="&#xe0a1;" horiz-adv-x="590" 
d="M25 202v96h80v202h194c173 0 244 -97 244 -250s-71 -250 -244 -250h-194v202h-80zM217 99h79c104 0 135 62 135 151s-31 151 -135 151h-79v-103h99v-96h-99v-103z" />
    <glyph glyph-name="eacute.small" unicode="&#xe0a2;" horiz-adv-x="500" 
d="M414 302v-97h-237v-106h269v-99h-381v500h381v-99h-269v-99h237zM308 550h-94l58 200h135z" />
    <glyph glyph-name="egrave.small" unicode="&#xe0a3;" horiz-adv-x="500" 
d="M414 302v-97h-237v-106h269v-99h-381v500h381v-99h-269v-99h237zM308 550h-94l-99 200h135z" />
    <glyph glyph-name="ecircumflex.small" unicode="&#xe0a4;" horiz-adv-x="500" 
d="M414 302v-97h-237v-106h269v-99h-381v500h381v-99h-269v-99h237zM354 550l-93 113l-93 -113h-95l131 200h114l131 -200h-95z" />
    <glyph glyph-name="edieresis.small" unicode="&#xe0a5;" horiz-adv-x="500" 
d="M414 302v-97h-237v-106h269v-99h-381v500h381v-99h-269v-99h237zM82 648c0 40 33 73 73 73s73 -33 73 -73s-33 -73 -73 -73s-73 33 -73 73zM294 648c0 40 33 73 73 73s73 -33 73 -73s-33 -73 -73 -73s-73 33 -73 73z" />
    <glyph glyph-name="ecaron.small" unicode="&#xe0a6;" horiz-adv-x="500" 
d="M414 302v-97h-237v-106h269v-99h-381v500h381v-99h-269v-99h237zM261 637l93 113h95l-131 -200h-114l-131 200h95z" />
    <glyph glyph-name="emacron.small" unicode="&#xe0a7;" horiz-adv-x="500" 
d="M414 302v-97h-237v-106h269v-99h-381v500h381v-99h-269v-99h237zM115 605v89h292v-89h-292z" />
    <glyph glyph-name="ebreve.small" unicode="&#xe0a8;" horiz-adv-x="500" 
d="M414 302v-97h-237v-106h269v-99h-381v500h381v-99h-269v-99h237zM261 550c-132 0 -181 56 -183 200h77c1 -76 27 -111 106 -111s105 35 106 111h77c-2 -144 -51 -200 -183 -200z" />
    <glyph glyph-name="einvertedbreve.small" unicode="&#xe0a9;" horiz-adv-x="500" 
d="M414 302v-97h-237v-106h269v-99h-381v500h381v-99h-269v-99h237zM261 750c132 0 181 -56 183 -200h-77c-1 76 -27 111 -106 111s-105 -35 -106 -111h-77c2 144 51 200 183 200z" />
    <glyph glyph-name="edoublegrave.small" unicode="&#xe0aa;" horiz-adv-x="500" 
d="M414 302v-97h-237v-106h269v-99h-381v500h381v-99h-269v-99h237zM393 550h-94l-99 200h135zM223 550h-94l-99 200h135z" />
    <glyph glyph-name="edotaccent.small" unicode="&#xe0ab;" horiz-adv-x="500" 
d="M414 302v-97h-237v-106h269v-99h-381v500h381v-99h-269v-99h237zM188 648c0 40 33 73 73 73s73 -33 73 -73s-33 -73 -73 -73s-73 33 -73 73z" />
    <glyph glyph-name="eacutedotbelow.small" unicode="&#xe0ac;" horiz-adv-x="500" 
d="M414 302v-97h-237v-106h269v-99h-381v500h381v-99h-269v-99h237zM334 -148c0 -40 -33 -73 -73 -73s-73 33 -73 73s33 73 73 73s73 -33 73 -73zM308 550h-94l58 200h135z" />
    <glyph glyph-name="egravedotbelow.small" unicode="&#xe0ad;" horiz-adv-x="500" 
d="M414 302v-97h-237v-106h269v-99h-381v500h381v-99h-269v-99h237zM334 -148c0 -40 -33 -73 -73 -73s-73 33 -73 73s33 73 73 73s73 -33 73 -73zM308 550h-94l-99 200h135z" />
    <glyph glyph-name="eogonek.small" unicode="&#xe0ae;" horiz-adv-x="500" 
d="M414 302v-97h-237v-106h269v-99c-55 -25 -106 -64 -106 -125c0 -30 20 -51 56 -51c28 0 51 5 63 9v-68c-16 -6 -42 -15 -85 -15c-67 0 -123 37 -123 109c0 44 20 96 85 141h-271v500h381v-99h-269v-99h237z" />
    <glyph glyph-name="gacute.small" unicode="&#xe0af;" horiz-adv-x="550" 
d="M163 250c0 -99 43 -161 150 -161c22 0 50 3 66 8v89h-88v97h198v-262c-46 -21 -123 -33 -186 -33c-185 0 -253 107 -253 262s68 262 253 262c73 0 136 -11 175 -29v-99c-39 14 -91 27 -165 27c-107 0 -150 -62 -150 -161zM344 550h-94l58 200h135z" />
    <glyph glyph-name="gcircumflex.small" unicode="&#xe0b0;" horiz-adv-x="550" 
d="M163 250c0 -99 43 -161 150 -161c22 0 50 3 66 8v89h-88v97h198v-262c-46 -21 -123 -33 -186 -33c-185 0 -253 107 -253 262s68 262 253 262c73 0 136 -11 175 -29v-99c-39 14 -91 27 -165 27c-107 0 -150 -62 -150 -161zM390 550l-93 113l-93 -113h-95l131 200h114
l131 -200h-95z" />
    <glyph glyph-name="gtilde.small" unicode="&#xe0b1;" horiz-adv-x="550" 
d="M163 250c0 -99 43 -161 150 -161c22 0 50 3 66 8v89h-88v97h198v-262c-46 -21 -123 -33 -186 -33c-185 0 -253 107 -253 262s68 262 253 262c73 0 136 -11 175 -29v-99c-39 14 -91 27 -165 27c-107 0 -150 -62 -150 -161zM425 707h75c0 -81 -31 -140 -122 -140
c-88 0 -108 74 -161 74c-43 0 -48 -29 -48 -54h-75c0 81 31 140 122 140c88 0 108 -74 161 -74c43 0 48 29 48 54z" />
    <glyph glyph-name="gcaron.small" unicode="&#xe0b2;" horiz-adv-x="550" 
d="M163 250c0 -99 43 -161 150 -161c22 0 50 3 66 8v89h-88v97h198v-262c-46 -21 -123 -33 -186 -33c-185 0 -253 107 -253 262s68 262 253 262c73 0 136 -11 175 -29v-99c-39 14 -91 27 -165 27c-107 0 -150 -62 -150 -161zM297 637l93 113h95l-131 -200h-114l-131 200h95z
" />
    <glyph glyph-name="gbreve.small" unicode="&#xe0b3;" horiz-adv-x="550" 
d="M163 250c0 -99 43 -161 150 -161c22 0 50 3 66 8v89h-88v97h198v-262c-46 -21 -123 -33 -186 -33c-185 0 -253 107 -253 262s68 262 253 262c73 0 136 -11 175 -29v-99c-39 14 -91 27 -165 27c-107 0 -150 -62 -150 -161zM297 550c-132 0 -181 56 -183 200h77
c1 -76 27 -111 106 -111s105 35 106 111h77c-2 -144 -51 -200 -183 -200z" />
    <glyph glyph-name="gdotaccent.small" unicode="&#xe0b4;" horiz-adv-x="550" 
d="M163 250c0 -99 43 -161 150 -161c22 0 50 3 66 8v89h-88v97h198v-262c-46 -21 -123 -33 -186 -33c-185 0 -253 107 -253 262s68 262 253 262c73 0 136 -11 175 -29v-99c-39 14 -91 27 -165 27c-107 0 -150 -62 -150 -161zM224 648c0 40 33 73 73 73s73 -33 73 -73
s-33 -73 -73 -73s-73 33 -73 73z" />
    <glyph glyph-name="gcommaaccent.small" unicode="&#xe0b5;" horiz-adv-x="550" 
d="M163 250c0 -99 43 -161 150 -161c22 0 50 3 66 8v89h-88v97h198v-262c-46 -21 -123 -33 -186 -33c-185 0 -253 107 -253 262s68 262 253 262c73 0 136 -11 175 -29v-99c-39 14 -91 27 -165 27c-107 0 -150 -62 -150 -161zM235 -50h133l-65 -200h-89z" />
    <glyph glyph-name="gcommaturnedabove.small" unicode="&#xe0b6;" horiz-adv-x="550" 
d="M163 250c0 -99 43 -161 150 -161c22 0 50 3 66 8v89h-88v97h198v-262c-46 -21 -123 -33 -186 -33c-185 0 -253 107 -253 262s68 262 253 262c73 0 136 -11 175 -29v-99c-39 14 -91 27 -165 27c-107 0 -150 -62 -150 -161zM359 550h-133l65 200h89z" />
    <glyph glyph-name="gstroke.small" unicode="&#xe0b7;" horiz-adv-x="573" 
d="M163 250c0 -99 43 -161 150 -161c22 0 50 3 66 8v89h-88v97h198v-97h62v-86h-62v-79c-46 -21 -123 -33 -186 -33c-185 0 -253 107 -253 262s68 262 253 262c73 0 136 -11 175 -29v-99c-39 14 -91 27 -165 27c-107 0 -150 -62 -150 -161z" />
    <glyph glyph-name="hcircumflex.small" unicode="&#xe0b8;" horiz-adv-x="580" 
d="M515 0h-112v208h-226v-208h-112v500h112v-195h226v195h112v-500zM383 550l-93 113l-93 -113h-95l131 200h114l131 -200h-95z" />
    <glyph glyph-name="hcaron.small" unicode="&#xe0b9;" horiz-adv-x="580" 
d="M515 0h-112v208h-226v-208h-112v500h112v-195h226v195h112v-500zM290 637l93 113h95l-131 -200h-114l-131 200h95z" />
    <glyph glyph-name="hdotbelow.small" unicode="&#xe0ba;" horiz-adv-x="580" 
d="M515 0h-112v208h-226v-208h-112v500h112v-195h226v195h112v-500zM363 -148c0 -40 -33 -73 -73 -73s-73 33 -73 73s33 73 73 73s73 -33 73 -73z" />
    <glyph glyph-name="hmacronbelow.small" unicode="&#xe0bb;" horiz-adv-x="580" 
d="M515 0h-112v208h-226v-208h-112v500h112v-195h226v195h112v-500zM436 -105v-89h-292v89h292z" />
    <glyph glyph-name="hbar.small" unicode="&#xe0bc;" horiz-adv-x="580" 
d="M515 0h-112v208h-226v-208h-112v500h112v-54h226v54h112v-500zM177 305h226v55h-226v-55z" />
    <glyph glyph-name="iacute.small" unicode="&#xe0bd;" horiz-adv-x="265" 
d="M187 0h-112v500h112v-500zM178 550h-94l58 200h135z" />
    <glyph glyph-name="igrave.small" unicode="&#xe0be;" horiz-adv-x="265" 
d="M187 0h-112v500h112v-500zM178 550h-94l-99 200h135z" />
    <glyph glyph-name="icircumflex.small" unicode="&#xe0bf;" horiz-adv-x="265" 
d="M187 0h-112v500h112v-500zM131 663l-93 -113h-95l131 200h114l131 -200h-95z" />
    <glyph glyph-name="idieresis.small" unicode="&#xe0c0;" horiz-adv-x="265" 
d="M187 0h-112v500h112v-500zM-38 648c0 40 33 73 73 73s73 -33 73 -73s-33 -73 -73 -73s-73 33 -73 73zM154 648c0 40 33 73 73 73s73 -33 73 -73s-33 -73 -73 -73s-73 33 -73 73z" />
    <glyph glyph-name="itilde.small" unicode="&#xe0c1;" horiz-adv-x="265" 
d="M187 0h-112v500h112v-500zM259 707h75c0 -81 -31 -140 -122 -140c-88 0 -108 74 -161 74c-43 0 -48 -29 -48 -54h-75c0 81 31 140 122 140c88 0 108 -74 161 -74c43 0 48 29 48 54z" />
    <glyph glyph-name="icaron.small" unicode="&#xe0c2;" horiz-adv-x="265" 
d="M187 0h-112v500h112v-500zM131 637l93 113h95l-131 -200h-114l-131 200h95z" />
    <glyph glyph-name="imacron.small" unicode="&#xe0c3;" horiz-adv-x="265" 
d="M187 0h-112v500h112v-500zM-15 605v89h292v-89h-292z" />
    <glyph glyph-name="ibreve.small" unicode="&#xe0c4;" horiz-adv-x="265" 
d="M187 0h-112v500h112v-500zM131 550c-132 0 -181 56 -183 200h77c1 -76 27 -111 106 -111s105 35 106 111h77c-2 -144 -51 -200 -183 -200z" />
    <glyph glyph-name="iinvertedbreve.small" unicode="&#xe0c5;" horiz-adv-x="265" 
d="M187 0h-112v500h112v-500zM131 750c132 0 181 -56 183 -200h-77c-1 76 -27 111 -106 111s-105 -35 -106 -111h-77c2 144 51 200 183 200z" />
    <glyph glyph-name="idoublegrave.small" unicode="&#xe0c6;" horiz-adv-x="265" 
d="M187 0h-112v500h112v-500zM253 550h-94l-99 200h135zM103 550h-94l-99 200h135z" />
    <glyph glyph-name="idotaccent.small" unicode="&#xe0c7;" horiz-adv-x="265" 
d="M187 0h-112v500h112v-500zM58 648c0 40 33 73 73 73s73 -33 73 -73s-33 -73 -73 -73s-73 33 -73 73z" />
    <glyph glyph-name="idotbelow.small" unicode="&#xe0c8;" horiz-adv-x="265" 
d="M187 0h-112v500h112v-500zM204 -148c0 -40 -33 -73 -73 -73s-73 33 -73 73s33 73 73 73s73 -33 73 -73z" />
    <glyph glyph-name="iogonek.small" unicode="&#xe0c9;" horiz-adv-x="265" 
d="M187 0c-50 -25 -91 -64 -91 -125c0 -30 20 -51 56 -51c28 0 51 5 63 9v-68c-16 -6 -42 -15 -85 -15c-67 0 -123 37 -123 109c0 42 15 91 68 136v505h112v-500z" />
    <glyph glyph-name="jcircumflex.small" unicode="&#xe0ca;" horiz-adv-x="387" 
d="M31 -1v101c26 -7 49 -11 80 -11c57 0 92 20 92 70v341h112v-344c0 -103 -61 -168 -197 -168c-27 0 -64 4 -87 11zM259 663l-93 -113h-95l131 200h114l131 -200h-95z" />
    <glyph glyph-name="jcaron.small" unicode="&#xe0cb;" horiz-adv-x="387" 
d="M31 -1v101c26 -7 49 -11 80 -11c57 0 92 20 92 70v341h112v-344c0 -103 -61 -168 -197 -168c-27 0 -64 4 -87 11zM259 637l93 113h95l-131 -200h-114l-131 200h95z" />
    <glyph glyph-name="kcaron.small" unicode="&#xe0cc;" horiz-adv-x="545" 
d="M501 500l-206 -211l230 -289h-142l-159 213l-50 -50l3 -163h-112v500h112l-3 -199l182 199h145zM262 637l93 113h95l-131 -200h-114l-131 200h95z" />
    <glyph glyph-name="kcommaaccent.small" unicode="&#xe0cd;" horiz-adv-x="545" 
d="M501 500l-206 -211l230 -289h-142l-159 213l-50 -50l3 -163h-112v500h112l-3 -199l182 199h145zM210 -50h133l-65 -200h-89z" />
    <glyph glyph-name="kcedilla.small" unicode="&#xe0ce;" horiz-adv-x="545" 
d="M501 500l-206 -211l230 -289h-142l-159 213l-50 -50l3 -163h-112v500h112l-3 -199l182 199h145zM220 -94l5 50c116 -10 156 -55 156 -109c0 -64 -49 -97 -119 -97c-49 0 -83 12 -97 19v76c10 -4 44 -18 82 -18c34 0 54 8 54 30c0 31 -26 42 -81 49z" />
    <glyph glyph-name="khook.small" unicode="&#xe0cf;" horiz-adv-x="545" 
d="M173 0h-108v500h108v-220c31 10 53 37 81 87c46 93 100 137 240 137v-102c-85 0 -123 -31 -170 -123l-10 -17l210 -262h-142l-145 191c-20 -14 -42 -26 -64 -31v-160z" />
    <glyph glyph-name="lacute.small" unicode="&#xe0d0;" horiz-adv-x="476" 
d="M177 500v-401h269v-99h-381v500h112zM168 550h-94l58 200h135z" />
    <glyph glyph-name="lcaron.small" unicode="&#xe0d1;" horiz-adv-x="476" 
d="M177 500v-401h269v-99h-381v500h112zM263 625h88l-48 -200h-56z" />
    <glyph glyph-name="lcommaaccent.small" unicode="&#xe0d2;" horiz-adv-x="476" 
d="M177 500v-401h269v-99h-381v500h112zM195 -50h133l-65 -200h-89z" />
    <glyph glyph-name="lcedilla.small" unicode="&#xe0d3;" horiz-adv-x="476" 
d="M177 500v-401h269v-99h-381v500h112zM205 -94l5 50c116 -10 156 -55 156 -109c0 -64 -49 -97 -119 -97c-49 0 -83 12 -97 19v76c10 -4 44 -18 82 -18c34 0 54 8 54 30c0 31 -26 42 -81 49z" />
    <glyph glyph-name="ldotbelow.small" unicode="&#xe0d4;" horiz-adv-x="476" 
d="M177 500v-401h269v-99h-381v500h112zM330 -148c0 -40 -33 -73 -73 -73s-73 33 -73 73s33 73 73 73s73 -33 73 -73z" />
    <glyph glyph-name="ldotbelowmacron.small" unicode="&#xe0d5;" horiz-adv-x="476" 
d="M177 500v-401h269v-99h-381v500h112zM330 -148c0 -40 -33 -73 -73 -73s-73 33 -73 73s33 73 73 73s73 -33 73 -73zM-25 605v89h292v-89h-292z" />
    <glyph glyph-name="ldot.small" unicode="&#xe0d6;" horiz-adv-x="476" 
d="M177 500v-401h269v-99h-381v500h112zM432 285c0 -40 -33 -73 -73 -73s-73 33 -73 73s33 73 73 73s73 -33 73 -73z" />
    <glyph glyph-name="lslash.small" unicode="&#xe0d7;" horiz-adv-x="523" 
d="M416 304l-192 -106v-99h269v-99h-381v136l-91 -50v91l91 50v273h112v-211l192 106v-91z" />
    <glyph glyph-name="mmacron.small" unicode="&#xe0d8;" horiz-adv-x="689" 
d="M208 500l137 -315l137 315h143v-500h-112l7 343l-125 -287h-100l-125 287l7 -343h-112v500h143zM200 605v89h292v-89h-292z" />
    <glyph glyph-name="mcedilla.small" unicode="&#xe0d9;" horiz-adv-x="689" 
d="M208 500l137 -315l137 315h143v-500h-112l7 343l-125 -287h-100l-125 287l7 -343h-112v500h143zM294 -94l5 50c116 -10 156 -55 156 -109c0 -64 -49 -97 -119 -97c-49 0 -83 12 -97 19v76c10 -4 44 -18 82 -18c34 0 54 8 54 30c0 31 -26 42 -81 49z" />
    <glyph glyph-name="mdotbelow.small" unicode="&#xe0da;" horiz-adv-x="689" 
d="M208 500l137 -315l137 315h143v-500h-112l7 343l-125 -287h-100l-125 287l7 -343h-112v500h143zM419 -148c0 -40 -33 -73 -73 -73s-73 33 -73 73s33 73 73 73s73 -33 73 -73z" />
    <glyph glyph-name="nacute.small" unicode="&#xe0db;" horiz-adv-x="584" 
d="M519 0h-93l-254 318l5 -318h-112v500h93l255 -318l-6 318h112v-500zM339 550h-94l58 200h135z" />
    <glyph glyph-name="ngrave.small" unicode="&#xe0dc;" horiz-adv-x="584" 
d="M519 0h-93l-254 318l5 -318h-112v500h93l255 -318l-6 318h112v-500zM339 550h-94l-99 200h135z" />
    <glyph glyph-name="ndieresis.small" unicode="&#xe0dd;" horiz-adv-x="584" 
d="M519 0h-93l-254 318l5 -318h-112v500h93l255 -318l-6 318h112v-500zM113 648c0 40 33 73 73 73s73 -33 73 -73s-33 -73 -73 -73s-73 33 -73 73zM325 648c0 40 33 73 73 73s73 -33 73 -73s-33 -73 -73 -73s-73 33 -73 73z" />
    <glyph glyph-name="ntilde.small" unicode="&#xe0de;" horiz-adv-x="584" 
d="M519 0h-93l-254 318l5 -318h-112v500h93l255 -318l-6 318h112v-500zM420 707h75c0 -81 -31 -140 -122 -140c-88 0 -108 74 -161 74c-43 0 -48 -29 -48 -54h-75c0 81 31 140 122 140c88 0 108 -74 161 -74c43 0 48 29 48 54z" />
    <glyph glyph-name="ncaron.small" unicode="&#xe0df;" horiz-adv-x="584" 
d="M519 0h-93l-254 318l5 -318h-112v500h93l255 -318l-6 318h112v-500zM292 637l93 113h95l-131 -200h-114l-131 200h95z" />
    <glyph glyph-name="nmacron.small" unicode="&#xe0e0;" horiz-adv-x="584" 
d="M519 0h-93l-254 318l5 -318h-112v500h93l255 -318l-6 318h112v-500zM146 605v89h292v-89h-292z" />
    <glyph glyph-name="ndotaccent.small" unicode="&#xe0e1;" horiz-adv-x="584" 
d="M519 0h-93l-254 318l5 -318h-112v500h93l255 -318l-6 318h112v-500zM219 648c0 40 33 73 73 73s73 -33 73 -73s-33 -73 -73 -73s-73 33 -73 73z" />
    <glyph glyph-name="ncommaaccent.small" unicode="&#xe0e2;" horiz-adv-x="584" 
d="M519 0h-93l-254 318l5 -318h-112v500h93l255 -318l-6 318h112v-500zM230 -50h133l-65 -200h-89z" />
    <glyph glyph-name="ncedilla.small" unicode="&#xe0e3;" horiz-adv-x="584" 
d="M519 0h-93l-254 318l5 -318h-112v500h93l255 -318l-6 318h112v-500zM240 -94l5 50c116 -10 156 -55 156 -109c0 -64 -49 -97 -119 -97c-49 0 -83 12 -97 19v76c10 -4 44 -18 82 -18c34 0 54 8 54 30c0 31 -26 42 -81 49z" />
    <glyph glyph-name="ndotbelow.small" unicode="&#xe0e4;" horiz-adv-x="584" 
d="M519 0h-93l-254 318l5 -318h-112v500h93l255 -318l-6 318h112v-500zM365 -148c0 -40 -33 -73 -73 -73s-73 33 -73 73s33 73 73 73s73 -33 73 -73z" />
    <glyph glyph-name="ndescender.small" unicode="&#xe0e5;" horiz-adv-x="601" 
d="M519 0h-93l-254 318l5 -318h-112v500h93l255 -318l-6 318h112v-421h82v-204h-82v125z" />
    <glyph glyph-name="oacute.small" unicode="&#xe0e6;" horiz-adv-x="594" 
d="M50 250c0 165 75 262 250 262s250 -97 250 -262s-75 -262 -250 -262s-250 97 -250 262zM437 250c0 102 -32 165 -137 165s-137 -63 -137 -165s32 -165 137 -165s137 63 137 165zM347 550h-94l58 200h135z" />
    <glyph glyph-name="ograve.small" unicode="&#xe0e7;" horiz-adv-x="594" 
d="M50 250c0 165 75 262 250 262s250 -97 250 -262s-75 -262 -250 -262s-250 97 -250 262zM437 250c0 102 -32 165 -137 165s-137 -63 -137 -165s32 -165 137 -165s137 63 137 165zM347 550h-94l-99 200h135z" />
    <glyph glyph-name="ocircumflex.small" unicode="&#xe0e8;" horiz-adv-x="594" 
d="M50 250c0 165 75 262 250 262s250 -97 250 -262s-75 -262 -250 -262s-250 97 -250 262zM437 250c0 102 -32 165 -137 165s-137 -63 -137 -165s32 -165 137 -165s137 63 137 165zM393 550l-93 113l-93 -113h-95l131 200h114l131 -200h-95z" />
    <glyph glyph-name="odieresis.small" unicode="&#xe0e9;" horiz-adv-x="594" 
d="M50 250c0 165 75 262 250 262s250 -97 250 -262s-75 -262 -250 -262s-250 97 -250 262zM437 250c0 102 -32 165 -137 165s-137 -63 -137 -165s32 -165 137 -165s137 63 137 165zM121 648c0 40 33 73 73 73s73 -33 73 -73s-33 -73 -73 -73s-73 33 -73 73zM333 648
c0 40 33 73 73 73s73 -33 73 -73s-33 -73 -73 -73s-73 33 -73 73z" />
    <glyph glyph-name="otilde.small" unicode="&#xe0ea;" horiz-adv-x="594" 
d="M50 250c0 165 75 262 250 262s250 -97 250 -262s-75 -262 -250 -262s-250 97 -250 262zM437 250c0 102 -32 165 -137 165s-137 -63 -137 -165s32 -165 137 -165s137 63 137 165zM428 707h75c0 -81 -31 -140 -122 -140c-88 0 -108 74 -161 74c-43 0 -48 -29 -48 -54h-75
c0 81 31 140 122 140c88 0 108 -74 161 -74c43 0 48 29 48 54z" />
    <glyph glyph-name="ocaron.small" unicode="&#xe0eb;" horiz-adv-x="594" 
d="M50 250c0 165 75 262 250 262s250 -97 250 -262s-75 -262 -250 -262s-250 97 -250 262zM437 250c0 102 -32 165 -137 165s-137 -63 -137 -165s32 -165 137 -165s137 63 137 165zM300 637l93 113h95l-131 -200h-114l-131 200h95z" />
    <glyph glyph-name="omacron.small" unicode="&#xe0ec;" horiz-adv-x="594" 
d="M50 250c0 165 75 262 250 262s250 -97 250 -262s-75 -262 -250 -262s-250 97 -250 262zM437 250c0 102 -32 165 -137 165s-137 -63 -137 -165s32 -165 137 -165s137 63 137 165zM154 605v89h292v-89h-292z" />
    <glyph glyph-name="obreve.small" unicode="&#xe0ed;" horiz-adv-x="594" 
d="M50 250c0 165 75 262 250 262s250 -97 250 -262s-75 -262 -250 -262s-250 97 -250 262zM437 250c0 102 -32 165 -137 165s-137 -63 -137 -165s32 -165 137 -165s137 63 137 165zM300 550c-132 0 -181 56 -183 200h77c1 -76 27 -111 106 -111s105 35 106 111h77
c-2 -144 -51 -200 -183 -200z" />
    <glyph glyph-name="oinvertedbreve.small" unicode="&#xe0ee;" horiz-adv-x="594" 
d="M50 250c0 165 75 262 250 262s250 -97 250 -262s-75 -262 -250 -262s-250 97 -250 262zM437 250c0 102 -32 165 -137 165s-137 -63 -137 -165s32 -165 137 -165s137 63 137 165zM300 750c132 0 181 -56 183 -200h-77c-1 76 -27 111 -106 111s-105 -35 -106 -111h-77
c2 144 51 200 183 200z" />
    <glyph glyph-name="ohungarumlaut.small" unicode="&#xe0ef;" horiz-adv-x="594" 
d="M50 250c0 165 75 262 250 262s250 -97 250 -262s-75 -262 -250 -262s-250 97 -250 262zM437 250c0 102 -32 165 -137 165s-137 -63 -137 -165s32 -165 137 -165s137 63 137 165zM262 550h-94l58 200h135zM432 550h-94l58 200h135z" />
    <glyph glyph-name="odoublegrave.small" unicode="&#xe0f0;" horiz-adv-x="594" 
d="M50 250c0 165 75 262 250 262s250 -97 250 -262s-75 -262 -250 -262s-250 97 -250 262zM437 250c0 102 -32 165 -137 165s-137 -63 -137 -165s32 -165 137 -165s137 63 137 165zM432 550h-94l-99 200h135zM262 550h-94l-99 200h135z" />
    <glyph glyph-name="ocommaturnedabove.small" unicode="&#xe0f1;" horiz-adv-x="594" 
d="M50 250c0 165 75 262 250 262s250 -97 250 -262s-75 -262 -250 -262s-250 97 -250 262zM437 250c0 102 -32 165 -137 165s-137 -63 -137 -165s32 -165 137 -165s137 63 137 165zM362 550h-133l65 200h89z" />
    <glyph glyph-name="otildemacron.small" unicode="&#xe0f2;" horiz-adv-x="594" 
d="M50 250c0 165 75 262 250 262s250 -97 250 -262s-75 -262 -250 -262s-250 97 -250 262zM437 250c0 102 -32 165 -137 165s-137 -63 -137 -165s32 -165 137 -165s137 63 137 165zM154 722v89h292v-89h-292zM428 679h75c0 -81 -31 -140 -122 -140c-88 0 -108 74 -161 74
c-43 0 -48 -29 -48 -54h-75c0 81 31 140 122 140c88 0 108 -74 161 -74c43 0 48 29 48 54z" />
    <glyph glyph-name="odotabove.small" unicode="&#xe0f3;" horiz-adv-x="594" 
d="M50 250c0 165 75 262 250 262s250 -97 250 -262s-75 -262 -250 -262s-250 97 -250 262zM437 250c0 102 -32 165 -137 165s-137 -63 -137 -165s32 -165 137 -165s137 63 137 165zM227 648c0 40 33 73 73 73s73 -33 73 -73s-33 -73 -73 -73s-73 33 -73 73z" />
    <glyph glyph-name="odotabovemacron.small" unicode="&#xe0f4;" horiz-adv-x="594" 
d="M50 250c0 165 75 262 250 262s250 -97 250 -262s-75 -262 -250 -262s-250 97 -250 262zM437 250c0 102 -32 165 -137 165s-137 -63 -137 -165s32 -165 137 -165s137 63 137 165zM154 722v89h292v-89h-292zM227 619c0 40 33 73 73 73s73 -33 73 -73s-33 -73 -73 -73
s-73 33 -73 73z" />
    <glyph glyph-name="ocedilla.small" unicode="&#xe0f5;" horiz-adv-x="594" 
d="M50 250c0 165 75 262 250 262s250 -97 250 -262s-75 -262 -250 -262s-250 97 -250 262zM437 250c0 102 -32 165 -137 165s-137 -63 -137 -165s32 -165 137 -165s137 63 137 165zM248 -94l5 50c116 -10 156 -55 156 -109c0 -64 -49 -97 -119 -97c-49 0 -83 12 -97 19v76
c10 -4 44 -18 82 -18c34 0 54 8 54 30c0 31 -26 42 -81 49z" />
    <glyph glyph-name="odotbelow.small" unicode="&#xe0f6;" horiz-adv-x="594" 
d="M50 250c0 165 75 262 250 262s250 -97 250 -262s-75 -262 -250 -262s-250 97 -250 262zM437 250c0 102 -32 165 -137 165s-137 -63 -137 -165s32 -165 137 -165s137 63 137 165zM373 -148c0 -40 -33 -73 -73 -73s-73 33 -73 73s33 73 73 73s73 -33 73 -73z" />
    <glyph glyph-name="oogonek.small" unicode="&#xe0f7;" horiz-adv-x="594" 
d="M50 250c0 165 75 262 250 262s250 -97 250 -262c0 -131 -48 -220 -155 -250c-55 -25 -106 -64 -106 -125c0 -30 20 -51 56 -51c28 0 51 5 63 9v-68c-16 -6 -42 -15 -85 -15c-67 0 -123 37 -123 109c0 40 17 87 70 130c-154 11 -220 105 -220 261zM437 250
c0 102 -32 165 -137 165s-137 -63 -137 -165s32 -165 137 -165s137 63 137 165z" />
    <glyph glyph-name="oogonekmacron.small" unicode="&#xe0f8;" horiz-adv-x="594" 
d="M395 0c-55 -25 -106 -64 -106 -125c0 -30 20 -51 56 -51c28 0 51 5 63 9v-68c-16 -6 -42 -15 -85 -15c-67 0 -123 37 -123 109c0 40 17 87 70 130c-154 11 -220 105 -220 261c0 165 75 262 250 262s250 -97 250 -262c0 -131 -48 -220 -155 -250zM437 250
c0 102 -32 165 -137 165s-137 -63 -137 -165s32 -165 137 -165s137 63 137 165zM154 605v89h292v-89h-292z" />
    <glyph glyph-name="ounderlineaccent.small" unicode="&#xe0f9;" horiz-adv-x="594" 
d="M50 250c0 165 75 262 250 262s250 -97 250 -262s-75 -262 -250 -262s-250 97 -250 262zM437 250c0 102 -32 165 -137 165s-137 -63 -137 -165s32 -165 137 -165s137 63 137 165zM261 -50h78v-200h-78v200z" />
    <glyph glyph-name="oslash.small" unicode="&#xe0fa;" horiz-adv-x="594" 
d="M442 500h79l-37 -50c45 -45 66 -113 66 -200c0 -165 -75 -262 -250 -262c-55 0 -101 10 -137 28l-11 -16h-79l39 53c-43 45 -62 112 -62 197c0 165 75 262 250 262c53 0 96 -9 132 -26zM437 250c0 44 -6 80 -21 108l-190 -258c19 -10 43 -15 74 -15c105 0 137 63 137 165
zM300 415c-105 0 -137 -63 -137 -165c0 -42 5 -76 18 -103l188 254c-18 9 -41 14 -69 14zM347 550h-94l58 200h135z" />
    <glyph glyph-name="oslashacute.small" unicode="&#xe0fb;" horiz-adv-x="594" 
d="M442 500h79l-37 -50c45 -45 66 -113 66 -200c0 -165 -75 -262 -250 -262c-55 0 -101 10 -137 28l-11 -16h-79l39 53c-43 45 -62 112 -62 197c0 165 75 262 250 262c53 0 96 -9 132 -26zM437 250c0 44 -6 80 -21 108l-190 -258c19 -10 43 -15 74 -15c105 0 137 63 137 165
zM300 415c-105 0 -137 -63 -137 -165c0 -42 5 -76 18 -103l188 254c-18 9 -41 14 -69 14z" />
    <glyph glyph-name="barredo.small" unicode="&#xe0fc;" horiz-adv-x="594" 
d="M50 250c0 165 75 262 250 262s250 -97 250 -262s-75 -262 -250 -262s-250 97 -250 262zM300 85c88 0 125 45 134 120h-269c10 -75 46 -120 135 -120zM300 415c-86 0 -123 -42 -134 -113h267c-10 71 -47 113 -133 113z" />
    <glyph glyph-name="oe.small" unicode="&#xe0fd;" horiz-adv-x="769" 
d="M683 302v-97h-217v-106h249v-99h-423c-173 0 -244 97 -244 250s71 250 244 250h423v-99h-249v-99h217zM354 401h-59c-104 0 -135 -62 -135 -151s31 -151 135 -151h59v302z" />
    <glyph glyph-name="pmacron.small" unicode="&#xe0fe;" horiz-adv-x="504" 
d="M292 156h-115v-156h-112v500h227c132 0 177 -76 177 -172s-45 -172 -177 -172zM177 401v-146h103c56 0 75 29 75 73s-19 73 -75 73h-103zM105 605v89h292v-89h-292z" />
    <glyph glyph-name="racute.small" unicode="&#xe0ff;" horiz-adv-x="536" 
d="M285 177h-108v-177h-112v500h240c131 0 174 -71 174 -162c0 -60 -22 -121 -84 -145l103 -193h-130zM361 338c0 31 -11 63 -66 63h-118v-125h118c55 1 66 31 66 62zM304 550h-94l58 200h135z" />
    <glyph glyph-name="rcaron.small" unicode="&#xe100;" horiz-adv-x="536" 
d="M285 177h-108v-177h-112v500h240c131 0 174 -71 174 -162c0 -60 -22 -121 -84 -145l103 -193h-130zM257 637l93 113h95l-131 -200h-114l-131 200h95zM361 338c0 31 -11 63 -66 63h-118v-125h118c55 1 66 31 66 62z" />
    <glyph glyph-name="rinvertedbreve.small" unicode="&#xe101;" horiz-adv-x="536" 
d="M285 177h-108v-177h-112v500h240c131 0 174 -71 174 -162c0 -60 -22 -121 -84 -145l103 -193h-130zM361 338c0 31 -11 63 -66 63h-118v-125h118c55 1 66 31 66 62zM257 750c132 0 181 -56 183 -200h-77c-1 76 -27 111 -106 111s-105 -35 -106 -111h-77
c2 144 51 200 183 200z" />
    <glyph glyph-name="rdoublegrave.small" unicode="&#xe102;" horiz-adv-x="536" 
d="M285 177h-108v-177h-112v500h240c131 0 174 -71 174 -162c0 -60 -22 -121 -84 -145l103 -193h-130zM361 338c0 31 -11 63 -66 63h-118v-125h118c55 1 66 31 66 62zM389 550h-94l-99 200h135zM219 550h-94l-99 200h135z" />
    <glyph glyph-name="rcommaaccent.small" unicode="&#xe103;" horiz-adv-x="536" 
d="M285 177h-108v-177h-112v500h240c131 0 174 -71 174 -162c0 -60 -22 -121 -84 -145l103 -193h-130zM361 338c0 31 -11 63 -66 63h-118v-125h118c55 1 66 31 66 62zM207 -50h133l-65 -200h-89z" />
    <glyph glyph-name="rcedilla.small" unicode="&#xe104;" horiz-adv-x="536" 
d="M285 177h-108v-177h-112v500h240c131 0 174 -71 174 -162c0 -60 -22 -121 -84 -145l103 -193h-130zM361 338c0 31 -11 63 -66 63h-118v-125h118c55 1 66 31 66 62zM217 -94l5 50c116 -10 156 -55 156 -109c0 -64 -49 -97 -119 -97c-49 0 -83 12 -97 19v76
c10 -4 44 -18 82 -18c34 0 54 8 54 30c0 31 -26 42 -81 49z" />
    <glyph glyph-name="rdotbelow.small" unicode="&#xe105;" horiz-adv-x="536" 
d="M285 177h-108v-177h-112v500h240c131 0 174 -71 174 -162c0 -60 -22 -121 -84 -145l103 -193h-130zM361 338c0 31 -11 63 -66 63h-118v-125h118c55 1 66 31 66 62zM342 -148c0 -40 -33 -73 -73 -73s-73 33 -73 73s33 73 73 73s73 -33 73 -73z" />
    <glyph glyph-name="rdotbelowmacron.small" unicode="&#xe106;" horiz-adv-x="536" 
d="M285 177h-108v-177h-112v500h240c131 0 174 -71 174 -162c0 -60 -22 -121 -84 -145l103 -193h-130zM361 338c0 31 -11 63 -66 63h-118v-125h118c55 1 66 31 66 62zM342 -148c0 -40 -33 -73 -73 -73s-73 33 -73 73s33 73 73 73s73 -33 73 -73zM111 605v89h292v-89h-292z
" />
    <glyph glyph-name="sacute.small" unicode="&#xe107;" horiz-adv-x="505" 
d="M261 412c-74 0 -100 -18 -100 -60c0 -37 28 -45 100 -51c150 -13 195 -45 195 -151c0 -90 -58 -162 -223 -162c-50 0 -138 13 -173 29v101c40 -16 107 -30 174 -30c82 0 111 21 111 62c0 40 -26 53 -98 59c-150 13 -195 46 -195 143c0 99 62 160 210 160
c50 0 128 -9 171 -28v-101c-45 17 -106 29 -172 29zM299 550h-94l58 200h135z" />
    <glyph glyph-name="scircumflex.small" unicode="&#xe108;" horiz-adv-x="505" 
d="M261 412c-74 0 -100 -18 -100 -60c0 -37 28 -45 100 -51c150 -13 195 -45 195 -151c0 -90 -58 -162 -223 -162c-50 0 -138 13 -173 29v101c40 -16 107 -30 174 -30c82 0 111 21 111 62c0 40 -26 53 -98 59c-150 13 -195 46 -195 143c0 99 62 160 210 160
c50 0 128 -9 171 -28v-101c-45 17 -106 29 -172 29zM345 550l-93 113l-93 -113h-95l131 200h114l131 -200h-95z" />
    <glyph glyph-name="scaron.small" unicode="&#xe109;" horiz-adv-x="505" 
d="M261 412c-74 0 -100 -18 -100 -60c0 -37 28 -45 100 -51c150 -13 195 -45 195 -151c0 -90 -58 -162 -223 -162c-50 0 -138 13 -173 29v101c40 -16 107 -30 174 -30c82 0 111 21 111 62c0 40 -26 53 -98 59c-150 13 -195 46 -195 143c0 99 62 160 210 160
c50 0 128 -9 171 -28v-101c-45 17 -106 29 -172 29zM252 637l93 113h95l-131 -200h-114l-131 200h95z" />
    <glyph glyph-name="scommaaccent.small" unicode="&#xe10a;" horiz-adv-x="505" 
d="M261 412c-74 0 -100 -18 -100 -60c0 -37 28 -45 100 -51c150 -13 195 -45 195 -151c0 -90 -58 -162 -223 -162c-50 0 -138 13 -173 29v101c40 -16 107 -30 174 -30c82 0 111 21 111 62c0 40 -26 53 -98 59c-150 13 -195 46 -195 143c0 99 62 160 210 160
c50 0 128 -9 171 -28v-101c-45 17 -106 29 -172 29zM190 -50h133l-65 -200h-89z" />
    <glyph glyph-name="scedilla.small" unicode="&#xe10b;" horiz-adv-x="505" 
d="M200 -94l9 83c-51 3 -119 14 -149 28v101c40 -16 107 -30 174 -30c82 0 111 21 111 62c0 40 -26 53 -98 59c-150 13 -195 46 -195 143c0 99 62 160 210 160c50 0 128 -9 171 -28v-101c-45 17 -106 29 -172 29c-74 0 -100 -18 -100 -60c0 -37 28 -45 100 -51
c150 -13 195 -45 195 -151c0 -84 -51 -152 -192 -161l4 -49c51 -12 93 -38 93 -93c0 -64 -49 -97 -119 -97c-49 0 -83 12 -97 19v76c10 -4 44 -18 82 -18c34 0 54 8 54 30c0 31 -26 42 -81 49z" />
    <glyph glyph-name="sdotbelow.small" unicode="&#xe10c;" horiz-adv-x="505" 
d="M261 412c-74 0 -100 -18 -100 -60c0 -37 28 -45 100 -51c150 -13 195 -45 195 -151c0 -90 -58 -162 -223 -162c-50 0 -138 13 -173 29v101c40 -16 107 -30 174 -30c82 0 111 21 111 62c0 40 -26 53 -98 59c-150 13 -195 46 -195 143c0 99 62 160 210 160
c50 0 128 -9 171 -28v-101c-45 17 -106 29 -172 29zM325 -148c0 -40 -33 -73 -73 -73s-73 33 -73 73s33 73 73 73s73 -33 73 -73z" />
    <glyph glyph-name="germandbls.small" unicode="&#xe10d;" horiz-adv-x="1010" 
d="M261 412c-74 0 -100 -18 -100 -60c0 -37 28 -45 100 -51c150 -13 195 -45 195 -151c0 -90 -58 -162 -223 -162c-50 0 -138 13 -173 29v101c40 -16 107 -30 174 -30c82 0 111 21 111 62c0 40 -26 53 -98 59c-150 13 -195 46 -195 143c0 99 62 160 210 160
c50 0 128 -9 171 -28v-101c-45 17 -106 29 -172 29zM766 412c-74 0 -100 -18 -100 -60c0 -37 28 -45 100 -51c150 -13 195 -45 195 -151c0 -90 -58 -162 -223 -162c-50 0 -138 13 -173 29v101c40 -16 107 -30 174 -30c82 0 111 21 111 62c0 40 -26 53 -98 59
c-150 13 -195 46 -195 143c0 99 62 160 210 160c50 0 128 -9 171 -28v-101c-45 17 -106 29 -172 29z" />
    <glyph glyph-name="tcaron.small" unicode="&#xe10e;" horiz-adv-x="500" 
d="M465 401h-159v-401h-112v401h-159v99h430v-99zM250 637l93 113h95l-131 -200h-114l-131 200h95z" />
    <glyph glyph-name="tcommaaccent.small" unicode="&#xe10f;" horiz-adv-x="497" 
d="M465 401h-159v-401h-112v401h-159v99h430v-99zM184 -50h133l-65 -200h-89z" />
    <glyph glyph-name="tcedilla.small" unicode="&#xe110;" horiz-adv-x="497" 
d="M465 401h-159v-401h-112v401h-159v99h430v-99zM204 -94l5 50c116 -10 156 -55 156 -109c0 -64 -49 -97 -119 -97c-49 0 -83 12 -97 19v76c10 -4 44 -18 82 -18c34 0 54 8 54 30c0 31 -26 42 -81 49z" />
    <glyph glyph-name="tdotbelow.small" unicode="&#xe111;" horiz-adv-x="497" 
d="M465 401h-159v-401h-112v401h-159v99h430v-99zM323 -148c0 -40 -33 -73 -73 -73s-73 33 -73 73s33 73 73 73s73 -33 73 -73z" />
    <glyph glyph-name="tbar.small" unicode="&#xe112;" horiz-adv-x="497" 
d="M85 193v86h109v122h-159v99h430v-99h-159v-122h109v-86h-109v-193h-112v193h-109z" />
    <glyph glyph-name="uacute.small" unicode="&#xe113;" horiz-adv-x="575" 
d="M288 -12c-153 0 -227 66 -227 177v335h112v-326c0 -60 42 -85 115 -85s115 25 115 85v326h112v-335c0 -111 -74 -177 -227 -177zM335 550h-94l58 200h135z" />
    <glyph glyph-name="ugrave.small" unicode="&#xe114;" horiz-adv-x="575" 
d="M288 -12c-153 0 -227 66 -227 177v335h112v-326c0 -60 42 -85 115 -85s115 25 115 85v326h112v-335c0 -111 -74 -177 -227 -177zM335 550h-94l-99 200h135z" />
    <glyph glyph-name="ucircumflex.small" unicode="&#xe115;" horiz-adv-x="575" 
d="M288 -12c-153 0 -227 66 -227 177v335h112v-326c0 -60 42 -85 115 -85s115 25 115 85v326h112v-335c0 -111 -74 -177 -227 -177zM381 550l-93 113l-93 -113h-95l131 200h114l131 -200h-95z" />
    <glyph glyph-name="udieresis.small" unicode="&#xe116;" horiz-adv-x="575" 
d="M288 -12c-153 0 -227 66 -227 177v335h112v-326c0 -60 42 -85 115 -85s115 25 115 85v326h112v-335c0 -111 -74 -177 -227 -177zM109 648c0 40 33 73 73 73s73 -33 73 -73s-33 -73 -73 -73s-73 33 -73 73zM321 648c0 40 33 73 73 73s73 -33 73 -73s-33 -73 -73 -73
s-73 33 -73 73z" />
    <glyph glyph-name="utilde.small" unicode="&#xe117;" horiz-adv-x="575" 
d="M288 -12c-153 0 -227 66 -227 177v335h112v-326c0 -60 42 -85 115 -85s115 25 115 85v326h112v-335c0 -111 -74 -177 -227 -177zM416 707h75c0 -81 -31 -140 -122 -140c-88 0 -108 74 -161 74c-43 0 -48 -29 -48 -54h-75c0 81 31 140 122 140c88 0 108 -74 161 -74
c43 0 48 29 48 54z" />
    <glyph glyph-name="uring.small" unicode="&#xe118;" horiz-adv-x="575" 
d="M288 -12c-153 0 -227 66 -227 177v335h112v-326c0 -60 42 -85 115 -85s115 25 115 85v326h112v-335c0 -111 -74 -177 -227 -177zM393 650c0 -70 -43 -103 -105 -103c-61 0 -105 33 -105 103s44 103 105 103c62 0 105 -33 105 -103zM250 650c0 -27 15 -37 38 -37
s39 10 39 37s-16 37 -39 37s-38 -10 -38 -37z" />
    <glyph glyph-name="ucaron.small" unicode="&#xe119;" horiz-adv-x="575" 
d="M288 -12c-153 0 -227 66 -227 177v335h112v-326c0 -60 42 -85 115 -85s115 25 115 85v326h112v-335c0 -111 -74 -177 -227 -177zM288 637l93 113h95l-131 -200h-114l-131 200h95z" />
    <glyph glyph-name="umacron.small" unicode="&#xe11a;" horiz-adv-x="575" 
d="M288 -12c-153 0 -227 66 -227 177v335h112v-326c0 -60 42 -85 115 -85s115 25 115 85v326h112v-335c0 -111 -74 -177 -227 -177zM142 605v89h292v-89h-292z" />
    <glyph glyph-name="ubreve.small" unicode="&#xe11b;" horiz-adv-x="575" 
d="M288 -12c-153 0 -227 66 -227 177v335h112v-326c0 -60 42 -85 115 -85s115 25 115 85v326h112v-335c0 -111 -74 -177 -227 -177zM288 550c-132 0 -181 56 -183 200h77c1 -76 27 -111 106 -111s105 35 106 111h77c-2 -144 -51 -200 -183 -200z" />
    <glyph glyph-name="uinvertedbreve.small" unicode="&#xe11c;" horiz-adv-x="575" 
d="M288 -12c-153 0 -227 66 -227 177v335h112v-326c0 -60 42 -85 115 -85s115 25 115 85v326h112v-335c0 -111 -74 -177 -227 -177zM288 750c132 0 181 -56 183 -200h-77c-1 76 -27 111 -106 111s-105 -35 -106 -111h-77c2 144 51 200 183 200z" />
    <glyph glyph-name="uhungarumlaut.small" unicode="&#xe11d;" horiz-adv-x="575" 
d="M288 -12c-153 0 -227 66 -227 177v335h112v-326c0 -60 42 -85 115 -85s115 25 115 85v326h112v-335c0 -111 -74 -177 -227 -177zM250 550h-94l58 200h135zM420 550h-94l58 200h135z" />
    <glyph glyph-name="udoublegrave.small" unicode="&#xe11e;" horiz-adv-x="575" 
d="M288 -12c-153 0 -227 66 -227 177v335h112v-326c0 -60 42 -85 115 -85s115 25 115 85v326h112v-335c0 -111 -74 -177 -227 -177zM420 550h-94l-99 200h135zM250 550h-94l-99 200h135z" />
    <glyph glyph-name="udotbelow.small" unicode="&#xe11f;" horiz-adv-x="575" 
d="M288 -12c-153 0 -227 66 -227 177v335h112v-326c0 -60 42 -85 115 -85s115 25 115 85v326h112v-335c0 -111 -74 -177 -227 -177zM361 -148c0 -40 -33 -73 -73 -73s-73 33 -73 73s33 73 73 73s73 -33 73 -73z" />
    <glyph glyph-name="uogonek.small" unicode="&#xe120;" horiz-adv-x="575" 
d="M61 165v335h112v-326c0 -60 42 -85 115 -85s115 25 115 85v326h112v-335c0 -84 -43 -142 -129 -165c-55 -25 -105 -64 -105 -125c0 -30 20 -51 56 -51c28 0 51 5 63 9v-68c-16 -6 -42 -15 -85 -15c-67 0 -123 37 -123 109c0 40 17 87 70 130c-136 7 -201 71 -201 176z
" />
    <glyph glyph-name="umacronbelow.small" unicode="&#xe121;" horiz-adv-x="575" 
d="M288 -12c-153 0 -227 66 -227 177v335h112v-326c0 -60 42 -85 115 -85s115 25 115 85v326h112v-335c0 -111 -74 -177 -227 -177zM434 -105v-89h-292v89h292z" />
    <glyph glyph-name="wacute.small" unicode="&#xe122;" horiz-adv-x="745" 
d="M602 500h126l-134 -509h-111l-111 375l-111 -375h-111l-134 509h126l73 -344l96 344h122l96 -344zM419 550h-94l58 200h135z" />
    <glyph glyph-name="wgrave.small" unicode="&#xe123;" horiz-adv-x="745" 
d="M602 500h126l-134 -509h-111l-111 375l-111 -375h-111l-134 509h126l73 -344l96 344h122l96 -344zM419 550h-94l-99 200h135z" />
    <glyph glyph-name="wcircumflex.small" unicode="&#xe124;" horiz-adv-x="745" 
d="M602 500h126l-134 -509h-111l-111 375l-111 -375h-111l-134 509h126l73 -344l96 344h122l96 -344zM465 550l-93 113l-93 -113h-95l131 200h114l131 -200h-95z" />
    <glyph glyph-name="wdieresis.small" unicode="&#xe125;" horiz-adv-x="745" 
d="M602 500h126l-134 -509h-111l-111 375l-111 -375h-111l-134 509h126l73 -344l96 344h122l96 -344zM193 648c0 40 33 73 73 73s73 -33 73 -73s-33 -73 -73 -73s-73 33 -73 73zM405 648c0 40 33 73 73 73s73 -33 73 -73s-33 -73 -73 -73s-73 33 -73 73z" />
    <glyph glyph-name="yacute.small" unicode="&#xe126;" horiz-adv-x="565" 
d="M415 500h134l-211 -325l1 -175h-112l1 175l-211 325h134l132 -226zM330 550h-94l58 200h135z" />
    <glyph glyph-name="ygrave.small" unicode="&#xe127;" horiz-adv-x="565" 
d="M415 500h134l-211 -325l1 -175h-112l1 175l-211 325h134l132 -226zM330 550h-94l-99 200h135z" />
    <glyph glyph-name="ycircumflex.small" unicode="&#xe128;" horiz-adv-x="565" 
d="M415 500h134l-211 -325l1 -175h-112l1 175l-211 325h134l132 -226zM376 550l-93 113l-93 -113h-95l131 200h114l131 -200h-95z" />
    <glyph glyph-name="ydieresis.small" unicode="&#xe129;" horiz-adv-x="565" 
d="M415 500h134l-211 -325l1 -175h-112l1 175l-211 325h134l132 -226zM104 648c0 40 33 73 73 73s73 -33 73 -73s-33 -73 -73 -73s-73 33 -73 73zM316 648c0 40 33 73 73 73s73 -33 73 -73s-33 -73 -73 -73s-73 33 -73 73z" />
    <glyph glyph-name="ytilde.small" unicode="&#xe12a;" horiz-adv-x="565" 
d="M415 500h134l-211 -325l1 -175h-112l1 175l-211 325h134l132 -226zM411 707h75c0 -81 -31 -140 -122 -140c-88 0 -108 74 -161 74c-43 0 -48 -29 -48 -54h-75c0 81 31 140 122 140c88 0 108 -74 161 -74c43 0 48 29 48 54z" />
    <glyph glyph-name="ymacron.small" unicode="&#xe12b;" horiz-adv-x="565" 
d="M415 500h134l-211 -325l1 -175h-112l1 175l-211 325h134l132 -226zM137 605v89h292v-89h-292z" />
    <glyph glyph-name="ij.small" unicode="&#xe12c;" horiz-adv-x="615" 
d="M187 0h-112v500h112v-500zM270 -1v101c26 -7 49 -11 80 -11c57 0 92 20 92 70v341h112v-344c0 -103 -61 -168 -197 -168c-27 0 -64 4 -87 11z" />
    <glyph glyph-name="zacute.small" unicode="&#xe12d;" horiz-adv-x="533" 
d="M490 0h-447v74l284 325l-264 -1v102h418v-74l-284 -325l293 1v-102zM314 550h-94l58 200h135z" />
    <glyph glyph-name="zcaron.small" unicode="&#xe12e;" horiz-adv-x="533" 
d="M490 0h-447v74l284 325l-264 -1v102h418v-74l-284 -325l293 1v-102zM267 637l93 113h95l-131 -200h-114l-131 200h95z" />
    <glyph glyph-name="zdotaccent.small" unicode="&#xe12f;" horiz-adv-x="533" 
d="M490 0h-447v74l284 325l-264 -1v102h418v-74l-284 -325l293 1v-102zM194 648c0 40 33 73 73 73s73 -33 73 -73s-33 -73 -73 -73s-73 33 -73 73z" />
    <glyph glyph-name="eng.small" unicode="&#xe130;" horiz-adv-x="584" 
d="M291 -262v104c71 0 116 38 116 100v82l-235 294l5 -318h-112v500h93l255 -318l-6 318h112v-580c0 -123 -117 -182 -228 -182z" />
    <glyph glyph-name="eth.small" unicode="&#xe131;" horiz-adv-x="590" 
d="M25 202v96h80v202h194c173 0 244 -97 244 -250s-71 -250 -244 -250h-194v202h-80zM217 99h79c104 0 135 62 135 151s-31 151 -135 151h-79v-103h99v-96h-99v-103z" />
    <glyph glyph-name="thorn.small" unicode="&#xe132;" horiz-adv-x="504" 
d="M293 78h-116v-78h-112v500h112v-78h116c131 0 177 -76 177 -172c0 -97 -47 -172 -177 -172zM356 250c0 39 -14 72 -67 73h-112v-146h112c53 1 67 34 67 73z" />
    <glyph glyph-name="ezh.small" unicode="&#xe133;" horiz-adv-x="529" 
d="M391 -14c0 119 -88 128 -210 128h-65v72l196 213l-280 -1v102h433v-76l-196 -214c136 -11 235 -60 235 -224c0 -199 -142 -248 -302 -248c-71 0 -140 14 -176 30v102c39 -15 105 -31 176 -31c102 0 189 27 189 147z" />
    <glyph glyph-name="ezhcaron.small" unicode="&#xe134;" horiz-adv-x="529" 
d="M391 -14c0 119 -88 128 -210 128h-65v72l196 213l-280 -1v102h433v-76l-196 -214c136 -11 235 -60 235 -224c0 -199 -142 -248 -302 -248c-71 0 -140 14 -176 30v102c39 -15 105 -31 176 -31c102 0 189 27 189 147zM241 637l93 113h95l-131 -200h-114l-131 200h95z" />
    <glyph glyph-name="schwa.small" unicode="&#xe135;" horiz-adv-x="571" 
d="M521 250c0 -164 -73 -262 -245 -262c-177 0 -227 108 -227 247c0 18 1 36 2 56h354c-5 68 -36 120 -144 120c-77 0 -145 -16 -189 -34v100c52 22 112 35 194 35c177 0 255 -94 255 -262zM277 88c92 0 125 52 128 125h-242c0 -72 21 -125 114 -125z" />
    <glyph glyph-name="ordfeminine.small" unicode="&#xe136;" horiz-adv-x="400" 
d="M399 376h-112l-27 79h-120l-27 -79h-112l137 382h124zM200 656l-39 -126h78z" />
    <glyph glyph-name="ordmasculine.small" unicode="&#xe137;" horiz-adv-x="454" 
d="M38 563c0 133 58 199 189 199s189 -66 189 -199s-58 -199 -189 -199s-189 66 -189 199zM314 563c0 83 -30 112 -87 112s-87 -29 -87 -112s30 -112 87 -112s87 29 87 112z" />
    <glyph glyph-name="cordinal.small" unicode="&#xe138;" horiz-adv-x="380" 
d="M38 563c0 129 60 199 191 199c40 0 81 -5 110 -12v-91c-20 5 -57 13 -95 13c-68 0 -104 -27 -104 -109s36 -109 104 -109c38 0 75 8 95 13v-91c-29 -7 -70 -12 -110 -12c-131 0 -191 70 -191 199z" />
    <glyph glyph-name="a.superior" unicode="&#xe139;" horiz-adv-x="281" 
d="M166 506c0 17 -6 26 -37 26c-33 0 -65 -8 -88 -17l-1 67c22 9 63 16 100 16c87 0 106 -36 106 -91v-166h-56l-9 16c-16 -13 -40 -23 -73 -23c-62 0 -85 34 -85 80c0 57 33 75 95 83l48 6v3zM167 456l-42 -5c-20 -2 -27 -14 -27 -30s9 -28 29 -28c16 0 30 5 40 12v51z" />
    <glyph glyph-name="b.superior" unicode="&#xe13a;" horiz-adv-x="301" 
d="M174 598c72 0 104 -42 104 -132c0 -91 -32 -132 -104 -132c-27 0 -54 8 -76 23l-8 -16h-55v375h84v-131c15 8 35 13 55 13zM119 407c7 -4 19 -9 36 -9c31 0 39 25 39 68s-8 68 -39 68c-17 0 -29 -5 -36 -9v-118z" />
    <glyph glyph-name="c.superior" unicode="&#xe13b;" horiz-adv-x="234" 
d="M23 466c0 82 32 132 121 132c28 0 52 -3 69 -10l-1 -69c-12 5 -28 9 -52 9c-40 0 -54 -23 -54 -62s14 -62 54 -62c24 0 40 4 52 9l1 -69c-17 -7 -41 -10 -69 -10c-89 0 -121 50 -121 132z" />
    <glyph glyph-name="d.superior" unicode="&#xe13c;" horiz-adv-x="301" 
d="M127 598c20 0 40 -5 55 -13v131h84v-375h-55l-8 16c-22 -15 -49 -23 -76 -23c-72 0 -104 41 -104 132c0 90 32 132 104 132zM182 407v118c-7 4 -19 9 -36 9c-31 0 -39 -25 -39 -68s8 -68 39 -68c17 0 29 5 36 9z" />
    <glyph glyph-name="e.superior" unicode="&#xe13d;" horiz-adv-x="279" 
d="M23 466c0 85 34 132 120 132c93 0 112 -56 112 -123c0 -10 -1 -22 -2 -33h-150c1 -27 13 -42 54 -42c32 0 63 5 88 13l1 -62c-30 -13 -70 -17 -100 -17c-90 0 -123 46 -123 132zM144 535c-28 0 -40 -17 -42 -49h74c0 31 -4 49 -32 49z" />
    <glyph glyph-name="f.superior" unicode="&#xe13e;" horiz-adv-x="198" 
d="M194 716l-1 -67c-5 2 -17 6 -35 6c-20 0 -34 -9 -34 -28v-36h64v-66h-64v-184h-83v184h-43v53l43 11v38c0 74 29 96 106 96c20 0 39 -4 47 -7z" />
    <glyph glyph-name="g.superior" unicode="&#xe13f;" horiz-adv-x="265" 
d="M127 406c-12 0 -28 2 -28 2c-2 -2 -4 -7 -4 -11c0 -6 3 -9 12 -10l98 -11c52 -6 68 -33 68 -75c0 -66 -70 -93 -154 -93c-82 0 -121 24 -121 71c0 34 22 53 51 60c-14 7 -23 23 -23 40c0 19 10 34 26 42c-27 16 -39 43 -39 82c0 63 33 95 114 95c29 0 54 -3 70 -7h72v-54
l-33 -9c2 -4 4 -16 4 -25c0 -65 -32 -97 -113 -97zM173 317l-59 6c-17 -2 -38 -7 -38 -26s13 -29 50 -29s65 9 65 32c0 10 -4 16 -18 17zM127 461c29 0 36 17 36 40s-7 40 -36 40s-36 -17 -36 -40s7 -40 36 -40z" />
    <glyph glyph-name="h.superior" unicode="&#xe140;" horiz-adv-x="300" 
d="M35 716h84v-131c18 9 41 13 59 13c72 0 89 -36 89 -85v-172h-84v167c0 16 -9 23 -25 23c-18 0 -30 -4 -39 -9v-181h-84v375z" />
    <glyph glyph-name="i.superior" unicode="&#xe141;" horiz-adv-x="160" 
d="M139 339c0 0 -17 -2 -31 -2c-44 0 -73 19 -73 67v187h84v-167c0 -13 5 -18 20 -18v-67zM29 665c0 26 21 48 48 48s48 -22 48 -48c0 -27 -21 -48 -48 -48s-48 21 -48 48z" />
    <glyph glyph-name="j.superior" unicode="&#xe142;" horiz-adv-x="150" 
d="M-16 208v69c36 1 51 16 51 46v268h84v-285c0 -68 -61 -97 -135 -98zM29 665c0 26 21 48 48 48s48 -22 48 -48c0 -27 -21 -48 -48 -48s-48 21 -48 48z" />
    <glyph glyph-name="k.superior" unicode="&#xe143;" horiz-adv-x="293" 
d="M119 716l-2 -212l65 87h103l-92 -108l100 -142h-105l-48 82l-23 -27l2 -55h-84v375h84z" />
    <glyph glyph-name="l.superior" unicode="&#xe144;" horiz-adv-x="160" 
d="M129 339c0 0 -17 -2 -31 -2c-44 0 -73 19 -73 67v312h83v-293c0 -13 6 -17 21 -17v-67z" />
    <glyph glyph-name="m.superior" unicode="&#xe145;" horiz-adv-x="438" 
d="M322 341v170c0 15 -9 20 -23 20c-16 0 -28 -4 -37 -9l1 -181h-85v170c0 15 -9 20 -23 20c-16 0 -27 -4 -36 -9v-181h-84v250h55l8 -17c21 14 48 24 77 24c35 0 55 -9 67 -23c21 14 47 23 77 23c69 0 87 -36 87 -85v-172h-84z" />
    <glyph glyph-name="n.superior" unicode="&#x207f;" horiz-adv-x="300" 
d="M35 591h55l8 -17c22 14 49 24 80 24c72 0 89 -36 89 -85v-172h-84v167c0 16 -9 23 -25 23c-18 0 -30 -4 -39 -9v-181h-84v250z" />
    <glyph glyph-name="o.superior" unicode="&#xe146;" horiz-adv-x="287" 
d="M144 399c34 0 40 20 40 67s-6 67 -40 67s-40 -20 -40 -67s6 -67 40 -67zM144 334c-91 0 -121 46 -121 132s30 132 121 132s121 -46 121 -132s-30 -132 -121 -132z" />
    <glyph glyph-name="p.superior" unicode="&#xe147;" horiz-adv-x="301" 
d="M174 334c-20 0 -40 5 -55 13v-131h-84v375h55l8 -16c22 15 49 23 76 23c72 0 104 -41 104 -132c0 -90 -32 -132 -104 -132zM119 525v-118c7 -4 19 -9 36 -9c31 0 39 25 39 68s-8 68 -39 68c-17 0 -29 -5 -36 -9z" />
    <glyph glyph-name="q.superior" unicode="&#xe148;" horiz-adv-x="301" 
d="M127 334c-72 0 -104 42 -104 132c0 91 32 132 104 132c27 0 54 -8 76 -23l8 16h55v-375h-84v131c-15 -8 -35 -13 -55 -13zM182 525c-7 4 -19 9 -36 9c-31 0 -39 -25 -39 -68s8 -68 39 -68c17 0 29 5 36 9v118z" />
    <glyph glyph-name="r.superior" unicode="&#xe149;" horiz-adv-x="206" 
d="M201 595v-72s-14 2 -27 2c-24 0 -44 -6 -55 -13v-171h-84v250h55l8 -17c19 15 48 24 72 24c15 0 24 -1 31 -3z" />
    <glyph glyph-name="s.superior" unicode="&#xe14a;" horiz-adv-x="254" 
d="M220 585l-1 -67c-26 10 -53 15 -82 15c-25 0 -33 -7 -33 -19c0 -13 6 -16 26 -18c83 -7 100 -23 100 -76c0 -47 -27 -86 -114 -86c-42 0 -70 8 -91 16l2 66c28 -12 59 -17 89 -17c25 0 35 8 35 20c0 13 -7 17 -27 19c-82 7 -100 24 -100 75c0 48 30 85 110 85
c41 0 67 -5 86 -13z" />
    <glyph glyph-name="t.superior" unicode="&#xe14b;" horiz-adv-x="198" 
d="M187 405v-65c-11 -4 -30 -6 -48 -6c-64 0 -93 28 -93 84v107h-43v53l43 11v55l83 22v-75h63v-66h-63v-96c0 -19 11 -27 30 -27c14 0 25 2 28 3z" />
    <glyph glyph-name="u.superior" unicode="&#xe14c;" horiz-adv-x="320" 
d="M274 341h-55l-8 17c-22 -14 -49 -24 -80 -24c-72 0 -89 36 -89 85v172h84v-167c0 -16 9 -23 25 -23c18 0 30 4 39 9v181h84v-250z" />
    <glyph glyph-name="v.superior" unicode="&#xe14d;" horiz-adv-x="278" 
d="M271 591l-86 -253h-92l-86 253h89l43 -161l43 161h89z" />
    <glyph glyph-name="w.superior" unicode="&#xe14e;" horiz-adv-x="369" 
d="M114 443l32 148h76l32 -148l22 148h82l-53 -253h-85l-36 154l-36 -154h-85l-53 253h82z" />
    <glyph glyph-name="x.superior" unicode="&#xe14f;" horiz-adv-x="288" 
d="M183 341l-40 78l-40 -78h-96l77 129l-73 121h96l36 -75l36 75h96l-73 -121l77 -129h-96z" />
    <glyph glyph-name="y.superior" unicode="&#xe150;" horiz-adv-x="278" 
d="M8 591h94l39 -158l38 158h91l-133 -375h-99l59 130z" />
    <glyph glyph-name="z.superior" unicode="&#xe151;" horiz-adv-x="264" 
d="M243 341h-222v57l108 122l-101 -1v72h208v-57l-108 -122l115 1v-72z" />
    <glyph glyph-name="ampersand" unicode="&#x26;" horiz-adv-x="734" 
d="M131 576c0 85 48 186 190 186c140 0 183 -85 183 -179c0 -106 -85 -155 -185 -205c45 -64 112 -137 179 -185c58 72 93 180 93 307h113c0 -154 -43 -279 -112 -366c43 -24 83 -38 126 -52l-41 -94c-53 16 -108 38 -161 72c-64 -47 -140 -72 -224 -72
c-150 0 -253 65 -253 220c0 112 50 167 134 213c-25 45 -42 99 -42 155zM414 125c-79 50 -151 134 -194 203c-48 -29 -67 -60 -67 -117c0 -88 71 -119 138 -119c45 0 91 13 123 33zM240 577c0 -39 9 -73 30 -113c73 38 127 62 126 118c0 42 -18 76 -74 76
c-59 0 -82 -36 -82 -81z" />
    <glyph glyph-name="ampersand.alt" unicode="&#xe160;" horiz-adv-x="729" 
d="M497 546h-102c5 15 11 37 11 59c0 31 -12 53 -63 53c-65 0 -79 -50 -79 -95c0 -111 64 -318 227 -415c42 34 70 84 70 150c0 59 -28 80 -65 80c-20 0 -47 -4 -63 -9v101c25 8 59 12 82 12c109 0 160 -71 160 -184c0 -79 -27 -142 -79 -195c34 -7 66 -11 102 -11v-104
c-72 0 -140 13 -197 37c-50 -24 -112 -37 -175 -37c-174 0 -290 63 -290 241c0 100 53 176 129 211c-10 39 -15 82 -15 120c0 88 43 202 192 202c132 0 170 -65 170 -140c0 -34 -9 -62 -15 -76zM322 90c19 0 38 3 58 8c-82 60 -143 144 -179 233c-31 -21 -49 -54 -49 -101
c0 -96 64 -140 170 -140z" />
    <glyph glyph-name="ampersand.small" unicode="&#xe161;" horiz-adv-x="734" 
d="M141 500h113c37 -108 144 -230 244 -307c58 72 93 180 93 307h113c0 -154 -43 -279 -112 -366c43 -24 83 -38 126 -52l-41 -94c-53 16 -108 38 -161 72c-64 -47 -140 -72 -224 -72c-150 0 -253 65 -253 220c0 112 50 167 134 213c-13 24 -25 51 -32 79zM414 125
c-79 50 -151 134 -194 203c-48 -29 -67 -60 -67 -117c0 -88 71 -119 138 -119c45 0 91 13 123 33z" />
    <glyph glyph-name="acute" unicode="&#xb4;" 
d="M310 550h-94l58 200h135z" />
    <glyph glyph-name="grave" unicode="`" 
d="M310 550h-94l-99 200h135z" />
    <glyph glyph-name="circumflex" unicode="&#x2c6;" 
d="M356 550l-93 113l-93 -113h-95l131 200h114l131 -200h-95z" />
    <glyph glyph-name="dieresis" unicode="&#xa8;" 
d="M84 648c0 40 33 73 73 73s73 -33 73 -73s-33 -73 -73 -73s-73 33 -73 73zM296 648c0 40 33 73 73 73s73 -33 73 -73s-33 -73 -73 -73s-73 33 -73 73z" />
    <glyph glyph-name="tilde" unicode="&#x2dc;" 
d="M391 707h75c0 -81 -31 -140 -122 -140c-88 0 -108 74 -161 74c-43 0 -48 -29 -48 -54h-75c0 81 31 140 122 140c88 0 108 -74 161 -74c43 0 48 29 48 54z" />
    </font>
</defs>
</svg>
